Vicious Rumors / Electric Punishment (Japan Edition)
Жанр: Heavy/Power/Thrash Metal
Страна-производитель диска: Japan
Год издания: 2013
Издатель (лейбл): Avalon Marquee Inc.
Номер по каталогу: MICP-11092
Страна: U.S.A.
Аудиокодек: FLAC (*.flac)
Тип рипа: image+.cue
Битрейт аудио: lossless
Продолжительность: 57:35
Источник (релизер): My CD
Наличие сканов в содержимом раздачи: да
Треклист:
01. I am The Gun 06:03
02. Black X List 04:26
03. Electric Punishment 06:09
04. D-Block 03:44
05. Escape (From Hell) 06:45
06. Dime Store Prophet 04:25
07. Together We Unite 03:34
08. Eternally 04:45
09. Thirst For A Kill 04:42
10. Strange Ways 03:06
11. Murderball (Live) 04:18
12. Let The Garden Burn (Live) 05:37

Лог создания рипа

Exact Audio Copy V1.1 from 23. June 2015
EAC extraction logfile from 9. May 2017, 19:30
Vicious Rumors / Electric Punishment (Japan Edition)
Used drive : HP DVD Writer 1170d Adapter: 1 ID: 1
Read mode : Secure
Utilize accurate stream : Yes
Defeat audio cache : Yes
Make use of C2 pointers : No
Read offset correction : 6
Overread into Lead-In and Lead-Out : No
Fill up missing offset samples with silence : Yes
Delete leading and trailing silent blocks : No
Null samples used in CRC calculations : Yes
Used interface : Native Win32 interface for Win NT & 2000
Used output format : User Defined Encoder
Selected bitrate : 1024 kBit/s
Quality : High
Add ID3 tag : No
Command line compressor : C:\Program Files (x86)\Exact Audio Copy\Flac\flac.exe
Additional command line options : -V -8 -T "Date=%year%" -T "Genre=%genre%" %source%
TOC of the extracted CD
Track | Start | Length | Start sector | End sector
---------------------------------------------------------
1 | 0:00.00 | 6:03.15 | 0 | 27239
2 | 6:03.15 | 4:25.53 | 27240 | 47167
3 | 10:28.68 | 6:08.73 | 47168 | 74840
4 | 16:37.66 | 3:44.23 | 74841 | 91663
5 | 20:22.14 | 6:45.19 | 91664 | 122057
6 | 27:07.33 | 4:24.49 | 122058 | 141906
7 | 31:32.07 | 3:34.33 | 141907 | 157989
8 | 35:06.40 | 4:45.30 | 157990 | 179394
9 | 39:51.70 | 4:41.68 | 179395 | 200537
10 | 44:33.63 | 3:06.30 | 200538 | 214517
11 | 47:40.18 | 4:18.26 | 214518 | 233893
12 | 51:58.44 | 5:36.74 | 233894 | 259167
Range status and errors
Selected range
Filename C:\EAC\Ungern666\Vicious Rumors - Electric Punishment (Japan Edition).wav
Peak level 100.0 %
Extraction speed 7.1 X
Range quality 100.0 %
Test CRC 52C51F4F
Copy CRC 52C51F4F
Copy OK
No errors occurred
AccurateRip summary
Track 1 accurately ripped (confidence 4) [97BCE0FF] (AR v2)
Track 2 accurately ripped (confidence 4) [36CE6BED] (AR v2)
Track 3 accurately ripped (confidence 4) [B4B1B14C] (AR v2)
Track 4 accurately ripped (confidence 4) [5810784B] (AR v2)
Track 5 accurately ripped (confidence 4) [6C6D96E6] (AR v2)
Track 6 accurately ripped (confidence 4) [1A562CB1] (AR v2)
Track 7 accurately ripped (confidence 4) [7A09EE36] (AR v2)
Track 8 accurately ripped (confidence 4) [90B3F91E] (AR v2)
Track 9 accurately ripped (confidence 4) [A5EC748B] (AR v2)
Track 10 accurately ripped (confidence 4) [507C9F7A] (AR v2)
Track 11 accurately ripped (confidence 4) [44C76D0F] (AR v2)
Track 12 accurately ripped (confidence 4) [4DF8620E] (AR v2)
All tracks accurately ripped
End of status report
---- CUETools DB Plugin V2.1.6
[CTDB TOCID: QZSJufdteEWnzULEgs87sazaiZs-] found
Submit result: QZSJufdteEWnzULEgs87sazaiZs- has been confirmed
Track | CTDB Status
1 | (5/5) Accurately ripped
2 | (5/5) Accurately ripped
3 | (5/5) Accurately ripped
4 | (5/5) Accurately ripped
5 | (5/5) Accurately ripped
6 | (5/5) Accurately ripped
7 | (5/5) Accurately ripped
8 | (5/5) Accurately ripped
9 | (5/5) Accurately ripped
10 | (5/5) Accurately ripped
11 | (5/5) Accurately ripped
12 | (5/5) Accurately ripped
==== Log checksum 717B611114EFBB8B6BFEF6DDC91BC3D1EFD79D529EF7F24EEE4AE9FCEDF4F436 ====
Материал предназначен для ознакомления!

To download the file disable ad blocking, and reload the page.

disable adblock How to disable ad blocking?

Download by magnet link 467 MB Download Torrent

Login using:

Similar topics

(Power | Heavy | Thrash Metal) Nine Stitches - Drunk - 1994, MP3, 320 kbps
 100 MB   0 | 0   15-Jun-18 16:10   0


   
Current time is: 16-Oct 07:28 :: All times are UTC ± 0