-Midnight Sun - Дискография (Japanese Editions) (4CD)- Жанр: Melodic Heavy/Power Metal
Носитель: CD
Год издания: 1997-2001
Издатель (лейбл): Avalon/Marquee Inc./Alfa Records Inc.
Страна-производитель диска: Japan
Страна исполнителя: Sweden
Аудиокодек: FLAC (*.flac)
Тип рипа: image+.cue
Битрейт аудио: lossless
Продолжительность: 03:39:47
Источник (релизер): Собственные CD
Наличие сканов: Да (Complete 600 DPI)
Доп. информация: Encyclopaedia Metallum
-

1997 - [CD] Another World (Japanese Edition) (Alfa Records Inc. ALCB-3180) [00:57:29]

01. Another World (Intro)
02. Moneymaker
03. No Way Out
04. Over and Over
05. All I Want
06. Looking for Love
07. Black Night
08. Hold Me Back
09. On n' On
10. Power of Greed
11. Front-Page News
12. Deep in My Heart
13. Name of Love
14. Deep in My Heart (Bonus Track)
15. Fire Still Burns (Bonus Track)
Pete Sandberg - Vocals
Mike D - Keyboards
Jonas Reingold - Bass
Chris Palm - Guitars
Anders "Theo" Theander - Drums

Лог создания рипа

Exact Audio Copy V1.3 from 2. September 2016
EAC extraction logfile from 8. May 2017, 18:10
Midnight Sun / Another World (Japan)
Used drive : ATAPI iHAS122 W Adapter: 2 ID: 0
Read mode : Secure
Utilize accurate stream : Yes
Defeat audio cache : Yes
Make use of C2 pointers : No
Read offset correction : 48
Overread into Lead-In and Lead-Out : No
Fill up missing offset samples with silence : Yes
Delete leading and trailing silent blocks : No
Null samples used in CRC calculations : Yes
Used interface : Installed external ASPI interface
Used output format : User Defined Encoder
Selected bitrate : 1024 kBit/s
Quality : High
Add ID3 tag : No
Command line compressor : C:\Program Files\FLAC\flac.exe
Additional command line options : -V -8 -T "Date=%year%" -T "Genre=%genre%" -T"COMMENT=Ripped by Ilijan - ilko" -8 -V %source%
TOC of the extracted CD
Track | Start | Length | Start sector | End sector
---------------------------------------------------------
1 | 0:00.00 | 1:54.55 | 0 | 8604
2 | 1:54.55 | 3:46.10 | 8605 | 25564
3 | 5:40.65 | 4:15.55 | 25565 | 44744
4 | 9:56.45 | 3:14.02 | 44745 | 59296
5 | 13:10.47 | 3:41.30 | 59297 | 75901
6 | 16:52.02 | 4:38.60 | 75902 | 96811
7 | 21:30.62 | 3:46.05 | 96812 | 113766
8 | 25:16.67 | 4:19.70 | 113767 | 133261
9 | 29:36.62 | 3:58.65 | 133262 | 151176
10 | 33:35.52 | 3:57.63 | 151177 | 169014
11 | 37:33.40 | 4:14.37 | 169015 | 188101
12 | 41:48.02 | 4:31.60 | 188102 | 208486
13 | 46:19.62 | 3:51.50 | 208487 | 225861
14 | 50:11.37 | 4:27.03 | 225862 | 245889
15 | 54:38.40 | 2:51.12 | 245890 | 258726
Range status and errors
Selected range
Filename D:\ilko\Midnight Sun - Another World (Japan).wav
Peak level 100.0 %
Extraction speed 4.0 X
Range quality 100.0 %
Test CRC 8534F315
Copy CRC 8534F315
Copy OK
No errors occurred
AccurateRip summary
Track 1 accurately ripped (confidence 1) [53E98274] (AR v2)
Track 2 accurately ripped (confidence 1) [E5F483BE] (AR v2)
Track 3 accurately ripped (confidence 1) [FDF38D89] (AR v2)
Track 4 accurately ripped (confidence 1) [8B5D6C2F] (AR v2)
Track 5 accurately ripped (confidence 1) [16FFC060] (AR v2)
Track 6 accurately ripped (confidence 1) [592B50C7] (AR v2)
Track 7 accurately ripped (confidence 1) [AF34FF86] (AR v2)
Track 8 accurately ripped (confidence 1) [1436ECCB] (AR v2)
Track 9 accurately ripped (confidence 1) [621C5280] (AR v2)
Track 10 accurately ripped (confidence 1) [426B514A] (AR v2)
Track 11 accurately ripped (confidence 1) [DF8F37A8] (AR v2)
Track 12 accurately ripped (confidence 1) [96086205] (AR v2)
Track 13 accurately ripped (confidence 1) [CC662402] (AR v2)
Track 14 accurately ripped (confidence 1) [6F540186] (AR v2)
Track 15 accurately ripped (confidence 1) [416E069E] (AR v2)
All tracks accurately ripped
End of status report
---- CUETools DB Plugin V2.1.6
[CTDB TOCID: 2sfwHWgsZgkrzrG9t8ovB6sIS0Q-] found
Submit result: 2sfwHWgsZgkrzrG9t8ovB6sIS0Q- has been confirmed
Track | CTDB Status
1 | (3/3) Accurately ripped
2 | (3/3) Accurately ripped
3 | (3/3) Accurately ripped
4 | (3/3) Accurately ripped
5 | (3/3) Accurately ripped
6 | (3/3) Accurately ripped
7 | (3/3) Accurately ripped
8 | (3/3) Accurately ripped
9 | (3/3) Accurately ripped
10 | (3/3) Accurately ripped
11 | (3/3) Accurately ripped
12 | (3/3) Accurately ripped
13 | (3/3) Accurately ripped
14 | (3/3) Accurately ripped
15 | (3/3) Accurately ripped
==== Log checksum FB5BAAF53606EE0176DA6AA6EDABD6CC591AF4B9F1D11D6371FA60EA59117F73 ====
-

1998 - [CD] Above & Beyond (Japanese Edition) (Avalon/Marquee Inc. MICY-1061) [00:53:32]

01. Above & Beyond (Intro)
02. Reality
03. Keep On Pushing
04. Deception of Evil
05. I Believe
06. Don't Get Me Wrong
07. Tears in My Eyes
08. Kissed by an Angel
09. Scream and Shout (Bonus Track)
10. Bad Blood
11. Endlessly
12. Eye of the Beholder
13. Hey
Pete Sandberg - Vocals
Jonas Reingold - Bass, Keyboards
Chris Palm - Guitars
Hempo Hildén - Drums

Лог создания рипа

Exact Audio Copy V1.3 from 2. September 2016
EAC extraction logfile from 8. May 2017, 18:43
Midnight Sun / Above & Beyond (Japan)
Used drive : ATAPI iHAS122 W Adapter: 2 ID: 0
Read mode : Secure
Utilize accurate stream : Yes
Defeat audio cache : Yes
Make use of C2 pointers : No
Read offset correction : 48
Overread into Lead-In and Lead-Out : No
Fill up missing offset samples with silence : Yes
Delete leading and trailing silent blocks : No
Null samples used in CRC calculations : Yes
Used interface : Installed external ASPI interface
Used output format : User Defined Encoder
Selected bitrate : 1024 kBit/s
Quality : High
Add ID3 tag : No
Command line compressor : C:\Program Files\FLAC\flac.exe
Additional command line options : -V -8 -T "Date=%year%" -T "Genre=%genre%" -T"COMMENT=Ripped by Ilijan - ilko" -8 -V %source%
TOC of the extracted CD
Track | Start | Length | Start sector | End sector
---------------------------------------------------------
1 | 0:00.00 | 1:15.14 | 0 | 5638
2 | 1:15.14 | 4:31.19 | 5639 | 25982
3 | 5:46.33 | 4:02.38 | 25983 | 44170
4 | 9:48.71 | 5:08.10 | 44171 | 67280
5 | 14:57.06 | 3:34.45 | 67281 | 83375
6 | 18:31.51 | 4:38.39 | 83376 | 104264
7 | 23:10.15 | 4:38.24 | 104265 | 125138
8 | 27:48.39 | 4:49.08 | 125139 | 146821
9 | 32:37.47 | 4:11.13 | 146822 | 165659
10 | 36:48.60 | 4:20.50 | 165660 | 185209
11 | 41:09.35 | 4:07.20 | 185210 | 203754
12 | 45:16.55 | 4:37.38 | 203755 | 224567
13 | 49:54.18 | 3:37.63 | 224568 | 240905
Range status and errors
Selected range
Filename D:\ilko\Midnight Sun - Above & Beyond (Japan).wav
Peak level 97.7 %
Extraction speed 3.7 X
Range quality 99.9 %
Test CRC FF3A5147
Copy CRC FF3A5147
Copy OK
No errors occurred
AccurateRip summary
Track 1 accurately ripped (confidence 5) [4AF2E953] (AR v2)
Track 2 accurately ripped (confidence 4) [2EDAFFA7] (AR v2)
Track 3 accurately ripped (confidence 4) [F54B3D17] (AR v2)
Track 4 accurately ripped (confidence 4) [5EDCDD8D] (AR v2)
Track 5 accurately ripped (confidence 4) [BAA731C9] (AR v2)
Track 6 accurately ripped (confidence 4) [D93F5F5E] (AR v2)
Track 7 accurately ripped (confidence 4) [3307B8EB] (AR v2)
Track 8 accurately ripped (confidence 4) [2545A392] (AR v2)
Track 9 accurately ripped (confidence 4) [6CE57067] (AR v2)
Track 10 accurately ripped (confidence 4) [13CC988F] (AR v2)
Track 11 accurately ripped (confidence 4) [4DF2C348] (AR v2)
Track 12 accurately ripped (confidence 4) [898B07C9] (AR v2)
Track 13 accurately ripped (confidence 4) [4DDE641C] (AR v2)
All tracks accurately ripped
End of status report
---- CUETools DB Plugin V2.1.6
[CTDB TOCID: kSmXDsGLxDsEVaRem001EU7bKDU-] found
Submit result: kSmXDsGLxDsEVaRem001EU7bKDU- has been confirmed
Track | CTDB Status
1 | (7/7) Accurately ripped
2 | (7/7) Accurately ripped
3 | (7/7) Accurately ripped
4 | (7/7) Accurately ripped
5 | (7/7) Accurately ripped
6 | (7/7) Accurately ripped
7 | (7/7) Accurately ripped
8 | (7/7) Accurately ripped
9 | (7/7) Accurately ripped
10 | (7/7) Accurately ripped
11 | (7/7) Accurately ripped
12 | (7/7) Accurately ripped
13 | (7/7) Accurately ripped
==== Log checksum 5F2C533233F5E44200080E02024A20BD62F135F7D46AAF9219DAD6460A046D2F ====
-

1999 - [CD] Nemesis (Japanese Edition) (Avalon/Marquee Inc. MICY-1138) [01:04:42]

01. Nemesis
02. You and I
03. Mortal Man
04. Resurrection
05. King of Broken Hearts
06. Conqueror
07. Watch Out
08. Dreams (Bonus Track)
09. I Don't Know
10. Conceal
11. Living on the Edge
12. Ave Maria
13. Nightfall (Bonus Track)
14. Seven Doors Hotel (Europe Cover)
15. Innocent
Pete Sandberg - Vocals
Jonas Reingold - Bass, Keyboards
Magnus Karlsson - Guitars
Jaime Salazar - Drums

Лог создания рипа

Exact Audio Copy V1.3 from 2. September 2016
EAC extraction logfile from 8. May 2017, 19:17
Midnight Sun / Nemesis (Japan)
Used drive : ATAPI iHAS122 W Adapter: 2 ID: 0
Read mode : Secure
Utilize accurate stream : Yes
Defeat audio cache : Yes
Make use of C2 pointers : No
Read offset correction : 48
Overread into Lead-In and Lead-Out : No
Fill up missing offset samples with silence : Yes
Delete leading and trailing silent blocks : No
Null samples used in CRC calculations : Yes
Used interface : Installed external ASPI interface
Used output format : User Defined Encoder
Selected bitrate : 1024 kBit/s
Quality : High
Add ID3 tag : No
Command line compressor : C:\Program Files\FLAC\flac.exe
Additional command line options : -V -8 -T "Date=%year%" -T "Genre=%genre%" -T"COMMENT=Ripped by Ilijan - ilko" -8 -V %source%
TOC of the extracted CD
Track | Start | Length | Start sector | End sector
---------------------------------------------------------
1 | 0:00.00 | 4:57.15 | 0 | 22289
2 | 4:57.15 | 4:50.51 | 22290 | 44090
3 | 9:47.66 | 4:23.05 | 44091 | 63820
4 | 14:10.71 | 4:22.47 | 63821 | 83517
5 | 18:33.43 | 5:43.21 | 83518 | 109263
6 | 24:16.64 | 4:05.01 | 109264 | 127639
7 | 28:21.65 | 4:26.37 | 127640 | 147626
8 | 32:48.27 | 3:55.59 | 147627 | 165310
9 | 36:44.11 | 3:39.41 | 165311 | 181776
10 | 40:23.52 | 3:52.26 | 181777 | 199202
11 | 44:16.03 | 4:20.40 | 199203 | 218742
12 | 48:36.43 | 3:48.38 | 218743 | 235880
13 | 52:25.06 | 3:12.55 | 235881 | 250335
14 | 55:37.61 | 5:24.41 | 250336 | 274676
15 | 61:02.27 | 3:39.64 | 274677 | 291165
Range status and errors
Selected range
Filename D:\ilko\Midnight Sun - Nemesis (Japan).wav
Peak level 97.4 %
Extraction speed 4.4 X
Range quality 100.0 %
Test CRC C78AAB9E
Copy CRC C78AAB9E
Copy OK
No errors occurred
AccurateRip summary
Track 1 accurately ripped (confidence 3) [2337F470] (AR v2)
Track 2 accurately ripped (confidence 3) [3A70C01D] (AR v2)
Track 3 accurately ripped (confidence 3) [78085BF0] (AR v2)
Track 4 accurately ripped (confidence 3) [54AEE781] (AR v2)
Track 5 accurately ripped (confidence 3) [9AD24EFB] (AR v2)
Track 6 accurately ripped (confidence 3) [1D8EECAA] (AR v2)
Track 7 accurately ripped (confidence 3) [B7D0DF57] (AR v2)
Track 8 accurately ripped (confidence 3) [CEB9F460] (AR v2)
Track 9 accurately ripped (confidence 3) [B2B1C263] (AR v2)
Track 10 accurately ripped (confidence 3) [8DADD1C6] (AR v2)
Track 11 accurately ripped (confidence 3) [9DB5B156] (AR v2)
Track 12 accurately ripped (confidence 3) [DBDDDB0C] (AR v2)
Track 13 accurately ripped (confidence 3) [C7EE17B7] (AR v2)
Track 14 accurately ripped (confidence 3) [49B7DBDC] (AR v2)
Track 15 accurately ripped (confidence 3) [C6FA413A] (AR v2)
All tracks accurately ripped
End of status report
---- CUETools DB Plugin V2.1.6
[CTDB TOCID: 89omX5fK7r2y24fiJqUrGydIf_0-] found
Submit result: 89omX5fK7r2y24fiJqUrGydIf_0- has been confirmed
Track | CTDB Status
1 | (10/10) Accurately ripped
2 | (10/10) Accurately ripped
3 | (10/10) Accurately ripped
4 | (10/10) Accurately ripped
5 | (10/10) Accurately ripped
6 | (10/10) Accurately ripped
7 | (10/10) Accurately ripped
8 | (10/10) Accurately ripped
9 | (10/10) Accurately ripped
10 | (10/10) Accurately ripped
11 | (10/10) Accurately ripped
12 | (10/10) Accurately ripped
13 | (10/10) Accurately ripped
14 | (10/10) Accurately ripped
15 | ( 9/10) Accurately ripped
==== Log checksum 966FA48D1DA0074D8106EC6F63AC8D7A8A4212FB7950A5C89F38B16387956F6B ====
-

2001 - [CD] Metal Machine (Japanese Edition) (Avalon/Marquee Inc. MICP-10260) [00:44:44]

01. Metal Gods
02. Distorted Eyes
03. Metal Will Stand Tall
04. Keeper of the Gate
05. Steel to Steel
06. Metal Machine
07. Fight
08. Dungeons of Steel
09. Your Blood Burns in Hell
10. Temple of the Graal
11. Genesis (Bonus Track)
Jakob Samuelsson - Vocals
Jonas Reingold - Bass
Magnus Karlsson - Guitars
Jaime Salazar - Drums

Лог создания рипа

Exact Audio Copy V1.3 from 2. September 2016
EAC extraction logfile from 8. May 2017, 19:46
Midnight Sun / Metalmachine (Japan)
Used drive : ATAPI iHAS122 W Adapter: 2 ID: 0
Read mode : Secure
Utilize accurate stream : Yes
Defeat audio cache : Yes
Make use of C2 pointers : No
Read offset correction : 48
Overread into Lead-In and Lead-Out : No
Fill up missing offset samples with silence : Yes
Delete leading and trailing silent blocks : No
Null samples used in CRC calculations : Yes
Used interface : Installed external ASPI interface
Used output format : User Defined Encoder
Selected bitrate : 1024 kBit/s
Quality : High
Add ID3 tag : No
Command line compressor : C:\Program Files\FLAC\flac.exe
Additional command line options : -V -8 -T "Date=%year%" -T "Genre=%genre%" -T"COMMENT=Ripped by Ilijan - ilko" -8 -V %source%
TOC of the extracted CD
Track | Start | Length | Start sector | End sector
---------------------------------------------------------
1 | 0:00.00 | 4:02.40 | 0 | 18189
2 | 4:02.40 | 4:47.65 | 18190 | 39779
3 | 8:50.30 | 3:49.73 | 39780 | 57027
4 | 12:40.28 | 4:09.25 | 57028 | 75727
5 | 16:49.53 | 3:55.28 | 75728 | 93380
6 | 20:45.06 | 4:29.37 | 93381 | 113592
7 | 25:14.43 | 3:19.11 | 113593 | 128528
8 | 28:33.54 | 3:33.40 | 128529 | 144543
9 | 32:07.19 | 4:23.29 | 144544 | 164297
10 | 36:30.48 | 4:18.27 | 164298 | 183674
11 | 40:49.00 | 3:55.17 | 183675 | 201316
Range status and errors
Selected range
Filename D:\ilko\Midnight Sun - Metalmachine (Japan).wav
Peak level 98.8 %
Extraction speed 3.6 X
Range quality 99.9 %
Test CRC 6A319FDE
Copy CRC 6A319FDE
Copy OK
No errors occurred
AccurateRip summary
Track 1 accurately ripped (confidence 1) [E57A86FD] (AR v2)
Track 2 accurately ripped (confidence 1) [7DFD8A2B] (AR v2)
Track 3 accurately ripped (confidence 1) [2699C81E] (AR v2)
Track 4 accurately ripped (confidence 1) [324A55B5] (AR v2)
Track 5 accurately ripped (confidence 1) [8B0165C0] (AR v2)
Track 6 accurately ripped (confidence 1) [EB387E4B] (AR v2)
Track 7 accurately ripped (confidence 1) [10CB5902] (AR v2)
Track 8 accurately ripped (confidence 1) [0CD03C52] (AR v2)
Track 9 accurately ripped (confidence 1) [43F6DA11] (AR v2)
Track 10 accurately ripped (confidence 1) [B66167D2] (AR v2)
Track 11 accurately ripped (confidence 1) [28CA2972] (AR v2)
All tracks accurately ripped
End of status report
---- CUETools DB Plugin V2.1.6
[CTDB TOCID: bwvCm0PRz9KhdSM.Gs2WS.bpHS0-] found
Submit result: bwvCm0PRz9KhdSM.Gs2WS.bpHS0- has been confirmed
Track | CTDB Status
1 | (7/7) Accurately ripped
2 | (7/7) Accurately ripped
3 | (7/7) Accurately ripped
4 | (7/7) Accurately ripped
5 | (7/7) Accurately ripped
6 | (7/7) Accurately ripped
7 | (7/7) Accurately ripped
8 | (7/7) Accurately ripped
9 | (7/7) Accurately ripped
10 | (7/7) Accurately ripped
11 | (7/7) Accurately ripped
==== Log checksum B0649C542BE6AAEDF64843F55F46CA508E646AAD47FE90C76ABE00DD3E2E25C4 ====
-

To download the file disable ad blocking, and reload the page.

disable adblock How to disable ad blocking?

Download by magnet link 1.79 GB Download Torrent

Login using:

Similar topics



   
Current time is: 23-Oct 07:19 :: All times are UTC ± 0