-Leverage - Дискография (3CD)- Жанр: Heavy/Power Metal
Носитель: CD
Год издания: 2006-2009
Издатель (лейбл): Avalon/Marquee Inc./Frontiers Records
Страна-производитель диска: Japan/Italy
Страна исполнителя: Finland (Helsinki/Jyväskylä)
Аудиокодек: FLAC (*.flac)
Тип рипа: image+.cue
Битрейт аудио: lossless
Продолжительность: 02:46:22
Источник (релизер): Собственные CD
Наличие сканов: Да (Complete 600 DPI)
Доп. информация: Encyclopaedia Metallum
-

2006 - [CD] Tides (Japanese Edition) (Avalon/Marquee Inc. MICP-10612) [00:57:53]

01. Fifteen Years
02. Superstition
03. Horizon
04. Dreamworld
05. Follow Down That River
06. Stranger
07. Sails
08. Marching to War
09. Twilight Symphony
10. Gone
11. Waterfall (Bonus Track)
12. Land of Flames (Bonus Track)
Pekka Heino - Vocals
Torsti Spoof - Guitars
Marko Niskala - Keyboards
Pekka Lampinen - Bass
Valtteri Revonkorpi - Drums
Tuomas Heikkinen - Guitars

Лог создания рипа

Exact Audio Copy V1.3 from 2. September 2016
EAC extraction logfile from 8. May 2017, 16:56
Leverage / Tides (Japan)
Used drive : ATAPI iHAS122 W Adapter: 2 ID: 0
Read mode : Secure
Utilize accurate stream : Yes
Defeat audio cache : Yes
Make use of C2 pointers : No
Read offset correction : 48
Overread into Lead-In and Lead-Out : No
Fill up missing offset samples with silence : Yes
Delete leading and trailing silent blocks : No
Null samples used in CRC calculations : Yes
Used interface : Installed external ASPI interface
Used output format : User Defined Encoder
Selected bitrate : 1024 kBit/s
Quality : High
Add ID3 tag : No
Command line compressor : C:\Program Files\FLAC\flac.exe
Additional command line options : -V -8 -T "Date=%year%" -T "Genre=%genre%" -T"COMMENT=Ripped by Ilijan - ilko" -8 -V %source%
TOC of the extracted CD
Track | Start | Length | Start sector | End sector
---------------------------------------------------------
1 | 0:00.00 | 5:32.09 | 0 | 24908
2 | 5:32.09 | 3:51.27 | 24909 | 42260
3 | 9:23.36 | 4:24.33 | 42261 | 62093
4 | 13:47.69 | 5:37.65 | 62094 | 87433
5 | 19:25.59 | 4:17.18 | 87434 | 106726
6 | 23:43.02 | 5:38.60 | 106727 | 132136
7 | 29:21.62 | 3:54.10 | 132137 | 149696
8 | 33:15.72 | 5:06.30 | 149697 | 172676
9 | 38:22.27 | 4:27.53 | 172677 | 192754
10 | 42:50.05 | 4:55.05 | 192755 | 214884
11 | 47:45.10 | 4:54.64 | 214885 | 236998
12 | 52:39.74 | 5:13.56 | 236999 | 260529
Range status and errors
Selected range
Filename D:\ilko\Leverage - Tides (Japan).wav
Peak level 98.4 %
Extraction speed 4.0 X
Range quality 99.9 %
Test CRC 4F4C2261
Copy CRC 4F4C2261
Copy OK
No errors occurred
AccurateRip summary
Track 1 accurately ripped (confidence 2) [19529137] (AR v2)
Track 2 accurately ripped (confidence 2) [6BF29647] (AR v2)
Track 3 accurately ripped (confidence 2) [8F9F97AA] (AR v2)
Track 4 accurately ripped (confidence 2) [1B9FE519] (AR v2)
Track 5 accurately ripped (confidence 2) [2F20AFA8] (AR v2)
Track 6 accurately ripped (confidence 2) [7257CD8C] (AR v2)
Track 7 accurately ripped (confidence 2) [B471EA9D] (AR v2)
Track 8 accurately ripped (confidence 2) [509BF82C] (AR v2)
Track 9 accurately ripped (confidence 2) [D746ACC3] (AR v2)
Track 10 accurately ripped (confidence 2) [A95935E6] (AR v2)
Track 11 accurately ripped (confidence 3) [9315C310] (AR v1)
Track 12 accurately ripped (confidence 3) [79E94ED7] (AR v1)
All tracks accurately ripped
End of status report
---- CUETools DB Plugin V2.1.6
[CTDB TOCID: QV6dOC2p0JdXXtD9We7DUFJTC6s-] found
Submit result: QV6dOC2p0JdXXtD9We7DUFJTC6s- has been confirmed
Track | CTDB Status
1 | (10/11) Accurately ripped
2 | (10/11) Accurately ripped
3 | (11/11) Accurately ripped
4 | (11/11) Accurately ripped
5 | (11/11) Accurately ripped
6 | (11/11) Accurately ripped
7 | (11/11) Accurately ripped
8 | (11/11) Accurately ripped
9 | (11/11) Accurately ripped
10 | (11/11) Accurately ripped
11 | (11/11) Accurately ripped
12 | (10/11) Accurately ripped
==== Log checksum 7D1B76E6811D6BB59EAD85AB0A3000E9E8C1FF277362005F68FDC4DDDEE783A3 ====
-

2008 - [CD] Blind Fire (Original Recording) (Frontiers Records FR CD 359) [00:52:59]

01. Shadow in the Rain
02. King of the Night
03. Stormchild
04. Sentenced
05. Hellhorn
06. Mister Universe
07. Don't Touch the Sun
08. Run Down the Hill
09. Heart of Darkness
10. Learn to Live
Pekka Heino - Vocals
Torsti Spoof - Guitars
Marko Niskala - Keyboards
Pekka Lampinen - Bass
Valtteri Revonkorpi - Drums
Tuomas Heikkinen - Guitars

Лог создания рипа

Exact Audio Copy V1.3 from 2. September 2016
EAC extraction logfile from 8. May 2017, 16:23
Leverage / Blind Fire
Used drive : ATAPI iHAS122 W Adapter: 2 ID: 0
Read mode : Secure
Utilize accurate stream : Yes
Defeat audio cache : Yes
Make use of C2 pointers : No
Read offset correction : 48
Overread into Lead-In and Lead-Out : No
Fill up missing offset samples with silence : Yes
Delete leading and trailing silent blocks : No
Null samples used in CRC calculations : Yes
Used interface : Installed external ASPI interface
Used output format : User Defined Encoder
Selected bitrate : 1024 kBit/s
Quality : High
Add ID3 tag : No
Command line compressor : C:\Program Files\FLAC\flac.exe
Additional command line options : -V -8 -T "Date=%year%" -T "Genre=%genre%" -T"COMMENT=Ripped by Ilijan - ilko" -8 -V %source%
TOC of the extracted CD
Track | Start | Length | Start sector | End sector
---------------------------------------------------------
1 | 0:00.00 | 5:52.19 | 0 | 26418
2 | 5:52.19 | 4:37.54 | 26419 | 47247
3 | 10:29.73 | 4:59.60 | 47248 | 69732
4 | 15:29.58 | 4:59.12 | 69733 | 92169
5 | 20:28.70 | 6:11.57 | 92170 | 120051
6 | 26:40.52 | 5:43.39 | 120052 | 145815
7 | 32:24.16 | 5:38.39 | 145816 | 171204
8 | 38:02.55 | 4:57.06 | 171205 | 193485
9 | 42:59.61 | 5:05.09 | 193486 | 216369
10 | 48:04.70 | 4:54.66 | 216370 | 238485
Range status and errors
Selected range
Filename D:\ilko\Leverage - Blind Fire.wav
Peak level 100.0 %
Extraction speed 3.8 X
Range quality 100.0 %
Test CRC C6910784
Copy CRC C6910784
Copy OK
No errors occurred
AccurateRip summary
Track 1 accurately ripped (confidence 7) [3B6072B0] (AR v2)
Track 2 accurately ripped (confidence 7) [EC5FC999] (AR v2)
Track 3 accurately ripped (confidence 7) [BE492FA5] (AR v2)
Track 4 accurately ripped (confidence 7) [8CB9F853] (AR v2)
Track 5 accurately ripped (confidence 7) [CC46D314] (AR v2)
Track 6 accurately ripped (confidence 7) [12CF1B4D] (AR v2)
Track 7 accurately ripped (confidence 7) [C13FE19C] (AR v2)
Track 8 accurately ripped (confidence 7) [BC1C50B8] (AR v2)
Track 9 accurately ripped (confidence 7) [B5CE73BA] (AR v2)
Track 10 accurately ripped (confidence 7) [5B74E397] (AR v2)
All tracks accurately ripped
End of status report
---- CUETools DB Plugin V2.1.6
[CTDB TOCID: bLMaTcxAzyiyQHNpnjg7gx4QMwk-] found
Submit result: bLMaTcxAzyiyQHNpnjg7gx4QMwk- has been confirmed
Track | CTDB Status
1 | (13/13) Accurately ripped
2 | (13/13) Accurately ripped
3 | (13/13) Accurately ripped
4 | (13/13) Accurately ripped
5 | (13/13) Accurately ripped
6 | (13/13) Accurately ripped
7 | (13/13) Accurately ripped
8 | (13/13) Accurately ripped
9 | (13/13) Accurately ripped
10 | (13/13) Accurately ripped
==== Log checksum FB7D337BB2DD6C73CA8D2F894E71DF5BB9BF6FA9EF317F26784E93C7B7FCA117 ====
-

2009 - [CD] Circus Colossus (Japanese Edition) (Avalon/Marquee Inc. MICP-10869) [00:56:10]

01. Rise
02. Wolf and the Moon
03. Movie Gods
04. Worldbeater
05. Rider of Storm
06. Legions of Invisible
07. Revelation
08. Don't Keep Me Waiting
09. Prisoners
10. Broken Wings
11. Mean and Evil (Bonus Track)
12. Walk on Home (Bonus Track)
Pekka Heino - Vocals
Torsti Spoof - Guitars
Marko Niskala - Keyboards
Sami Norrbacka - Bass
Valtteri Revonkorpi - Drums
Tuomas Heikkinen - Guitars

Лог создания рипа

Exact Audio Copy V1.3 from 2. September 2016
EAC extraction logfile from 8. May 2017, 17:35
Leverage / Circus Colossus
Used drive : ATAPI iHAS122 W Adapter: 2 ID: 0
Read mode : Secure
Utilize accurate stream : Yes
Defeat audio cache : Yes
Make use of C2 pointers : No
Read offset correction : 48
Overread into Lead-In and Lead-Out : No
Fill up missing offset samples with silence : Yes
Delete leading and trailing silent blocks : No
Null samples used in CRC calculations : Yes
Used interface : Installed external ASPI interface
Used output format : User Defined Encoder
Selected bitrate : 1024 kBit/s
Quality : High
Add ID3 tag : No
Command line compressor : C:\Program Files\FLAC\flac.exe
Additional command line options : -V -8 -T "Date=%year%" -T "Genre=%genre%" -T"COMMENT=Ripped by Ilijan - ilko" -8 -V %source%
TOC of the extracted CD
Track | Start | Length | Start sector | End sector
---------------------------------------------------------
1 | 0:00.00 | 1:54.24 | 0 | 8573
2 | 1:54.24 | 5:01.22 | 8574 | 31170
3 | 6:55.46 | 6:12.29 | 31171 | 59099
4 | 13:08.00 | 4:53.60 | 59100 | 81134
5 | 18:01.60 | 5:47.05 | 81135 | 107164
6 | 23:48.65 | 3:58.48 | 107165 | 125062
7 | 27:47.38 | 5:02.56 | 125063 | 147768
8 | 32:50.19 | 2:31.24 | 147769 | 159117
9 | 35:21.43 | 5:53.20 | 159118 | 185612
10 | 41:14.63 | 6:51.11 | 185613 | 216448
11 | 48:05.74 | 4:02.43 | 216449 | 234641
12 | 52:08.42 | 4:02.30 | 234642 | 252821
Range status and errors
Selected range
Filename D:\ilko\Leverage - Circus Colossus.wav
Peak level 100.0 %
Extraction speed 3.1 X
Range quality 100.0 %
Test CRC 78B9CAEE
Copy CRC 78B9CAEE
Copy OK
No errors occurred
AccurateRip summary
Track 1 accurately ripped (confidence 4) [62238055] (AR v2)
Track 2 accurately ripped (confidence 4) [64B29952] (AR v2)
Track 3 accurately ripped (confidence 4) [30EF6F26] (AR v2)
Track 4 accurately ripped (confidence 4) [8DB75416] (AR v2)
Track 5 accurately ripped (confidence 4) [5D2CDFE2] (AR v2)
Track 6 accurately ripped (confidence 4) [E8A4AC4F] (AR v2)
Track 7 accurately ripped (confidence 4) [E0EBB0A5] (AR v2)
Track 8 accurately ripped (confidence 4) [C511908F] (AR v2)
Track 9 accurately ripped (confidence 4) [DEA75D1E] (AR v2)
Track 10 accurately ripped (confidence 4) [525F4C47] (AR v2)
Track 11 accurately ripped (confidence 4) [C34806F8] (AR v2)
Track 12 accurately ripped (confidence 4) [1ED0426A] (AR v2)
All tracks accurately ripped
End of status report
---- CUETools DB Plugin V2.1.6
[CTDB TOCID: oQDMEchjYzjIgqcHPTGZXnuUmPM-] found
Submit result: already submitted
Track | CTDB Status
1 | (2/2) Accurately ripped
2 | (2/2) Accurately ripped
3 | (2/2) Accurately ripped
4 | (2/2) Accurately ripped
5 | (2/2) Accurately ripped
6 | (2/2) Accurately ripped
7 | (2/2) Accurately ripped
8 | (2/2) Accurately ripped
9 | (2/2) Accurately ripped
10 | (2/2) Accurately ripped
11 | (2/2) Accurately ripped
12 | (2/2) Accurately ripped
==== Log checksum 073CFC0D81990174E611591F418E547D93F3C0D535EE884BFC30ACC6648F9960 ====
-

To download the file disable ad blocking, and reload the page.

disable adblock How to disable ad blocking?

Download by magnet link 1.36 GB Download Torrent

Login using:

Similar topics



   
Current time is: 15-Oct 21:00 :: All times are UTC ± 0