Ryal / Alliance
Жанр: Epic Heavy Metal
Носитель: CD
Страна-производитель диска (релиза): Италия
Год издания: 2013
Издатель (лейбл): My Graveyard Productions
Номер по каталогу: MGP-115
Страна исполнителя (группы): Италия
Аудиокодек: FLAC (*.flac)
Тип рипа: image+.cue
Битрейт аудио: lossless
Продолжительность: 43:25
Источник (релизер): Собственный фирменный диск
Наличие сканов в содержимом раздачи: да
Треклист:
1. Intro 02:47
2. God of Mountains 05:26
3. Rest of My Soul 06:13
4. Urich 00:47
5. Alliance 05:14
6. Lennart 00:38
7. Hand of Glory 06:56
8. Comrades 04:01
9. Rising Hope 01:11
10. Sword of the Slain 06:55
11. Orghull 00:45
12. Outro 02:32

Лог создания рипа

Exact Audio Copy V1.0 beta 3 from 29. August 2011
EAC extraction logfile from 7. May 2017, 18:16
Ryal / Alliance
Used drive : Optiarc DVD RW AD-7260S Adapter: 1 ID: 1
Read mode : Secure
Utilize accurate stream : Yes
Defeat audio cache : Yes
Make use of C2 pointers : No
Read offset correction : 48
Overread into Lead-In and Lead-Out : No
Fill up missing offset samples with silence : Yes
Delete leading and trailing silent blocks : No
Null samples used in CRC calculations : Yes
Used interface : Native Win32 interface for Win NT & 2000
Used output format : Internal WAV Routines
Sample format : 44.100 Hz; 16 Bit; Stereo
TOC of the extracted CD
Track | Start | Length | Start sector | End sector
---------------------------------------------------------
1 | 0:00.00 | 2:47.27 | 0 | 12551
2 | 2:47.27 | 5:26.74 | 12552 | 37075
3 | 8:14.26 | 6:13.07 | 37076 | 65057
4 | 14:27.33 | 0:47.32 | 65058 | 68614
5 | 15:14.65 | 5:14.18 | 68615 | 92182
6 | 20:29.08 | 0:38.67 | 92183 | 95099
7 | 21:08.00 | 6:56.50 | 95100 | 126349
8 | 28:04.50 | 4:01.29 | 126350 | 144453
9 | 32:06.04 | 1:11.34 | 144454 | 149812
10 | 33:17.38 | 6:55.22 | 149813 | 180959
11 | 40:12.60 | 0:45.06 | 180960 | 184340
12 | 40:57.66 | 2:32.31 | 184341 | 195771
Range status and errors
Selected range
Filename C:\Мои документы\Ryal - 2013 - Alliance.wav
Peak level 100.0 %
Extraction speed 3.7 X
Range quality 100.0 %
Test CRC F8E9B524
Copy CRC F8E9B524
Copy OK
No errors occurred
AccurateRip summary
Track 1 accurately ripped (confidence 1) [39380F49] (AR v2)
Track 2 accurately ripped (confidence 1) [857D7570] (AR v2)
Track 3 accurately ripped (confidence 1) [211EA588] (AR v2)
Track 4 accurately ripped (confidence 1) [E98DE57B] (AR v2)
Track 5 accurately ripped (confidence 1) [F73244B4] (AR v2)
Track 6 accurately ripped (confidence 1) [B46E8039] (AR v2)
Track 7 accurately ripped (confidence 1) [E93FB22E] (AR v2)
Track 8 accurately ripped (confidence 1) [77C05A6F] (AR v2)
Track 9 accurately ripped (confidence 1) [32E503AB] (AR v2)
Track 10 accurately ripped (confidence 1) [C2741C51] (AR v2)
Track 11 accurately ripped (confidence 1) [6C78F630] (AR v2)
Track 12 accurately ripped (confidence 1) [8C530090] (AR v2)
All tracks accurately ripped
End of status report
---- CUETools DB Plugin V2.1.4
[CTDB TOCID: UgZCq.FwNLihEQ0Y6QYZcR4e.yY-] found
Submit result: UgZCq.FwNLihEQ0Y6QYZcR4e.yY- has been confirmed
Track | CTDB Status
1 | (2/2) Accurately ripped
2 | (2/2) Accurately ripped
3 | (2/2) Accurately ripped
4 | (2/2) Accurately ripped
5 | (2/2) Accurately ripped
6 | (2/2) Accurately ripped
7 | (2/2) Accurately ripped
8 | (2/2) Accurately ripped
9 | (2/2) Accurately ripped
10 | (2/2) Accurately ripped
11 | (2/2) Accurately ripped
12 | (2/2) Accurately ripped
==== Log checksum 17E02A6116A6F4C81B9723AB2B5F032456C0015F010DD5AA16F4A7C256FD312E ====

If you like the topic, please click share to help develop our site.

To download the file disable ad blocking, and reload the page.

disable adblock How to disable ad blocking?

Download by magnet link 399 MB Download Torrent

Login using:

Similar topics



   
Current time is: 20-May 14:13 :: All times are UTC + 3