Prodigal Sons / On Our Last Day
Жанр: Heavy Metal
Носитель: CD
Страна-производитель диска (релиза): Италия
Год издания: 2012
Издатель (лейбл): My Graveyard Productions
Номер по каталогу: MGP-083
Страна исполнителя (группы): Италия
Аудиокодек: FLAC (*.flac)
Тип рипа: image+.cue
Битрейт аудио: lossless
Продолжительность: 55:36
Источник (релизер): Собственный фирменный диск
Наличие сканов в содержимом раздачи: да
Треклист:
1. 1.9.8.4. 03:04
2. V 05:11
3. Banquet to the Gods 04:30
4. Let Us Speak 06:21
5. Deception from Heaven 05:09
6. Zeus 06:57
7. On Our Last Day 05:09
8. The Sacred Land 06:04
9. I Dream of Hope 08:10
10. Red Sharks (Crimson Glory cover) 05:01

Лог создания рипа

Exact Audio Copy V1.0 beta 3 from 29. August 2011
EAC extraction logfile from 7. May 2017, 18:50
Prodigal Sons / On Our Last Day
Used drive : Optiarc DVD RW AD-7260S Adapter: 1 ID: 1
Read mode : Secure
Utilize accurate stream : Yes
Defeat audio cache : Yes
Make use of C2 pointers : No
Read offset correction : 48
Overread into Lead-In and Lead-Out : No
Fill up missing offset samples with silence : Yes
Delete leading and trailing silent blocks : No
Null samples used in CRC calculations : Yes
Used interface : Native Win32 interface for Win NT & 2000
Used output format : Internal WAV Routines
Sample format : 44.100 Hz; 16 Bit; Stereo
TOC of the extracted CD
Track | Start | Length | Start sector | End sector
---------------------------------------------------------
1 | 0:00.00 | 3:04.11 | 0 | 13810
2 | 3:04.11 | 5:11.46 | 13811 | 37181
3 | 8:15.57 | 4:30.53 | 37182 | 57484
4 | 12:46.35 | 6:21.43 | 57485 | 86102
5 | 19:08.03 | 5:09.32 | 86103 | 109309
6 | 24:17.35 | 6:57.15 | 109310 | 140599
7 | 31:14.50 | 5:09.36 | 140600 | 163810
8 | 36:24.11 | 6:04.27 | 163811 | 191137
9 | 42:28.38 | 8:10.37 | 191138 | 227924
10 | 50:39.00 | 5:01.14 | 227925 | 250513
Range status and errors
Selected range
Filename C:\Мои документы\Prodigal Sons - 2012 - On Our Last Day.wav
Peak level 97.4 %
Extraction speed 3.1 X
Range quality 100.0 %
Test CRC 76DF1923
Copy CRC 76DF1923
Copy OK
No errors occurred
AccurateRip summary
Track 1 accurately ripped (confidence 1) [16974684] (AR v2)
Track 2 accurately ripped (confidence 1) [CC1911EF] (AR v2)
Track 3 accurately ripped (confidence 1) [0367636D] (AR v2)
Track 4 accurately ripped (confidence 1) [2E08DBDD] (AR v2)
Track 5 accurately ripped (confidence 1) [808E0CD5] (AR v2)
Track 6 accurately ripped (confidence 1) [52EE2892] (AR v2)
Track 7 accurately ripped (confidence 1) [594F5EE7] (AR v2)
Track 8 accurately ripped (confidence 1) [FF222A2A] (AR v2)
Track 9 accurately ripped (confidence 1) [985D3313] (AR v2)
Track 10 accurately ripped (confidence 1) [547D2151] (AR v2)
All tracks accurately ripped
End of status report
---- CUETools DB Plugin V2.1.4
[CTDB TOCID: 52tbPr3sL1NG6Svj3ZjguNtk8PU-] disk not present in database
Submit result: 52tbPr3sL1NG6Svj3ZjguNtk8PU- has been uploaded
==== Log checksum 9343486DEDCC0D6F7D96B3818CF4F7E62384DEF41E8EA111DA32D272C4104D41 ====

To download the file disable ad blocking, and reload the page.

disable adblock How to disable ad blocking?

Download by magnet link 555 MB Download Torrent

Login using:

Similar topics

(Heavy Metal, Groove Metal) Blaxem - Who Cares - 2017, MP3, 320 kbps
 86 MB   0 | 0   26-May-17 18:27   0
(Heavy Metal/Progressive) Wine Guardian - Onirica - 2017, MP3, 320 kbps
 115 MB   0 | 0   26-May-17 18:27   0
(Blackened Heavy Metal) Ophicvs - Machine Gun Reaper - 2017, MP3, 320 kbps
 109 MB   0 | 0   26-May-17 18:27   0
(Heavy Metal) Cremator - The Coming Of War - 2017, MP3, 320 kbps
 114 MB   0 | 0   26-May-17 18:27   0


   
Current time is: 16-Oct 08:36 :: All times are UTC ± 0