Castle / Welcome to the Graveyard (digipak)
Жанр: Heavy Doom Metal
Носитель: CD
Страна-производитель диска (релиза): Германия
Год издания: 2016
Издатель (лейбл): Ván Records
Номер по каталогу: VÁN199
Страна исполнителя (группы): США
Аудиокодек: FLAC (*.flac)
Тип рипа: image+.cue
Битрейт аудио: lossless
Продолжительность: 34:56
Источник (релизер): Собственный фирменный дискк
Наличие сканов в содержимом раздачи: да
Треклист:
1. Black Widow 04:07
2. Hammer and the Cross 04:43
3. Welcome to the Graveyard 04:07
4. Veil of Death 05:13
5. Flash of the Pentagram 03:13
6. Traitors Rune 04:05
7. Down in the Cauldron Bog 04:52
8. Natural Parallel 04:36

Лог создания рипа

Exact Audio Copy V1.0 beta 3 from 29. August 2011
EAC extraction logfile from 5. May 2017, 23:52
Castle / Welcome to the Graveyard (digipak)
Used drive : Optiarc DVD RW AD-7260S Adapter: 1 ID: 1
Read mode : Secure
Utilize accurate stream : Yes
Defeat audio cache : Yes
Make use of C2 pointers : No
Read offset correction : 48
Overread into Lead-In and Lead-Out : No
Fill up missing offset samples with silence : Yes
Delete leading and trailing silent blocks : No
Null samples used in CRC calculations : Yes
Used interface : Native Win32 interface for Win NT & 2000
Used output format : Internal WAV Routines
Sample format : 44.100 Hz; 16 Bit; Stereo
TOC of the extracted CD
Track | Start | Length | Start sector | End sector
---------------------------------------------------------
1 | 0:00.00 | 4:06.74 | 0 | 18523
2 | 4:06.74 | 4:42.29 | 18524 | 39702
3 | 8:49.28 | 4:06.52 | 39703 | 58204
4 | 12:56.05 | 5:12.32 | 58205 | 81636
5 | 18:08.37 | 3:12.44 | 81637 | 96080
6 | 21:21.06 | 4:04.25 | 96081 | 114405
7 | 25:25.31 | 4:51.24 | 114406 | 136254
8 | 30:16.55 | 4:35.34 | 136255 | 156913
Range status and errors
Selected range
Filename C:\Мои документы\Castle - 2016 - Welcome to the Graveyard (digipak).wav
Peak level 100.0 %
Extraction speed 3.6 X
Range quality 100.0 %
Test CRC D1A0EFF5
Copy CRC D1A0EFF5
Copy OK
No errors occurred
AccurateRip summary
Track 1 accurately ripped (confidence 2) [6BDDEBA1] (AR v2)
Track 2 accurately ripped (confidence 2) [7193051D] (AR v2)
Track 3 accurately ripped (confidence 2) [1B053A6A] (AR v2)
Track 4 accurately ripped (confidence 2) [F6948B51] (AR v2)
Track 5 accurately ripped (confidence 2) [38C46136] (AR v2)
Track 6 accurately ripped (confidence 2) [90036DA0] (AR v2)
Track 7 accurately ripped (confidence 2) [D86F08B6] (AR v2)
Track 8 accurately ripped (confidence 2) [32E15AD3] (AR v2)
All tracks accurately ripped
End of status report
---- CUETools DB Plugin V2.1.4
[CTDB TOCID: U.1OMXm7w8p6XJ1obZBK4pLh.is-] found
Submit result: U.1OMXm7w8p6XJ1obZBK4pLh.is- has been confirmed
Track | CTDB Status
1 | (10/10) Accurately ripped
2 | (10/10) Accurately ripped
3 | (10/10) Accurately ripped
4 | (10/10) Accurately ripped
5 | (10/10) Accurately ripped
6 | (10/10) Accurately ripped
7 | (10/10) Accurately ripped
8 | (10/10) Accurately ripped
==== Log checksum A574D143F683D32A2CD40253BCDEE497116347A03458104A9BBBC8DDD567AE47 ====

If you like the topic, please click share to help develop our site.

To download the file disable ad blocking, and reload the page.

disable adblock How to disable ad blocking?

Download by magnet link 443 MB Download Torrent

Login using:

Similar topics



   
Current time is: 24-Mar 09:47 :: All times are UTC + 3