-
Страна: U.S.A (San Diego, California)
Жанр: Heavy Metal
Год выпуска: 2006-2013
Аудио кодек: FLAC (*.flac)
Тип рипа: image+.cue
Битрейт аудио: lossless
Источник: Ilijan, toydollsru, SapoMalo
Наличие сканов в содержимом раздачи: 2006-2008 частично
-
Veronica Freeman Vocals (2005-present) See also: Lyraka, ex-Malady, [CD] The V - Now Or Never - 2015, ex-Evilution (USA)
Pete Wells Guitars (2005-present) See also: ex-Malady
Aric Avina Bass (2012-present)
Rikard Stjernquist Drums (2012-present)
-

2006 - Uncreation [Locomotive, LM177, Spain]

01. Uncreation (5:32)
02. Benedictum (3:46)
03. #4 (3:55)
04. Misogyny (5:13)
05. Ashes To Ashes (3:50)
06. Wicca (4:05)
07. Heaven And Hell (7:47)
08. Them (4:02)
09. Two Steps To The Sun (3:22)
10. Valkyrie Rising (8:43)
11. The Mob Rules (3:14)

Лог создания рипа

Exact Audio Copy V0.99 prebeta 3 from 28. July 2007
EAC extraction logfile from 14. September 2007, 20:01
Benedictum / Uncreation
Used drive : TSSTcorpCD/DVDW SH-S182D Adapter: 1 ID: 1
Read mode : Secure
Utilize accurate stream : Yes
Defeat audio cache : Yes
Make use of C2 pointers : No
Read offset correction : 6
Overread into Lead-In and Lead-Out : No
Fill up missing offset samples with silence : Yes
Delete leading and trailing silent blocks : No
Null samples used in CRC calculations : No
Used interface : Installed external ASPI interface
Used output format : Internal WAV Routines
Sample format : 44.100 Hz; 16 Bit; Stereo
TOC of the extracted CD
Track | Start | Length | Start sector | End sector
---------------------------------------------------------
1 | 0:00.00 | 5:32.19 | 0 | 24918
2 | 5:32.19 | 3:46.03 | 24919 | 41871
3 | 9:18.22 | 3:55.08 | 41872 | 59504
4 | 13:13.30 | 5:13.12 | 59505 | 82991
5 | 18:26.42 | 3:49.53 | 82992 | 100219
6 | 22:16.20 | 4:04.62 | 100220 | 118581
7 | 26:21.07 | 7:46.56 | 118582 | 153587
8 | 34:07.63 | 4:02.27 | 153588 | 171764
9 | 38:10.15 | 3:22.11 | 171765 | 186925
10 | 41:32.26 | 8:42.60 | 186926 | 226135
11 | 50:15.11 | 3:13.66 | 226136 | 240676
Range status and errors
Selected range
Filename D:\Cd\To Share\Benedictum - 2006 - Uncreation (Eac-Ape) By Sapo Malo\Benedictum -
Uncreation.wav
Peak level 100.0 %
Range quality 100.0 %
Copy CRC BFA5036F
Copy OK
No errors occurred
AccurateRip summary
Track 1 accurately ripped (confidence 2) [D46659D9]
Track 2 accurately ripped (confidence 2) [65A2E593]
Track 3 accurately ripped (confidence 2) [415FDF55]
Track 4 accurately ripped (confidence 2) [2220A325]
Track 5 accurately ripped (confidence 2) [8C93C83E]
Track 6 accurately ripped (confidence 2) [291D959D]
Track 7 accurately ripped (confidence 2) [C1C3F735]
Track 8 accurately ripped (confidence 2) [20CE1973]
Track 9 accurately ripped (confidence 2) [76E4F0D2]
Track 10 accurately ripped (confidence 2) [AE9F91AF]
Track 11 accurately ripped (confidence 2) [01171073]
All tracks accurately ripped
End of status report

2008 - Seasons Of Tragedy [Locomotive, LM563, Spain]

01. Dawn Of Seasons (Instrumental) (1:26)
02. Shell Shock (4:25)
03. Burn It Out (3:32)
04. Bare Bones (5:11)
05. Within The Solace (4:22)
06. Beast In The Field (6:37)
07. Legacy (5:35)
08. Nobodies Victim (4:45)
09. Balls To The Wall (5:45)
10. Steel Rain (5:46)
11. Seasons Of Tragedy (11:38)
12. Catch The Rainbow (Bonus Track) (6:34)

Лог создания рипа

Exact Audio Copy V0.99 prebeta 4 from 23. January 2008
EAC extraction logfile from 14. February 2008, 12:09
Benedictum / 2008 Seasons Of Tragedy
Used drive : HL-DT-STDVDRAM GSA-4120B Adapter: 1 ID: 0
Read mode : Secure
Utilize accurate stream : Yes
Defeat audio cache : Yes
Make use of C2 pointers : No
Read offset correction : 667
Overread into Lead-In and Lead-Out : No
Fill up missing offset samples with silence : Yes
Delete leading and trailing silent blocks : No
Null samples used in CRC calculations : No
Used interface : Installed external ASPI interface
Used output format : Internal WAV Routines
Sample format : 44.100 Hz; 16 Bit; Stereo
TOC of the extracted CD
Track | Start | Length | Start sector | End sector
---------------------------------------------------------
1 | 0:00.00 | 1:26.02 | 0 | 6451
2 | 1:26.02 | 4:25.32 | 6452 | 26358
3 | 5:51.34 | 3:32.03 | 26359 | 42261
4 | 9:23.37 | 5:11.36 | 42262 | 65622
5 | 14:34.73 | 4:21.44 | 65623 | 85241
6 | 18:56.42 | 6:36.73 | 85242 | 115014
7 | 25:33.40 | 5:35.03 | 115015 | 140142
8 | 31:08.43 | 4:44.60 | 140143 | 161502
9 | 35:53.28 | 5:44.38 | 161503 | 187340
10 | 41:37.66 | 5:46.27 | 187341 | 213317
11 | 47:24.18 | 11:37.68 | 213318 | 265660
12 | 59:02.11 | 6:34.33 | 265661 | 295243
Range status and errors
Selected range
Filename D:\Cd\To Share\Benedictum - 2008 - Seasons Of Tragedy\Benedictum - 2008 Seasons Of
Tragedy.wav
Peak level 100.0 %
Range quality 100.0 %
Copy CRC 3B1AE191
Copy OK
No errors occurred
AccurateRip summary
Track 1 not present in database
Track 2 not present in database
Track 3 not present in database
Track 4 not present in database
Track 5 not present in database
Track 6 not present in database
Track 7 not present in database
Track 8 not present in database
Track 9 not present in database
Track 10 not present in database
Track 11 not present in database
Track 12 not present in database
None of the tracks are present in the AccurateRip database
End of status report

2011 - Dominion [Frontiers, FR CD 508, Italy]

01. Dominion (4:18)
02. At The Gates (4:00)
03. Seer (4:34)
04. Grind It (2:44)
05. Prodigal Son (4:55)
06. The Shadowlands (4:56)
07. Beautiful Pain (1:30)
08. Dark Heart (4:00)
09. Bang (4:30)
10. Loud Silence (5:08)
11. Epsilon (8:54)
12. Sanctuary (Bonus Track) (5:08)
13. Overture\Temples Of Syrinx (Bonus Track) (8:22)

Лог создания рипа

Exact Audio Copy V0.99 prebeta 4 from 23. January 2008
Отчёт EAC об извлечении, выполненном 18. февраля 2011, 16:19
Benedictum / Dominion
Дисковод: _NEC DVD_RW ND-3500AG Adapter: 3 ID: 0
Режим чтения : Достоверность
Использование точного потока : Да
Отключение кэша аудио : Да
Использование указателей C2 : Нет
Коррекция смещения при чтении : 48
Способность читать области Lead-in и Lead-out : Нет
Заполнение пропущенных сэмплов тишиной : Да
Удаление блоков с тишиной в начале и конце : Нет
При вычислениях CRC использовались нулевые сэмплы : Да
Интерфейс : Установленный внешний ASPI-интерфейс
Выходной формат : Внутренние WAV-операции
Формат сэмплов : 44.100 Гц; 16 бит; стерео
TOC извлечённого CD
Трек | Старт | Длительность | Начальный сектор | Конечный сектор
---------------------------------------------------------------------
1 | 0:00.00 | 4:18.24 | 0 | 19373
2 | 4:18.24 | 3:59.64 | 19374 | 37362
3 | 8:18.13 | 4:34.23 | 37363 | 57935
4 | 12:52.36 | 2:44.05 | 57936 | 70240
5 | 15:36.41 | 4:55.08 | 70241 | 92373
6 | 20:31.49 | 4:56.12 | 92374 | 114585
7 | 25:27.61 | 1:29.71 | 114586 | 121331
8 | 26:57.57 | 4:00.19 | 121332 | 139350
9 | 30:58.01 | 4:30.36 | 139351 | 159636
10 | 35:28.37 | 5:07.39 | 159637 | 182700
11 | 40:36.01 | 8:54.21 | 182701 | 222771
12 | 49:30.22 | 5:07.53 | 222772 | 245849
13 | 54:38.00 | 8:21.61 | 245850 | 283485
Характеристики диапазона извлечения и сообщения об ошибках
Выбранный диапазон
Имя файла D:\Benedictum - Dominion.wav
Пиковый уровень 100.0 %
Качество диапазона 99.9 %
CRC теста E845F4B4
CRC копии E845F4B4
Копирование... OK
Ошибок не произошло
AccurateRip: сводка
Трек 1 нет в базе данных
Трек 2 нет в базе данных
Трек 3 нет в базе данных
Трек 4 нет в базе данных
Трек 5 нет в базе данных
Трек 6 нет в базе данных
Трек 7 нет в базе данных
Трек 8 нет в базе данных
Трек 9 нет в базе данных
Трек 10 нет в базе данных
Трек 11 нет в базе данных
Трек 12 нет в базе данных
Трек 13 нет в базе данных
Ни одного трека нет в базе AccurateRip
Конец отчёта

2013 - Obey [Frontiers, FR CD 626, Italy]

01. Dream Of The Banshee (0:58)
02. Fractured (3:57)
03. Obey (4:52)
04. Fighting For My Life (2:59)
05. Scream (4:09)
06. Evil That We Do (3:50)
07. Crossing Over (6:02)
08. Cry (4:06)
09. Thornz (4:23)
10. Die To Love You (3:40)
11. Apex Nation (3:37)
12. Retrograde (7:00)

Лог создания рипа

Exact Audio Copy V1.0 beta 3 from 29. August 2011
EAC extraction logfile from 14. January 2014, 1:36
Benedictum / Obey
Used drive : ATAPI iHAP122 9 Adapter: 3 ID: 0
Read mode : Secure
Utilize accurate stream : Yes
Defeat audio cache : Yes
Make use of C2 pointers : No
Read offset correction : 6
Overread into Lead-In and Lead-Out : No
Fill up missing offset samples with silence : Yes
Delete leading and trailing silent blocks : No
Null samples used in CRC calculations : Yes
Used interface : Installed external ASPI interface
Used output format : User Defined Encoder
Selected bitrate : 1024 kBit/s
Quality : High
Add ID3 tag : No
Command line compressor : C:\Program Files\FLAC\flac.exe
Additional command line options : -V -8 -T "Date=%year%" -T "Genre=%genre%" -T"COMMENT=Ripped by
Ilijan" -8 -V %source%
TOC of the extracted CD
Track | Start | Length | Start sector | End sector
---------------------------------------------------------
1 | 0:00.00 | 0:57.41 | 0 | 4315
2 | 0:57.41 | 3:57.34 | 4316 | 22124
3 | 4:55.00 | 4:51.38 | 22125 | 43987
4 | 9:46.38 | 2:59.18 | 43988 | 57430
5 | 12:45.56 | 4:08.38 | 57431 | 76068
6 | 16:54.19 | 3:50.37 | 76069 | 93355
7 | 20:44.56 | 6:02.00 | 93356 | 120505
8 | 26:46.56 | 4:06.00 | 120506 | 138955
9 | 30:52.56 | 4:22.70 | 138956 | 158675
10 | 35:15.51 | 3:40.23 | 158676 | 175198
11 | 38:55.74 | 3:37.37 | 175199 | 191510
12 | 42:33.36 | 7:00.00 | 191511 | 223010
Range status and errors
Selected range
Filename D:\Ilijan\Benedictum - Obey.wav
Peak level 100.0 %
Extraction speed 5.7 X
Range quality 100.0 %
Test CRC 5D9EE511
Copy CRC 5D9EE511
Copy OK
No errors occurred
AccurateRip summary
Track 1 not present in database
Track 2 not present in database
Track 3 not present in database
Track 4 not present in database
Track 5 not present in database
Track 6 not present in database
Track 7 not present in database
Track 8 not present in database
Track 9 not present in database
Track 10 not present in database
Track 11 not present in database
Track 12 not present in database
None of the tracks are present in the AccurateRip database
End of status report
---- CUETools DB Plugin V2.1.3
[CTDB TOCID: o_yAcSVHHXH2KEBQTiflBxJHlKs-] disk not present in database, Submit result:
o_yAcSVHHXH2KEBQTiflBxJHlKs- has been uploaded
==== Log checksum 4E805181AFF2A3B6020D9A6758EC83059B2BBC28E573C27883D5C7EDD75C7CBB ====

ИНФО

Спасибо
2006-2008 SapoMalo MMT
2011 toydollsru (разрешение получено)
2013 Илиян (разрешение получено)
Группа образовалась в 2005 году, их быстро заметил гитарист DIO Крэйг Голди. Дебютный альбом BENEDICTUM "Uncreation" был встречен очень теплыми рецензиями. Плод совместных трудов продюсера Джеффа Пилсона (DOKKEN, DIO, FOREIGNER) и музыкальных работ вокалистки Вероники Фриман и Пита Веллса, талантов ударника Блэки Санчеза, басиста Джессе Райта и клавишника Криса Моргана произвел фурор на хард-рок сцене – журнал Classic Rock в 2006 году поставил BENEDICTUM в ряд с одними из лучших групп, достойных внимания, а Rock Hard Germany счел их альбом одним из лучших 50 альбомов года. В записи CD также приняли участие сам Джефф Пилсон, Крэйг Голди и Джимми Бэйн.
В результате второй совместной работы Джеффа Пилсона и BENEDICTUM в 2008 году на свет появился диск "Seasons Of Tragedy" – альбом показал, что группа превратилась в метал-силу, с которой нельзя не считаться. Сырой и мощный вокал Вероники, песни с запоминающимися мелодиями, волшебный талант Пита Веллса, а также нового ударника Пола Куртуа, и, разумеется, мудрое руководство в лице Джеффа Пилсона – все черты CD говорили о том, что в этой работе есть что-то особенное. В качестве приглашенных музыкантов на альбоме вновь отметились Джефф Пилсон, Крэйг Голди, а также Джордж Линч, подаривший особый колорит песне "Bare Bones" и каверу ACCEPT "Balls to the Wall".
Драйвовая музыка и энергичные шоу завоевали BENEDICTUM право выступить на многих фестивалях, в том числе на Wacken Open Air, Gods Of Metal и Hard Rock Hell; благодаря им группа попала в тур с DORO в качестве разогревающей команды.
И вот, готовые к новой изумительной главе своей истории, BENEDICTUM отправляются в новое и удивительное музыкальное путешествие, подписав контракт с Frontiers Records. Группа заручилась поддержкой "грэмминосного" продюсера Риана Грина (MEGADETH, F5, MXPX, NOFX) и рванула вперед на полной скорости. Обновился и состав: теперь на басу играет Крис Шрум, на барабанах – Майк Паннон, на клавишных – Тони Диаз. И новая музыка обновленного состава говорит в пользу продолжения расширения горизонтов для BENEDICTUM и, несомненно, порадует старых фанов.

To download the file disable ad blocking, and reload the page.

disable adblock How to disable ad blocking?

Download by magnet link 1.75 GB Download Torrent

Login using:

Загрузка...

Similar topics

(Heavy Metal) Furious - Dead Mark - 2017, MP3, 320 kbps
 179 MB   0 | 0   26-May-17 21:27   0
(Heavy / Power Metal) Afterdreams - Nightmare - 2017, MP3, 320 kbps
 111 MB   0 | 0   26-May-17 21:27   1
(Heavy Metal, Groove Metal) Blaxem - Who Cares - 2017, MP3, 320 kbps
 86 MB   0 | 0   26-May-17 21:27   0
(Heavy Metal/Progressive) Wine Guardian - Onirica - 2017, MP3, 320 kbps
 115 MB   0 | 0   26-May-17 21:27   0


   
Current time is: 13-Dec 06:59 :: All times are UTC + 3