Ossian / Az igazi szabadsag
Жанр: Heavy Metal
Носитель: CD
Страна-производитель диска (релиза): Hungary
Год издания: 2017
Издатель (лейбл): HMRCD
Номер по каталогу: 170
Страна исполнителя (группы): Hungary
Аудиокодек: FLAC (*.flac)
Тип рипа: image+.cue
Битрейт аудио: lossless
Продолжительность: 0:44:30
Источник (релизер): Own CD
Наличие сканов в содержимом раздачи: да
Треклист:
Tracklist:
01. Az Igazi Szabadsag
02. Celszemely
03. A szerencse angyala
04. Kod elotted, kod mogotted
05. Ebredj fel
06. Ahol a szurkeség veget er
07. Vigyazz a szivemre
08. A tegnap tuzeben
09. Szememben, mint egy tukorben
10. Harangok
11. Vegso menedek

Лог создания рипа

Exact Audio Copy V1.3 from 2. September 2016
EAC extraction logfile from 5. May 2017, 9:39
Ossian / Az Igazi Szabadsag
Used drive : PIONEER BD-RW BDR-209D Adapter: 1 ID: 1
Read mode : Secure
Utilize accurate stream : Yes
Defeat audio cache : Yes
Make use of C2 pointers : No
Read offset correction : 667
Overread into Lead-In and Lead-Out : No
Fill up missing offset samples with silence : Yes
Delete leading and trailing silent blocks : No
Null samples used in CRC calculations : Yes
Used interface : Native Win32 interface for Win NT & 2000
Used output format : User Defined Encoder
Selected bitrate : 1024 kBit/s
Quality : High
Add ID3 tag : No
Command line compressor : C:\Program Files (x86)\Exact Audio Copy\FLAC\FLAC.EXE
Additional command line options : -6 -V -T "ARTIST=%artist%" -T "TITLE=%title%" -T "ALBUM=%albumtitle%" -T "DATE=%year%" -T "TRACKNUMBER=%tracknr%" -T "GENRE=%genre%" -T "COMMENT=%comment%" -T "BAND=%albuminterpret%" -T "ALBUMARTIST=%albuminterpret%" -T "COMPOSER=%composer%" %haslyrics%--tag-from-file=LYRICS="%lyricsfile%"%haslyrics% -T "DISCNUMBER=%cdnumber%" -T "TOTALDISCS=%totalcds%" -T "TOTALTRACKS=%numtracks%" %hascover%--picture="%coverfile%"%hascover% %source% -o %dest%
TOC of the extracted CD
Track | Start | Length | Start sector | End sector
---------------------------------------------------------
1 | 0:00.00 | 3:39.37 | 0 | 16461
2 | 3:39.37 | 3:35.19 | 16462 | 32605
3 | 7:14.56 | 4:46.65 | 32606 | 54120
4 | 12:01.46 | 3:32.66 | 54121 | 70086
5 | 15:34.37 | 3:52.56 | 70087 | 87542
6 | 19:27.18 | 3:26.57 | 87543 | 103049
7 | 22:54.00 | 4:34.00 | 103050 | 123599
8 | 27:28.00 | 3:58.00 | 123600 | 141449
9 | 31:26.00 | 4:31.00 | 141450 | 161774
10 | 35:57.00 | 4:28.56 | 161775 | 181930
11 | 40:25.56 | 4:04.19 | 181931 | 200249
Range status and errors
Selected range
Filename G:\Ossian - Az igazi szabadsag\Ossian - Az Igazi Szabadsag.wav
Peak level 95.6 %
Extraction speed 6.9 X
Range quality 100.0 %
Test CRC C6E9A0DA
Copy CRC C6E9A0DA
Copy OK
No errors occurred

Содержание индексной карты (.CUE)

REM GENRE "Heavy Metal"
REM DATE 2017
REM DISCID 990A6E0B
REM COMMENT "ExactAudioCopy v1.3"
PERFORMER "Ossian"
TITLE "Az Igazi Szabadsag"
REM COMPOSER ""
FILE "Ossian - Az Igazi Szabadsag.flac" WAVE
TRACK 01 AUDIO
TITLE "Az igazi szabadsag"
PERFORMER "Ossian"
REM COMPOSER ""
INDEX 01 00:00:00
TRACK 02 AUDIO
TITLE "Celszemely"
PERFORMER "Ossian"
REM COMPOSER ""
INDEX 01 03:39:37
TRACK 03 AUDIO
TITLE "A szerencse angyala"
PERFORMER "Ossian"
REM COMPOSER ""
INDEX 01 07:14:56
TRACK 04 AUDIO
TITLE "Kod elotted, kod mogotted"
PERFORMER "Ossian"
REM COMPOSER ""
INDEX 01 12:01:46
TRACK 05 AUDIO
TITLE "Ebredj fel"
PERFORMER "Ossian"
REM COMPOSER ""
INDEX 01 15:34:37
TRACK 06 AUDIO
TITLE "Ahol a szurkeseg vegeter"
PERFORMER "Ossian"
REM COMPOSER ""
INDEX 01 19:27:18
TRACK 07 AUDIO
TITLE "Vigyazz a szivemre"
PERFORMER "Ossian"
REM COMPOSER ""
INDEX 01 22:54:00
TRACK 08 AUDIO
TITLE "A tegnap tuzeben"
PERFORMER "Ossian"
REM COMPOSER ""
INDEX 01 27:28:00
TRACK 09 AUDIO
TITLE "Szememben, mint egy tukorben"
PERFORMER "Ossian"
REM COMPOSER ""
INDEX 01 31:26:00
TRACK 10 AUDIO
TITLE "Harangok"
PERFORMER "Ossian"
REM COMPOSER ""
INDEX 01 35:57:00
TRACK 11 AUDIO
TITLE "Vegso menedek"
PERFORMER "Ossian"
REM COMPOSER ""
INDEX 01 40:25:56

Лог проверки качества

AccurateRip summary
Track 1 not present in database
Track 2 not present in database
Track 3 not present in database
Track 4 not present in database
Track 5 not present in database
Track 6 not present in database
Track 7 not present in database
Track 8 not present in database
Track 9 not present in database
Track 10 not present in database
Track 11 not present in database
None of the tracks are present in the AccurateRip database
End of status report
---- CUETools DB Plugin V2.1.6
[CTDB TOCID: oR8A0jbst7tNTDLNCI0UhdXuw1k-] found
Submit result: already submitted
Track | CTDB Status
1 | (7/7) Accurately ripped
2 | (7/7) Accurately ripped
3 | (7/7) Accurately ripped
4 | (7/7) Accurately ripped
5 | (7/7) Accurately ripped
6 | (7/7) Accurately ripped
7 | (7/7) Accurately ripped
8 | (7/7) Accurately ripped
9 | (7/7) Accurately ripped
10 | (7/7) Accurately ripped
11 | (7/7) Accurately ripped
==== Log checksum 3FB2CB08E017AF648561551E1ED76BC10126059A729FBA578264EEBEC4235C4B ====
Доп. информация: Artwork

To download the file disable ad blocking, and reload the page.

disable adblock How to disable ad blocking?

Download by magnet link 330 MB Download Torrent

Login using:

Similar topics

(Heavy Metal, Groove Metal) Blaxem - Who Cares - 2017, MP3, 320 kbps
 86 MB   0 | 0   26-May-17 18:27   0
(Heavy Metal/Progressive) Wine Guardian - Onirica - 2017, MP3, 320 kbps
 115 MB   0 | 0   26-May-17 18:27   0
(Blackened Heavy Metal) Ophicvs - Machine Gun Reaper - 2017, MP3, 320 kbps
 109 MB   0 | 0   26-May-17 18:27   0
(Heavy Metal) Cremator - The Coming Of War - 2017, MP3, 320 kbps
 114 MB   0 | 0   26-May-17 18:27   0


   
Current time is: 16-Oct 08:39 :: All times are UTC ± 0