-Millenium - Коллекция (Full Length) (4CD)- Жанр: Melodic Heavy Metal
Носитель: CD
Год издания: 1997-2004
Издатель (лейбл): Alfa Music, Inc./Nippon Crown Co., Ltd./Metal Heaven
Страна-производитель диска: Japan/Germany
Страна исполнителя: United States (Tampa, Florida)
Аудиокодек: FLAC (*.flac)
Тип рипа: image+.cue
Битрейт аудио: lossless
Продолжительность: 03:18:09
Источник (релизер): Собственные CD
Наличие сканов: Да (Complete 600 DPI)
Доп. информация: Encyclopaedia Metallum
-

1997 - [CD] Millenium (Japanese Edition) (Alfa Music, Inc. ALCB-3188) [00:37:28]

01. Together as One
02. Believe in Love
03. Marianne
04. Come Back
05. Almost Made It to Heaven
06. Hold On
07. Gabriella
08. Gonna Let You Go
09. Invincible
J. Todd Plant - Vocals
Ralph Santolla - Guitars, Keyboards, Bass
Sean Philips - Guitars
Wayne Koho - Bass
Oliver Hanson - Drums
Roger Stephan - Drums
Keith Hancock - Bass

Лог создания рипа

Exact Audio Copy V1.3 from 2. September 2016
EAC extraction logfile from 2. May 2017, 16:24
Millenium / Millenium (Japan)
Used drive : MATSHITADVD-RAM UJ8G6 Adapter: 1 ID: 0
Read mode : Secure
Utilize accurate stream : Yes
Defeat audio cache : Yes
Make use of C2 pointers : No
Read offset correction : 103
Overread into Lead-In and Lead-Out : No
Fill up missing offset samples with silence : Yes
Delete leading and trailing silent blocks : No
Null samples used in CRC calculations : Yes
Used interface : Native Win32 interface for Win NT & 2000
Used output format : User Defined Encoder
Selected bitrate : 1024 kBit/s
Quality : High
Add ID3 tag : No
Command line compressor : C:\Program Files (x86)\Exact Audio Copy\FLAC\FLAC.EXE
Additional command line options : -V -8 -T "Date=%year%" -T"Genre=%genre%" -T"COMMENT=Ripped by Ilijan - ilko" -8 -V %source%
TOC of the extracted CD
Track | Start | Length | Start sector | End sector
---------------------------------------------------------
1 | 0:00.00 | 6:06.25 | 0 | 27474
2 | 6:06.25 | 3:20.62 | 27475 | 42536
3 | 9:27.12 | 3:25.18 | 42537 | 57929
4 | 12:52.30 | 3:44.52 | 57930 | 74781
5 | 16:37.07 | 4:31.10 | 74782 | 95116
6 | 21:08.17 | 4:19.15 | 95117 | 114556
7 | 25:27.32 | 4:16.58 | 114557 | 133814
8 | 29:44.15 | 3:41.37 | 133815 | 150426
9 | 33:25.52 | 4:02.63 | 150427 | 168639
Range status and errors
Selected range
Filename D:\ilko\Millenium - Millenium (Japan).wav
Peak level 97.2 %
Extraction speed 3.7 X
Range quality 100.0 %
Test CRC 076E2FDA
Copy CRC 076E2FDA
Copy OK
No errors occurred
AccurateRip summary
Track 1 accurately ripped (confidence 2) [5B1C0A67] (AR v2)
Track 2 accurately ripped (confidence 2) [A52599E8] (AR v2)
Track 3 accurately ripped (confidence 2) [7E1F5100] (AR v2)
Track 4 accurately ripped (confidence 2) [EFE453B7] (AR v2)
Track 5 accurately ripped (confidence 2) [46BF1C57] (AR v2)
Track 6 accurately ripped (confidence 2) [ADAF146E] (AR v2)
Track 7 accurately ripped (confidence 2) [5C122E3B] (AR v2)
Track 8 accurately ripped (confidence 2) [D52E05DA] (AR v2)
Track 9 accurately ripped (confidence 2) [5B410B79] (AR v2)
All tracks accurately ripped
End of status report
---- CUETools DB Plugin V2.1.6
[CTDB TOCID: 0BplSNc2Ao4kZxfxT104vGzvVDk-] found
Submit result: 0BplSNc2Ao4kZxfxT104vGzvVDk- has been confirmed
Track | CTDB Status
1 | (2/2) Accurately ripped
2 | (2/2) Accurately ripped
3 | (2/2) Accurately ripped
4 | (2/2) Accurately ripped
5 | (2/2) Accurately ripped
6 | (2/2) Accurately ripped
7 | (2/2) Accurately ripped
8 | (2/2) Accurately ripped
9 | (2/2) Accurately ripped
==== Log checksum F039B6D44408C56FB6896096FCAABE80788911FFC4776CE1A49F9AD7F647C530 ====
-

1999 - [CD] Angelfire (Japanese Edition) (Nippon Crown Co., Ltd. CRCL-4505) [01:03:39]

01. Nations
02. Shaman
03. Beyond the Pain
04. Until the End of Time
05. Angelfire
06. Heaven Sent
07. Julia
08. Bound for Glory
09. Run
10. Waiting for Godot
11. Remember
12. Saving Grace
13. The Color of Night
14. Hide Behind My Face
15. Dawn
J. Todd Plant - Vocals
Ralph Santolla - Guitars, Keyboards
Shane French - Guitars
Manfred Binder - Bass
Oliver Hanson - Drums

Лог создания рипа

Exact Audio Copy V1.3 from 2. September 2016
EAC extraction logfile from 2. May 2017, 16:58
Millenium / Angelfire (Japan)
Used drive : MATSHITADVD-RAM UJ8G6 Adapter: 1 ID: 0
Read mode : Secure
Utilize accurate stream : Yes
Defeat audio cache : Yes
Make use of C2 pointers : No
Read offset correction : 103
Overread into Lead-In and Lead-Out : No
Fill up missing offset samples with silence : Yes
Delete leading and trailing silent blocks : No
Null samples used in CRC calculations : Yes
Used interface : Native Win32 interface for Win NT & 2000
Used output format : User Defined Encoder
Selected bitrate : 1024 kBit/s
Quality : High
Add ID3 tag : No
Command line compressor : C:\Program Files (x86)\Exact Audio Copy\FLAC\FLAC.EXE
Additional command line options : -V -8 -T "Date=%year%" -T"Genre=%genre%" -T"COMMENT=Ripped by Ilijan - ilko" -8 -V %source%
TOC of the extracted CD
Track | Start | Length | Start sector | End sector
---------------------------------------------------------
1 | 0:00.00 | 1:42.52 | 0 | 7701
2 | 1:42.52 | 5:05.60 | 7702 | 30636
3 | 6:48.37 | 4:33.60 | 30637 | 51171
4 | 11:22.22 | 5:24.00 | 51172 | 75471
5 | 16:46.22 | 5:04.55 | 75472 | 98326
6 | 21:51.02 | 5:27.48 | 98327 | 122899
7 | 27:18.50 | 4:18.17 | 122900 | 142266
8 | 31:36.67 | 4:33.53 | 142267 | 162794
9 | 36:10.45 | 5:34.72 | 162795 | 187916
10 | 41:45.42 | 4:19.30 | 187917 | 207371
11 | 46:04.72 | 1:12.38 | 207372 | 212809
12 | 47:17.35 | 4:39.32 | 212810 | 233766
13 | 51:56.67 | 4:41.20 | 233767 | 254861
14 | 56:38.12 | 4:17.40 | 254862 | 274176
15 | 60:55.52 | 2:43.48 | 274177 | 286449
Range status and errors
Selected range
Filename D:\ilko\Millenium - Angelfire (Japan).wav
Peak level 98.8 %
Extraction speed 4.2 X
Range quality 99.9 %
Test CRC BFC027FA
Copy CRC BFC027FA
Copy OK
No errors occurred
AccurateRip summary
Track 1 accurately ripped (confidence 5) [3A0D96EC] (AR v2)
Track 2 accurately ripped (confidence 5) [4FCAACCB] (AR v2)
Track 3 accurately ripped (confidence 5) [D1E26A87] (AR v2)
Track 4 accurately ripped (confidence 5) [F3E56813] (AR v2)
Track 5 accurately ripped (confidence 5) [678CF6F9] (AR v2)
Track 6 accurately ripped (confidence 5) [69EDDD65] (AR v2)
Track 7 accurately ripped (confidence 5) [CCCBE7C6] (AR v2)
Track 8 accurately ripped (confidence 5) [10169D07] (AR v2)
Track 9 accurately ripped (confidence 5) [1F79D606] (AR v2)
Track 10 accurately ripped (confidence 5) [B036CC21] (AR v2)
Track 11 accurately ripped (confidence 5) [0C72A0C0] (AR v2)
Track 12 accurately ripped (confidence 5) [32C8A9B0] (AR v2)
Track 13 accurately ripped (confidence 5) [7BA27944] (AR v2)
Track 14 accurately ripped (confidence 5) [ABA7FD46] (AR v2)
Track 15 accurately ripped (confidence 5) [8EED916E] (AR v2)
All tracks accurately ripped
End of status report
---- CUETools DB Plugin V2.1.6
[CTDB TOCID: EdPn6umVEZIAHQgHsoklMKy7OCA-] found
Submit result: EdPn6umVEZIAHQgHsoklMKy7OCA- has been confirmed
Track | CTDB Status
1 | (7/8) Accurately ripped, or (1/8) differs in 30 samples @00:03:26,00:03:35,00:04:19,00:04:47,00:05:11,00:05:30,00:05:40,00:05:60,00:05:69
2 | (8/8) Accurately ripped
3 | (8/8) Accurately ripped
4 | (7/8) Accurately ripped, or (1/8) differs in 133 samples @02:58:59,03:01:16,03:02:46,03:02:72,03:03:23,03:03:49-03:03:50,03:03:62-03:03:63,03:04:14,03:04:26,03:04:40,03:04:52,03:04:66,03:05:04,03:05:30,03:05:56,03:06:07,03:19:42,03:20:46,03:21:10,03:22:68,03:23:45,03:29:55,03:29:69,03:30:20-03:30:21,03:33:45,03:50:65-03:50:66,03:53:66,03:54:18,03:54:31,03:54:44,03:54:57-03:54:58,03:55:09,03:55:49,04:19:44
5 | (8/8) Accurately ripped
6 | (8/8) Accurately ripped
7 | (8/8) Accurately ripped
8 | (8/8) Accurately ripped
9 | (8/8) Accurately ripped
10 | (8/8) Accurately ripped
11 | (8/8) Accurately ripped
12 | (8/8) Accurately ripped
13 | (8/8) Accurately ripped
14 | (8/8) Accurately ripped
15 | (8/8) Accurately ripped
==== Log checksum FCEFB523E622AAC5952855E4526152A6BED04DCCC5EE34E6D7DB37E8E99CCFB2 ====
-

2000 - [CD] Hourglass (Japanese Edition) (Nippon Crown Co., Ltd. CRCL-4545) [00:50:35]

01. Power to Love
02. Wheels Are Turning
03. Hourglass
04. No More Miracles
05. Superstar
06. Rocket Ride
07. I Will Follow
08. I Still Believe
09. Masquerade
10. Chasing Time
Jørn Lande - Vocals
Ralph Santolla - Guitars, Keyboards
Shane French - Guitars
Manfred Binder - Bass
Oliver Hanson - Drums

Лог создания рипа

Exact Audio Copy V1.3 from 2. September 2016
EAC extraction logfile from 2. May 2017, 17:29
Millenium / Hourglass (Japan)
Used drive : MATSHITADVD-RAM UJ8G6 Adapter: 1 ID: 0
Read mode : Secure
Utilize accurate stream : Yes
Defeat audio cache : Yes
Make use of C2 pointers : No
Read offset correction : 103
Overread into Lead-In and Lead-Out : No
Fill up missing offset samples with silence : Yes
Delete leading and trailing silent blocks : No
Null samples used in CRC calculations : Yes
Used interface : Native Win32 interface for Win NT & 2000
Used output format : User Defined Encoder
Selected bitrate : 1024 kBit/s
Quality : High
Add ID3 tag : No
Command line compressor : C:\Program Files (x86)\Exact Audio Copy\FLAC\FLAC.EXE
Additional command line options : -V -8 -T "Date=%year%" -T"Genre=%genre%" -T"COMMENT=Ripped by Ilijan - ilko" -8 -V %source%
TOC of the extracted CD
Track | Start | Length | Start sector | End sector
---------------------------------------------------------
1 | 0:00.00 | 4:28.30 | 0 | 20129
2 | 4:28.30 | 4:10.35 | 20130 | 38914
3 | 8:38.65 | 6:41.57 | 38915 | 69046
4 | 15:20.47 | 3:48.50 | 69047 | 86196
5 | 19:09.22 | 3:09.55 | 86197 | 100426
6 | 22:19.02 | 3:23.10 | 100427 | 115661
7 | 25:42.12 | 5:35.40 | 115662 | 140826
8 | 31:17.52 | 5:09.08 | 140827 | 164009
9 | 36:26.60 | 4:12.57 | 164010 | 182966
10 | 40:39.42 | 9:55.68 | 182967 | 227659
Range status and errors
Selected range
Filename D:\ilko\Millenium - Hourglass (Japan).wav
Peak level 99.8 %
Extraction speed 3.8 X
Range quality 99.9 %
Test CRC BB55B7AD
Copy CRC BB55B7AD
Copy OK
No errors occurred
AccurateRip summary
Track 1 accurately ripped (confidence 5) [98B884CE] (AR v2)
Track 2 accurately ripped (confidence 5) [B78D1FE4] (AR v2)
Track 3 accurately ripped (confidence 5) [4E3B7B11] (AR v2)
Track 4 accurately ripped (confidence 5) [B967B4E2] (AR v2)
Track 5 accurately ripped (confidence 5) [FE516303] (AR v2)
Track 6 accurately ripped (confidence 5) [43896CB0] (AR v2)
Track 7 accurately ripped (confidence 5) [3DCC1CF5] (AR v2)
Track 8 accurately ripped (confidence 5) [EF3327EF] (AR v2)
Track 9 accurately ripped (confidence 5) [8D88D417] (AR v2)
Track 10 accurately ripped (confidence 5) [B607264C] (AR v2)
All tracks accurately ripped
End of status report
---- CUETools DB Plugin V2.1.6
[CTDB TOCID: oyz.meblXU_zAMK_wyT0wygo9Vg-] found
Submit result: oyz.meblXU_zAMK_wyT0wygo9Vg- has been confirmed
Track | CTDB Status
1 | (8/8) Accurately ripped
2 | (8/8) Accurately ripped
3 | (8/8) Accurately ripped
4 | (8/8) Accurately ripped
5 | (8/8) Accurately ripped
6 | (7/8) Accurately ripped
7 | (7/8) Accurately ripped
8 | (8/8) Accurately ripped
9 | (8/8) Accurately ripped
10 | (7/8) Accurately ripped
==== Log checksum 205D2CFFA95500E5B20317B19D14962DE999F3F384503284914CDCD83F75A5F8 ====
-

2004 - [CD] Jericho (Original Recording) (Metal Heaven METAL HEAVEN 00003) [00:47:07]

01. My Saving Grace
02. Heaven Awaits
03. My War
04. Heresy
05. Morning Star
06. Above This World
07. Enemy of the Sun
08. Wheel of Fortune
09. Let There Be Light
10. Burning Again
J. Todd Plant - Vocals
Ralph Santolla - Guitars, Keyboards
Shane French - Guitars
Steve McKenna - Bass
Mark Prator - Drums

Лог создания рипа

Exact Audio Copy V1.3 from 2. September 2016
EAC extraction logfile from 2. May 2017, 16:00
Millenium / Jericho
Used drive : MATSHITADVD-RAM UJ8G6 Adapter: 1 ID: 0
Read mode : Secure
Utilize accurate stream : Yes
Defeat audio cache : Yes
Make use of C2 pointers : No
Read offset correction : 103
Overread into Lead-In and Lead-Out : No
Fill up missing offset samples with silence : Yes
Delete leading and trailing silent blocks : No
Null samples used in CRC calculations : Yes
Used interface : Native Win32 interface for Win NT & 2000
Used output format : User Defined Encoder
Selected bitrate : 1024 kBit/s
Quality : High
Add ID3 tag : No
Command line compressor : C:\Program Files (x86)\Exact Audio Copy\FLAC\FLAC.EXE
Additional command line options : -V -8 -T "Date=%year%" -T"Genre=%genre%" -T"COMMENT=Ripped by Ilijan - ilko" -8 -V %source%
TOC of the extracted CD
Track | Start | Length | Start sector | End sector
---------------------------------------------------------
1 | 0:00.00 | 5:37.19 | 0 | 25293
2 | 5:37.19 | 4:01.05 | 25294 | 43373
3 | 9:38.24 | 4:24.72 | 43374 | 63245
4 | 14:03.21 | 4:17.26 | 63246 | 82546
5 | 18:20.47 | 5:02.35 | 82547 | 105231
6 | 23:23.07 | 4:02.33 | 105232 | 123414
7 | 27:25.40 | 3:23.07 | 123415 | 138646
8 | 30:48.47 | 4:35.72 | 138647 | 159343
9 | 35:24.44 | 5:14.11 | 159344 | 182904
10 | 40:38.55 | 6:29.05 | 182905 | 212084
Range status and errors
Selected range
Filename D:\ilko\Millenium - Jericho.wav
Peak level 100.0 %
Extraction speed 3.9 X
Range quality 100.0 %
Test CRC FBA7F312
Copy CRC FBA7F312
Copy OK
No errors occurred
AccurateRip summary
Track 1 accurately ripped (confidence 5) [9066E68E] (AR v2)
Track 2 accurately ripped (confidence 5) [C4769A76] (AR v2)
Track 3 accurately ripped (confidence 5) [10CBE61F] (AR v2)
Track 4 accurately ripped (confidence 5) [7D2E4458] (AR v2)
Track 5 accurately ripped (confidence 5) [48B1C6A8] (AR v2)
Track 6 accurately ripped (confidence 5) [2C5B1BDC] (AR v2)
Track 7 accurately ripped (confidence 5) [261CDF84] (AR v2)
Track 8 accurately ripped (confidence 5) [4792F3CD] (AR v2)
Track 9 accurately ripped (confidence 5) [A2D19584] (AR v2)
Track 10 accurately ripped (confidence 5) [EAD42570] (AR v2)
All tracks accurately ripped
End of status report
---- CUETools DB Plugin V2.1.6
[CTDB TOCID: umN.an6thVQ64c5EZzZDXGye_ME-] found
Submit result: umN.an6thVQ64c5EZzZDXGye_ME- has been confirmed
Track | CTDB Status
1 | (11/11) Accurately ripped
2 | (11/11) Accurately ripped
3 | (11/11) Accurately ripped
4 | (11/11) Accurately ripped
5 | (10/11) Accurately ripped
6 | (11/11) Accurately ripped
7 | (10/11) Accurately ripped
8 | (11/11) Accurately ripped
9 | (11/11) Accurately ripped
10 | (11/11) Accurately ripped
==== Log checksum A56C1040BF4FFE929D160339BFE0BD751304D3BE421D1B24A0172FDBD980086A ====
-

To download the file disable ad blocking, and reload the page.

disable adblock How to disable ad blocking?

Download by magnet link 1.65 GB Download Torrent

Login using:

Similar topics



   
Current time is: 23-Oct 07:01 :: All times are UTC ± 0