-Cry Venom - Vanquish The Demon (Japanese Edition)- Жанр: Power Metal
Носитель: CD
Год издания: 2016-2017
Страна исполнителя: United States/Russian Federation (Los Angeles, Moscow)
Страна-производитель диска: Japan
Издатель: King Record Co., Ltd.
Номер по каталогу: KICP-1837
Аудиокодек: FLAC (*.flac)
Тип рипа: image+.cue
Битрейт аудио: lossless
Продолжительность: 01:04:58
Источник (релизер): Собственный CD
Наличие сканов: Да (Complete 600 DPI)
Доп. информация: Encyclopaedia Metallum
-

Треклист

01. Prelude
02. Wolfsbane
03. Vanquish the Demon
04. Second Wind
05. Kiss the Blade
06. Stronger Than Steel
07. By My Side
8. Frozen Heart
09. Unchained
10. Return Winter Shadow
11. Heavens Melody
12. Diamond
13. Aces High (Iron Maiden Cover) (Bonus Track)
-

Состав


Aleksey Smirnov - Vocals: Niko Gemini - Bass:
Wyatt Cooper - Drums: Jacky Vincent - Guitars:
Colton Majors - Keyboards:
-

Лог создания рипа

Exact Audio Copy V1.3 from 2. September 2016
EAC extraction logfile from 2. May 2017, 15:58
Cry Venom / Vanquish The Demon (Japan 2017)
Used drive : ATAPI iHAS122 W Adapter: 2 ID: 0
Read mode : Secure
Utilize accurate stream : Yes
Defeat audio cache : Yes
Make use of C2 pointers : No
Read offset correction : 48
Overread into Lead-In and Lead-Out : No
Fill up missing offset samples with silence : Yes
Delete leading and trailing silent blocks : No
Null samples used in CRC calculations : Yes
Used interface : Installed external ASPI interface
Used output format : User Defined Encoder
Selected bitrate : 1024 kBit/s
Quality : High
Add ID3 tag : No
Command line compressor : C:\Program Files\FLAC\flac.exe
Additional command line options : -V -8 -T "Date=%year%" -T "Genre=%genre%" -T"COMMENT=Ripped by Ilijan - ilko" -8 -V %source%
TOC of the extracted CD
Track | Start | Length | Start sector | End sector
---------------------------------------------------------
1 | 0:00.00 | 1:36.49 | 0 | 7248
2 | 1:36.49 | 4:59.47 | 7249 | 29720
3 | 6:36.21 | 3:39.23 | 29721 | 46168
4 | 10:15.44 | 3:58.22 | 46169 | 64040
5 | 14:13.66 | 4:19.09 | 64041 | 83474
6 | 18:33.00 | 4:53.65 | 83475 | 105514
7 | 23:26.65 | 5:35.65 | 105515 | 130704
8 | 29:02.55 | 4:36.22 | 130705 | 151426
9 | 33:39.02 | 4:14.30 | 151427 | 170506
10 | 37:53.32 | 6:59.34 | 170507 | 201965
11 | 44:52.66 | 5:19.55 | 201966 | 225945
12 | 50:12.46 | 10:19.34 | 225946 | 272404
13 | 60:32.05 | 4:26.46 | 272405 | 292400
Range status and errors
Selected range
Filename D:\ilko\Cry Venom - Vanquish The Demon (Japan 2017).wav
Peak level 99.9 %
Extraction speed 3.4 X
Range quality 99.9 %
Test CRC 53227DEF
Copy CRC 53227DEF
Copy OK
No errors occurred
AccurateRip summary
Track 1 not present in database
Track 2 not present in database
Track 3 not present in database
Track 4 not present in database
Track 5 not present in database
Track 6 not present in database
Track 7 not present in database
Track 8 not present in database
Track 9 not present in database
Track 10 not present in database
Track 11 not present in database
Track 12 not present in database
Track 13 not present in database
None of the tracks are present in the AccurateRip database
End of status report
---- CUETools DB Plugin V2.1.6
[CTDB TOCID: 8TaNkdVnS2NUJXnK0pxI3hS2lxE-] found
Submit result: 8TaNkdVnS2NUJXnK0pxI3hS2lxE- has been confirmed
Track | CTDB Status
1 | (1/1) Accurately ripped
2 | (1/1) Accurately ripped
3 | (1/1) Accurately ripped
4 | (1/1) Accurately ripped
5 | (1/1) Accurately ripped
6 | (1/1) Accurately ripped
7 | (1/1) Accurately ripped
8 | (1/1) Accurately ripped
9 | (1/1) Accurately ripped
10 | (1/1) Accurately ripped
11 | (1/1) Accurately ripped
12 | (1/1) Accurately ripped
13 | (1/1) Accurately ripped
==== Log checksum C7357FFFABEE699C5F595297BB8D984926F75872D9DD6FF1B31345C14578C0FD ====
-

To download the file disable ad blocking, and reload the page.

disable adblock How to disable ad blocking?

Download by magnet link 585 MB Download Torrent

Login using:

Загрузка...

Similar topics

(Melodic Power Metal) Cryonic Temple - Deliverance - 2018, MP3, 320 kbps
 133 MB   0 | 0   19-Jul-18 22:55   9
(Heavy, Power Metal) Crying Steel - Stay Steel - 2018, MP3, 320 kbps
 123 MB   0 | 0   14-Jun-18 21:35   2
(Speed/ Power Metal) Crystal Tears - Decadence Deluxe - 2018, MP3, 320 kbps
 106 MB   0 | 0   18-May-18 18:10   2


   
Current time is: 13-Dec 07:01 :: All times are UTC + 3