Vandroya / Beyond The Human Mind
Жанр: Heavy/Progressive Metal
Носитель: CD
Страна-производитель диска (релиза): Czech Republic
Год издания: 2017
Издатель (лейбл): Inner Wound Recordings
Номер по каталогу: IW83061
Страна исполнителя (группы): Brazil
Аудиокодек: FLAC (*.flac)
Тип рипа: image+.cue
Битрейт аудио: lossless
Продолжительность: 52:10
Источник (релизер): My CD
Наличие сканов в содержимом раздачи: да
Треклист:
01. Columns Of Illusion 02:41
02. The Path To The Endless Fall 06:09
03. Maya 06:38
04. Time After Time 04:18
05. Last Breath 04:33
06. I'm Alive 04:37
07. You'll Know My Name 05:59
08. If I Forgive Myself 06:25
09. Beyond The Human Mind 10:48

Лог создания рипа

Exact Audio Copy V1.1 from 23. June 2015
EAC extraction logfile from 3. May 2017, 11:51
Vandroya / Beyond The Human Mind
Used drive : HP DVD Writer 1170d Adapter: 1 ID: 1
Read mode : Secure
Utilize accurate stream : Yes
Defeat audio cache : Yes
Make use of C2 pointers : No
Read offset correction : 6
Overread into Lead-In and Lead-Out : No
Fill up missing offset samples with silence : Yes
Delete leading and trailing silent blocks : No
Null samples used in CRC calculations : Yes
Used interface : Native Win32 interface for Win NT & 2000
Used output format : User Defined Encoder
Selected bitrate : 1024 kBit/s
Quality : High
Add ID3 tag : No
Command line compressor : C:\Program Files (x86)\Exact Audio Copy\Flac\flac.exe
Additional command line options : -V -8 -T "Date=%year%" -T "Genre=%genre%" %source%
TOC of the extracted CD
Track | Start | Length | Start sector | End sector
---------------------------------------------------------
1 | 0:00.00 | 2:40.47 | 0 | 12046
2 | 2:40.47 | 6:09.08 | 12047 | 39729
3 | 8:49.55 | 6:38.34 | 39730 | 69613
4 | 15:28.14 | 4:18.24 | 69614 | 88987
5 | 19:46.38 | 4:33.22 | 88988 | 109484
6 | 24:19.60 | 4:38.23 | 109485 | 130357
7 | 28:58.08 | 5:59.32 | 130358 | 157314
8 | 34:57.40 | 6:25.14 | 157315 | 186203
9 | 41:22.54 | 10:48.15 | 186204 | 234818
Range status and errors
Selected range
Filename C:\EAC\Ungern666\Vandroya - Beyond The Human Mind.wav
Peak level 100.0 %
Extraction speed 5.8 X
Range quality 100.0 %
Test CRC 7A39D2FB
Copy CRC 7A39D2FB
Copy OK
No errors occurred
AccurateRip summary
Track 1 not present in database
Track 2 not present in database
Track 3 not present in database
Track 4 not present in database
Track 5 not present in database
Track 6 not present in database
Track 7 not present in database
Track 8 not present in database
Track 9 not present in database
None of the tracks are present in the AccurateRip database
End of status report
---- CUETools DB Plugin V2.1.6
[CTDB TOCID: XRwm.LkP63Wdv339MBQEmFXCm3w-] found
Submit result: XRwm.LkP63Wdv339MBQEmFXCm3w- has been confirmed
Track | CTDB Status
1 | (3/3) Accurately ripped
2 | (3/3) Accurately ripped
3 | (3/3) Accurately ripped
4 | (3/3) Accurately ripped
5 | (3/3) Accurately ripped
6 | (3/3) Accurately ripped
7 | (3/3) Accurately ripped
8 | (3/3) Accurately ripped
9 | (3/3) Accurately ripped
==== Log checksum 3B2F7373B8C554583DA38895B2B5C8001ECDE35C66A236D7D450591406FEA9C8 ====

Другие альбомы в lossless

2012 - One (Japan Edition) http://********.org/forum/viewtopic.php?t=4310096
-Материал предназначен для ознакомления!

To download the file disable ad blocking, and reload the page.

disable adblock How to disable ad blocking?

Download by magnet link 422 MB Download Torrent

Login using:

Similar topics



   
Current time is: 23-Oct 07:01 :: All times are UTC ± 0