-Labyrinth - Architecture Of A God (Japanese Edition)- Жанр: Progressive Power Metal
Носитель: CD
Год издания: 2017
Страна исполнителя: Italy (Massa, Tuscany)
Страна-производитель диска: Japan
Издатель: King Record Co., Ltd.
Номер по каталогу: KICP-1845
Аудиокодек: FLAC (*.flac)
Тип рипа: image+.cue
Битрейт аудио: lossless
Продолжительность: 01:05:47
Источник (релизер): Собственный CD
Наличие сканов: Да (Complete 600 DPI)
Доп. информация: Encyclopaedia Metallum
-

Треклист

01. Bullets
02. Still Alive
03. Take On My Legacy
04. A New Dream
05. Someone Says
06. Random Logic
07. Architecture of a God
08. Children (Robert Miles Cover)
09. Those Days
10. We Belong to Yesterday
11. Stardust and Ashes
12. Diamond
13. Those Days (Acoustic Version) (Bonus Track)
-

Состав


Roberto Tiranti - Vocals: Nik Mazzucconi - Bass: Oleg Smirnoff - Keyboards:
John Macaluso - Drums: Andrea Cantarelli - Guitars: Olaf Thörsen - Guitars:
-

Лог создания рипа

Exact Audio Copy V1.3 from 2. September 2016
EAC extraction logfile from 2. May 2017, 16:53
Labyrinth / Architectue Of A God (Japan)
Used drive : ATAPI iHAS122 W Adapter: 2 ID: 0
Read mode : Secure
Utilize accurate stream : Yes
Defeat audio cache : Yes
Make use of C2 pointers : No
Read offset correction : 48
Overread into Lead-In and Lead-Out : No
Fill up missing offset samples with silence : Yes
Delete leading and trailing silent blocks : No
Null samples used in CRC calculations : Yes
Used interface : Installed external ASPI interface
Used output format : User Defined Encoder
Selected bitrate : 1024 kBit/s
Quality : High
Add ID3 tag : No
Command line compressor : C:\Program Files\FLAC\flac.exe
Additional command line options : -V -8 -T "Date=%year%" -T "Genre=%genre%" -T"COMMENT=Ripped by Ilijan - ilko" -8 -V %source%
TOC of the extracted CD
Track | Start | Length | Start sector | End sector
---------------------------------------------------------
1 | 0:00.00 | 6:58.24 | 0 | 31373
2 | 6:58.24 | 4:50.74 | 31374 | 53197
3 | 11:49.23 | 4:07.26 | 53198 | 71748
4 | 15:56.49 | 5:25.10 | 71749 | 96133
5 | 21:21.59 | 4:46.74 | 96134 | 117657
6 | 26:08.58 | 1:56.06 | 117658 | 126363
7 | 28:04.64 | 8:42.72 | 126364 | 165585
8 | 36:47.61 | 4:10.30 | 165586 | 184365
9 | 40:58.16 | 5:16.62 | 184366 | 208127
10 | 46:15.03 | 6:35.23 | 208128 | 237775
11 | 52:50.26 | 5:19.14 | 237776 | 261714
12 | 58:09.40 | 3:33.26 | 261715 | 277715
13 | 61:42.66 | 4:04.59 | 277716 | 296074
Range status and errors
Selected range
Filename D:\ilko\Labyrinth - Architectue Of A God (Japan).wav
Peak level 99.9 %
Extraction speed 3.5 X
Range quality 100.0 %
Test CRC ADFB5E00
Copy CRC ADFB5E00
Copy OK
No errors occurred
AccurateRip summary
Track 1 not present in database
Track 2 not present in database
Track 3 not present in database
Track 4 not present in database
Track 5 not present in database
Track 6 not present in database
Track 7 not present in database
Track 8 not present in database
Track 9 not present in database
Track 10 not present in database
Track 11 not present in database
Track 12 not present in database
Track 13 not present in database
None of the tracks are present in the AccurateRip database
End of status report
---- CUETools DB Plugin V2.1.6
[CTDB TOCID: 3eNlVCsGCBCui22cn3MdXWGIjrQ-] found
Submit result: 3eNlVCsGCBCui22cn3MdXWGIjrQ- has been confirmed
Track | CTDB Status
1 | (2/2) Accurately ripped
2 | (2/2) Accurately ripped
3 | (2/2) Accurately ripped
4 | (2/2) Accurately ripped
5 | (2/2) Accurately ripped
6 | (2/2) Accurately ripped
7 | (2/2) Accurately ripped
8 | (2/2) Accurately ripped
9 | (2/2) Accurately ripped
10 | (2/2) Accurately ripped
11 | (2/2) Accurately ripped
12 | (2/2) Accurately ripped
13 | (2/2) Accurately ripped
==== Log checksum 5EB36BADF12F950DA9A00CED61CCC65CB7F4CA1D35636740DCD09E3A58097469 ====
-

To download the file disable ad blocking, and reload the page.

disable adblock How to disable ad blocking?

Download by magnet link 552 MB Download Torrent

Login using:

Загрузка...

Similar topics



   
Current time is: 13-Dec 07:48 :: All times are UTC + 3