Atkins May Project / Valley of Shadows
Жанр: Heavy Metal
Носитель: CD
Страна-производитель диска (релиза): UK
Год издания: 2012
Издатель (лейбл): Gonzo
Номер по каталогу: HST121CD
Страна исполнителя (группы): UK
Аудиокодек: FLAC (*.flac)
Тип рипа: image+.cue
Битрейт аудио: lossless
Продолжительность: 00:53:22
Источник (релизер): Свой рип
Наличие сканов в содержимом раздачи: да
Треклист:
1. Welcome to the Nightmare
2. No Ordinary Man
3. Bitter Waters
4. Enslaved to Love
5. Stronger Is the Grace
6. Harder They Fall
7. Not Ready to Die Today
8. Messiah (Prelude)
9. Valley of Shadows
10. The Shallowing (Return)

Лог создания рипа

Exact Audio Copy V1.0 beta 6 from 9. April 2015
EAC extraction logfile from 2. May 2017, 20:01
Atkins/May Project / Valley of Shadows
Used drive : Optiarc DVD RW AD-7700S Adapter: 1 ID: 1
Read mode : Secure
Utilize accurate stream : Yes
Defeat audio cache : Yes
Make use of C2 pointers : No
Read offset correction : 48
Overread into Lead-In and Lead-Out : No
Fill up missing offset samples with silence : Yes
Delete leading and trailing silent blocks : No
Null samples used in CRC calculations : Yes
Used interface : Native Win32 interface for Win NT & 2000
Used output format : User Defined Encoder
Selected bitrate : 1024 kBit/s
Quality : High
Add ID3 tag : No
Command line compressor : C:\Program Files (x86)\Exact Audio Copy\FLAC\FLAC.EXE
Additional command line options : -V -8 -T "Date=%year%" -T "Genre=%genre%" %source%
TOC of the extracted CD
Track | Start | Length | Start sector | End sector
---------------------------------------------------------
1 | 0:00.00 | 4:36.29 | 0 | 20728
2 | 4:36.29 | 4:34.11 | 20729 | 41289
3 | 9:10.40 | 7:43.46 | 41290 | 76060
4 | 16:54.11 | 5:57.57 | 76061 | 102892
5 | 22:51.68 | 3:42.51 | 102893 | 119593
6 | 26:34.44 | 4:32.37 | 119594 | 140030
7 | 31:07.06 | 4:58.27 | 140031 | 162407
8 | 36:05.33 | 4:46.56 | 162408 | 183913
9 | 40:52.14 | 8:21.42 | 183914 | 221530
10 | 49:13.56 | 4:08.53 | 221531 | 240183
Range status and errors
Selected range
Filename C:\Users\Олег\Desktop\Atkins,May Project - Valley of Shadows.wav
Peak level 100.0 %
Extraction speed 4.6 X
Range quality 99.9 %
Test CRC 8C290335
Copy CRC 8C290335
Copy OK
No errors occurred
AccurateRip summary
Track 1 accurately ripped (confidence 4) [28ECE0DA] (AR v2)
Track 2 accurately ripped (confidence 4) [A569AEC6] (AR v2)
Track 3 accurately ripped (confidence 4) [6ED59600] (AR v2)
Track 4 accurately ripped (confidence 4) [0BB80CDF] (AR v2)
Track 5 accurately ripped (confidence 4) [07644AA5] (AR v2)
Track 6 accurately ripped (confidence 4) [6E0ECC40] (AR v2)
Track 7 accurately ripped (confidence 4) [8088A7CD] (AR v2)
Track 8 accurately ripped (confidence 4) [CC6A0616] (AR v2)
Track 9 accurately ripped (confidence 4) [6734F93E] (AR v2)
Track 10 accurately ripped (confidence 4) [6F466C3A] (AR v2)
All tracks accurately ripped
End of status report
---- CUETools DB Plugin V2.1.6
[CTDB TOCID: RvLe7aaUJMuZhP5.PuzgrbFbXAo-] found
Submit result: RvLe7aaUJMuZhP5.PuzgrbFbXAo- has been confirmed
Track | CTDB Status
1 | (1/1) Accurately ripped
2 | (1/1) Accurately ripped
3 | (1/1) Accurately ripped
4 | (1/1) Accurately ripped
5 | (1/1) Accurately ripped
6 | (1/1) Accurately ripped
7 | (1/1) Accurately ripped
8 | (1/1) Accurately ripped
9 | (1/1) Accurately ripped
10 | (1/1) Accurately ripped
==== Log checksum DA03F08C38B6BAA5BFA73FF8A295947B32E2C5313B2220E41D022AF07FB9434F ====

Состав

Al Atkins : Vocals (ex-Judas Priest)
Paul May : Guitars

To download the file disable ad blocking, and reload the page.

disable adblock How to disable ad blocking?

Download by magnet link 364 MB Download Torrent

Login using:

Similar topics

(Heavy Metal, Groove Metal) Blaxem - Who Cares - 2017, MP3, 320 kbps
 86 MB   0 | 0   26-May-17 18:27   0
(Heavy Metal/Progressive) Wine Guardian - Onirica - 2017, MP3, 320 kbps
 115 MB   0 | 0   26-May-17 18:27   0
(Blackened Heavy Metal) Ophicvs - Machine Gun Reaper - 2017, MP3, 320 kbps
 109 MB   0 | 0   26-May-17 18:27   0
(Heavy Metal) Cremator - The Coming Of War - 2017, MP3, 320 kbps
 114 MB   0 | 0   26-May-17 18:27   0


   
Current time is: 23-Oct 07:01 :: All times are UTC ± 0