-Gloryhammer - Дискография (3CD)- Жанр: Symphonic Power Metal
Носитель: CD
Год издания: 2013-2015
Издатель (лейбл): Napalm Records
Страна-производитель диска: Germany
Страна исполнителя: United Kingdom (Perth, Scotland)
Аудиокодек: FLAC (*.flac)
Тип рипа: image+.cue
Битрейт аудио: lossless
Продолжительность: 02:31:35
Источник (релизер): Собственные CD
Наличие сканов: Да (Complete 600 DPI)
Доп. информация: Encyclopaedia Metallum
-

2013 - [CD] Tales From The Kingdom Of Fife (Original Recording, Limited Edition) (Napalm Records NPR 461) [00:50:36]

01. Anstruther's Dark Prophecy
02. The Unicorn Invasion of Dundee
03. Angus McFife
04. Quest for the Hammer of Glory
05. Magic Dragon
06. Silent Tears of Frozen Princess
07. Amulet of Justice
08. Hail to Crail
09. Beneath Cowdenbeath
10. The Epic Rage of Furious Thunder
11. Wizards! (Bonus Track)
Thomas Winkler - Vocals
Christopher Bowes - Keyboards, Vocals
James Spicemaster Cartwright - Bass
Ben Turk - Drums
Paul Templing - Guitars

Лог создания рипа

Exact Audio Copy V1.3 from 2. September 2016
EAC extraction logfile from 30. April 2017, 14:18
Gloryhammer / Tales From The Kingdom Of Fife
Used drive : ATAPI iHAS122 W Adapter: 2 ID: 0
Read mode : Secure
Utilize accurate stream : Yes
Defeat audio cache : Yes
Make use of C2 pointers : No
Read offset correction : 48
Overread into Lead-In and Lead-Out : No
Fill up missing offset samples with silence : Yes
Delete leading and trailing silent blocks : No
Null samples used in CRC calculations : Yes
Used interface : Installed external ASPI interface
Used output format : User Defined Encoder
Selected bitrate : 1024 kBit/s
Quality : High
Add ID3 tag : No
Command line compressor : C:\Program Files\FLAC\flac.exe
Additional command line options : -V -8 -T "Date=%year%" -T "Genre=%genre%" -T"COMMENT=Ripped by Ilijan - ilko" -8 -V %source%
TOC of the extracted CD
Track | Start | Length | Start sector | End sector
---------------------------------------------------------
1 | 0:00.00 | 1:26.57 | 0 | 6506
2 | 1:26.57 | 4:26.08 | 6507 | 26464
3 | 5:52.65 | 3:28.17 | 26465 | 42081
4 | 9:21.07 | 5:37.71 | 42082 | 67427
5 | 14:59.03 | 5:27.51 | 67428 | 92003
6 | 20:26.54 | 5:34.09 | 92004 | 117062
7 | 26:00.63 | 4:26.51 | 117063 | 137063
8 | 30:27.39 | 4:43.12 | 137064 | 158300
9 | 35:10.51 | 2:29.23 | 158301 | 169498
10 | 37:39.74 | 10:33.32 | 169499 | 217005
11 | 48:13.31 | 2:22.55 | 217006 | 227710
Range status and errors
Selected range
Filename D:\ilko\Gloryhammer - Tales From The Kingdom Of Fife.wav
Peak level 100.0 %
Extraction speed 3.9 X
Range quality 99.9 %
Test CRC B29AD52A
Copy CRC B29AD52A
Copy OK
No errors occurred
AccurateRip summary
Track 1 accurately ripped (confidence 21) [963E8A4E] (AR v2)
Track 2 accurately ripped (confidence 21) [D573A6DF] (AR v2)
Track 3 accurately ripped (confidence 21) [B9049A01] (AR v2)
Track 4 accurately ripped (confidence 21) [031475E6] (AR v2)
Track 5 accurately ripped (confidence 21) [067772A1] (AR v2)
Track 6 accurately ripped (confidence 21) [68A7AB1B] (AR v2)
Track 7 accurately ripped (confidence 21) [21F38487] (AR v2)
Track 8 accurately ripped (confidence 21) [1072BD3F] (AR v2)
Track 9 accurately ripped (confidence 21) [054A3318] (AR v2)
Track 10 accurately ripped (confidence 21) [A8C026A7] (AR v2)
Track 11 accurately ripped (confidence 22) [D2D037D3] (AR v2)
All tracks accurately ripped
End of status report
---- CUETools DB Plugin V2.1.6
[CTDB TOCID: QxZ80AL8sm68CMkL8fO.C8CeWpQ-] found
Submit result: QxZ80AL8sm68CMkL8fO.C8CeWpQ- has been confirmed
Track | CTDB Status
1 | (64/64) Accurately ripped
2 | (64/64) Accurately ripped
3 | (64/64) Accurately ripped
4 | (64/64) Accurately ripped
5 | (64/64) Accurately ripped
6 | (64/64) Accurately ripped
7 | (64/64) Accurately ripped
8 | (64/64) Accurately ripped
9 | (64/64) Accurately ripped
10 | (64/64) Accurately ripped
11 | (63/64) Accurately ripped
==== Log checksum 679E638D33553BF679674C38BD776144CBA2E1910A5A355367196198131F9055 ====
-

2015 - [2CD] Space 1992: Rise Of The Chaos Wizards (Original Recording, Limited Edition) (Napalm Records NPR 621 DP) [01:41:33]

CD1:
01. Infernus ad Astra
02. Rise of the Chaos Wizards
03. Legend of the Astral Hammer
04. Goblin King of the Darkstorm Galaxy
05. The Hollywood Hootsman
06. Victorious Eagle Warfare
07. Questlords of Inverness, Ride to the Galactic Fortress!
08. Universe on Fire
09. Heroes (of Dundee)
10. Apocalypse 1992
11. Dundax Aeterna
Thomas Winkler - Vocals
Christopher Bowes - Keyboards, Vocals
James Spicemaster Cartwright - Bass
Ben Turk - Drums
Paul Templing - Guitars

Лог создания рипа

Exact Audio Copy V1.3 from 2. September 2016
EAC extraction logfile from 30. April 2017, 14:50
Gloryhammer / Space 1992: Rise of the Chaos Wizards
Used drive : ATAPI iHAS122 W Adapter: 2 ID: 0
Read mode : Secure
Utilize accurate stream : Yes
Defeat audio cache : Yes
Make use of C2 pointers : No
Read offset correction : 48
Overread into Lead-In and Lead-Out : No
Fill up missing offset samples with silence : Yes
Delete leading and trailing silent blocks : No
Null samples used in CRC calculations : Yes
Used interface : Installed external ASPI interface
Used output format : User Defined Encoder
Selected bitrate : 1024 kBit/s
Quality : High
Add ID3 tag : No
Command line compressor : C:\Program Files\FLAC\flac.exe
Additional command line options : -V -8 -T "Date=%year%" -T "Genre=%genre%" -T"COMMENT=Ripped by Ilijan - ilko" -8 -V %source%
TOC of the extracted CD
Track | Start | Length | Start sector | End sector
---------------------------------------------------------
1 | 0:00.00 | 1:24.11 | 0 | 6310
2 | 1:24.11 | 3:57.12 | 6311 | 24097
3 | 5:21.23 | 5:13.68 | 24098 | 47640
4 | 10:35.16 | 3:38.55 | 47641 | 64045
5 | 14:13.71 | 3:54.57 | 64046 | 81652
6 | 18:08.53 | 4:59.14 | 81653 | 104091
7 | 23:07.67 | 5:22.59 | 104092 | 128300
8 | 28:30.51 | 4:06.37 | 128301 | 146787
9 | 32:37.13 | 5:49.38 | 146788 | 173000
10 | 38:26.51 | 9:53.16 | 173001 | 217491
11 | 48:19.67 | 4:27.11 | 217492 | 237527
Range status and errors
Selected range
Filename D:\ilko\Gloryhammer - Space 1992- Rise of the Chaos Wizards.wav
Peak level 100.0 %
Extraction speed 3.9 X
Range quality 100.0 %
Test CRC 74430D1A
Copy CRC 74430D1A
Copy OK
No errors occurred
AccurateRip summary
Track 1 accurately ripped (confidence 22) [2EE72390] (AR v2)
Track 2 accurately ripped (confidence 22) [2690B57A] (AR v2)
Track 3 accurately ripped (confidence 21) [B0DD1249] (AR v2)
Track 4 accurately ripped (confidence 21) [B10B641B] (AR v2)
Track 5 accurately ripped (confidence 22) [503CEEC7] (AR v2)
Track 6 accurately ripped (confidence 22) [61A66353] (AR v2)
Track 7 accurately ripped (confidence 22) [88775FB4] (AR v2)
Track 8 accurately ripped (confidence 22) [E63D5C4D] (AR v2)
Track 9 accurately ripped (confidence 22) [816F21E8] (AR v2)
Track 10 accurately ripped (confidence 22) [926721FD] (AR v2)
Track 11 accurately ripped (confidence 22) [6AB99C17] (AR v2)
All tracks accurately ripped
End of status report
---- CUETools DB Plugin V2.1.6
[CTDB TOCID: fu3Xz3uG11LzWXA3vkm4QJEuGng-] found
Submit result: already submitted
Track | CTDB Status
1 | (161/162) Accurately ripped
2 | (161/162) Accurately ripped
3 | (160/162) Accurately ripped
4 | (160/162) Accurately ripped
5 | (161/162) Accurately ripped
6 | (161/162) Accurately ripped
7 | (161/162) Accurately ripped
8 | (161/162) Accurately ripped
9 | (161/162) Accurately ripped
10 | (161/162) Accurately ripped
11 | (160/162) Accurately ripped
==== Log checksum F7CFFF6925517655A43DEBB95EDBE8B5259FC40227975B2D782845F6DD40D79D ====
CD2:
01. Main Title
02. The Attack on Triton
03. Angus McFife XIII's Theme
04. An Evil Wizard Does a Quest
05. The King of California
06. Ser Proletius Returns
07. Lords of Space and Time
08. To Claim Space Throne
09. An Epic War is Fight
10. Dundee Will Fall

Лог создания рипа

Exact Audio Copy V1.3 from 2. September 2016
EAC extraction logfile from 30. April 2017, 15:26
Gloryhammer / Space 1992: Rise of the Chaos Wizards (Bonus CD)
Used drive : ATAPI iHAS122 W Adapter: 2 ID: 0
Read mode : Secure
Utilize accurate stream : Yes
Defeat audio cache : Yes
Make use of C2 pointers : No
Read offset correction : 48
Overread into Lead-In and Lead-Out : No
Fill up missing offset samples with silence : Yes
Delete leading and trailing silent blocks : No
Null samples used in CRC calculations : Yes
Used interface : Installed external ASPI interface
Used output format : User Defined Encoder
Selected bitrate : 1024 kBit/s
Quality : High
Add ID3 tag : No
Command line compressor : C:\Program Files\FLAC\flac.exe
Additional command line options : -V -8 -T "Date=%year%" -T "Genre=%genre%" -T"COMMENT=Ripped by Ilijan - ilko" -8 -V %source%
TOC of the extracted CD
Track | Start | Length | Start sector | End sector
---------------------------------------------------------
1 | 0:00.00 | 2:02.30 | 0 | 9179
2 | 2:02.30 | 3:58.54 | 9180 | 27083
3 | 6:01.09 | 5:16.08 | 27084 | 50791
4 | 11:17.17 | 3:38.54 | 50792 | 67195
5 | 14:55.71 | 3:52.51 | 67196 | 84646
6 | 18:48.47 | 4:58.13 | 84647 | 107009
7 | 23:46.60 | 5:22.02 | 107010 | 131161
8 | 29:08.62 | 4:04.00 | 131162 | 149461
9 | 33:12.62 | 5:50.03 | 149462 | 175714
10 | 39:02.65 | 9:50.02 | 175715 | 219966
Range status and errors
Selected range
Filename D:\ilko\Gloryhammer - Space 1992- Rise of the Chaos Wizards (Bonus CD).wav
Peak level 89.6 %
Extraction speed 3.0 X
Range quality 99.9 %
Test CRC 890A2D87
Copy CRC 890A2D87
Copy OK
No errors occurred
AccurateRip summary
Track 1 accurately ripped (confidence 14) [EE32A592] (AR v2)
Track 2 accurately ripped (confidence 14) [31D6DF68] (AR v2)
Track 3 accurately ripped (confidence 14) [847D3B5A] (AR v2)
Track 4 accurately ripped (confidence 14) [88FAA9F5] (AR v2)
Track 5 accurately ripped (confidence 14) [615CE1B6] (AR v2)
Track 6 accurately ripped (confidence 14) [4FD0A3CD] (AR v2)
Track 7 accurately ripped (confidence 14) [A1A93988] (AR v2)
Track 8 accurately ripped (confidence 14) [822FD0B1] (AR v2)
Track 9 accurately ripped (confidence 14) [DDC4E52D] (AR v2)
Track 10 accurately ripped (confidence 14) [6F36B737] (AR v2)
All tracks accurately ripped
End of status report
---- CUETools DB Plugin V2.1.6
[CTDB TOCID: FLa7IWvS3EDVLg9PPTlDU57NuZI-] found
Submit result: already submitted
Track | CTDB Status
1 | (85/85) Accurately ripped
2 | (85/85) Accurately ripped
3 | (85/85) Accurately ripped
4 | (85/85) Accurately ripped
5 | (85/85) Accurately ripped
6 | (85/85) Accurately ripped
7 | (85/85) Accurately ripped
8 | (85/85) Accurately ripped
9 | (85/85) Accurately ripped
10 | (85/85) Accurately ripped
==== Log checksum 20766A90EE3BAF77C8B1BD171D8225528F1B6DE5AC6E879F6F8C7B186C176799 ====

To download the file disable ad blocking, and reload the page.

disable adblock How to disable ad blocking?

Download by magnet link 1.24 GB Download Torrent

Login using:

Загрузка...

Similar topics

(Symphonic Power Metal) Eternal Dream - Daementia - 2018, MP3, 320 kbps
 129 MB   0 | 0   10-Dec-18 17:00   3


   
Current time is: 16-Dec 06:43 :: All times are UTC + 3