-Charred Walls Of The Damned - Дискография (3CD)- Жанр: Power/Thrash Metal
Носитель: CD
Год издания: 2010-2016
Издатель (лейбл): Metal Blade Records/Metal Blade Records Japan
Страна-производитель диска: Japan/Germany
Страна исполнителя: United States (Long Island, New York)
Аудиокодек: FLAC (*.flac)
Тип рипа: image+.cue
Битрейт аудио: lossless
Продолжительность: 02:10:27
Источник (релизер): Собственные CD
Наличие сканов: Да (Complete 600 DPI)
Доп. информация: Encyclopaedia Metallum
-

2010 - [CD] Charred Walls Of The Damned (Japanese Edition) (Metal Blade Records Japan MBCY-1122) [00:39:07]

01. Ghost Town
02. From the Abyss
03. Creating Our Machine
04. Blood on Wood
05. In a World So Cruel
06. Manifestations
07. Voices Within the Walls
08. The Darkest Eyes
09. Fear in the Sky
10. Nice Dreams (Powermad Cover) (Bonus Track)
Tim "Ripper" Owens - Vocals
Jason Suecof - Guitars
Richard Christy - Drums
Steve DiGiorgio - Bass

Лог создания рипа

Exact Audio Copy V1.3 from 2. September 2016
EAC extraction logfile from 30. April 2017, 13:04
Charred Walls Of The Damned / Charred Walls Of The Damned (Japan)
Used drive : ATAPI iHAS122 W Adapter: 2 ID: 0
Read mode : Secure
Utilize accurate stream : Yes
Defeat audio cache : Yes
Make use of C2 pointers : No
Read offset correction : 48
Overread into Lead-In and Lead-Out : No
Fill up missing offset samples with silence : Yes
Delete leading and trailing silent blocks : No
Null samples used in CRC calculations : Yes
Used interface : Installed external ASPI interface
Used output format : User Defined Encoder
Selected bitrate : 1024 kBit/s
Quality : High
Add ID3 tag : No
Command line compressor : C:\Program Files\FLAC\flac.exe
Additional command line options : -V -8 -T "Date=%year%" -T "Genre=%genre%" -T"COMMENT=Ripped by Ilijan - ilko" -8 -V %source%
TOC of the extracted CD
Track | Start | Length | Start sector | End sector
---------------------------------------------------------
1 | 0:00.00 | 4:56.35 | 0 | 22234
2 | 4:56.35 | 4:25.64 | 22235 | 42173
3 | 9:22.24 | 2:53.27 | 42174 | 55175
4 | 12:15.51 | 3:26.10 | 55176 | 70635
5 | 15:41.61 | 3:31.12 | 70636 | 86472
6 | 19:12.73 | 3:06.42 | 86473 | 100464
7 | 22:19.40 | 3:48.55 | 100465 | 117619
8 | 26:08.20 | 3:37.11 | 117620 | 133905
9 | 29:45.31 | 5:45.16 | 133906 | 159796
10 | 35:30.47 | 3:37.23 | 159797 | 176094
Range status and errors
Selected range
Filename D:\ilko\Charred Walls Of The Damned - Charred Walls Of The Damned (Japan).wav
Peak level 99.1 %
Extraction speed 3.6 X
Range quality 99.9 %
Test CRC 9AA707B6
Copy CRC 9AA707B6
Copy OK
No errors occurred
AccurateRip summary
Track 1 cannot be verified as accurate (confidence 1) [ECEAE5B7], AccurateRip returned [0F42653D] (AR v2)
Track 2 cannot be verified as accurate (confidence 1) [13B7C26B], AccurateRip returned [B404D3E4] (AR v2)
Track 3 cannot be verified as accurate (confidence 1) [92AED544], AccurateRip returned [F35BEAAD] (AR v2)
Track 4 cannot be verified as accurate (confidence 1) [FA1AF1BB], AccurateRip returned [01448088] (AR v2)
Track 5 cannot be verified as accurate (confidence 1) [E0940B42], AccurateRip returned [F8F43037] (AR v2)
Track 6 cannot be verified as accurate (confidence 1) [4EED1A42], AccurateRip returned [6D01FD6A] (AR v2)
Track 7 cannot be verified as accurate (confidence 1) [5A025C2F], AccurateRip returned [2B4E86F0] (AR v2)
Track 8 cannot be verified as accurate (confidence 1) [B5F86482], AccurateRip returned [75DA1724] (AR v2)
Track 9 cannot be verified as accurate (confidence 1) [260CB9C8], AccurateRip returned [553120DB] (AR v2)
Track 10 cannot be verified as accurate (confidence 1) [A433C2B2], AccurateRip returned [75E031DA] (AR v2)
No tracks could be verified as accurate
You may have a different pressing from the one(s) in the database
End of status report
---- CUETools DB Plugin V2.1.6
[CTDB TOCID: 6qDhwaZAEi7Y68dWG2uzyReFUGY-] found
Submit result: 6qDhwaZAEi7Y68dWG2uzyReFUGY- has been confirmed
Track | CTDB Status
1 | (1/1) Accurately ripped
2 | (1/1) Accurately ripped
3 | (1/1) Accurately ripped
4 | (1/1) Accurately ripped
5 | (1/1) Accurately ripped
6 | (1/1) Accurately ripped
7 | (1/1) Accurately ripped
8 | (1/1) Accurately ripped
9 | (1/1) Accurately ripped
10 | (1/1) Accurately ripped
==== Log checksum E2650FED05FF759EC5F55C43E08B9BCF935A410C912AA2CE093642F497E180C5 ====
-

2011 - [CD] Cold Winds On Timeless Days (Original Recording) (Metal Blade Records 3984-14997-2) [00:58:00]

01. Timeless Days
02. Ashes Falling upon Us
03. Zerospan
04. Cold Winds
05. Lead the Way
06. Forever Marching On
07. Guiding Me
08. The Beast Outside My Window
09. On Unclean Ground
10. Bloodworm
11. Admire the Heroes
12. Avoid the Light
Tim "Ripper" Owens - Vocals
Jason Suecof - Guitars
Richard Christy - Drums
Steve DiGiorgio - Bass

Лог создания рипа

Exact Audio Copy V1.3 from 2. September 2016
EAC extraction logfile from 30. April 2017, 13:44
Charred Walls of the Damned / Cold Winds on Timeless Days
Used drive : ATAPI iHAS122 W Adapter: 2 ID: 0
Read mode : Secure
Utilize accurate stream : Yes
Defeat audio cache : Yes
Make use of C2 pointers : No
Read offset correction : 48
Overread into Lead-In and Lead-Out : No
Fill up missing offset samples with silence : Yes
Delete leading and trailing silent blocks : No
Null samples used in CRC calculations : Yes
Used interface : Installed external ASPI interface
Used output format : User Defined Encoder
Selected bitrate : 1024 kBit/s
Quality : High
Add ID3 tag : No
Command line compressor : C:\Program Files\FLAC\flac.exe
Additional command line options : -V -8 -T "Date=%year%" -T "Genre=%genre%" -T"COMMENT=Ripped by Ilijan - ilko" -8 -V %source%
TOC of the extracted CD
Track | Start | Length | Start sector | End sector
---------------------------------------------------------
1 | 0:00.00 | 6:03.56 | 0 | 27280
2 | 6:03.56 | 5:26.68 | 27281 | 51798
3 | 11:30.49 | 5:23.31 | 51799 | 76054
4 | 16:54.05 | 3:45.35 | 76055 | 92964
5 | 20:39.40 | 5:57.72 | 92965 | 119811
6 | 26:37.37 | 4:30.07 | 119812 | 140068
7 | 31:07.44 | 4:36.34 | 140069 | 160802
8 | 35:44.03 | 5:21.28 | 160803 | 184905
9 | 41:05.31 | 4:10.02 | 184906 | 203657
10 | 45:15.33 | 4:20.26 | 203658 | 223183
11 | 49:35.59 | 4:00.17 | 223184 | 241200
12 | 53:36.01 | 4:24.44 | 241201 | 261044
Range status and errors
Selected range
Filename D:\ilko\Charred Walls of the Damned - Cold Winds on Timeless Days.wav
Peak level 98.9 %
Extraction speed 3.9 X
Range quality 100.0 %
Test CRC D585058C
Copy CRC D585058C
Copy OK
No errors occurred
AccurateRip summary
Track 1 accurately ripped (confidence 6) [F52BA005] (AR v2)
Track 2 accurately ripped (confidence 6) [F80E964A] (AR v2)
Track 3 accurately ripped (confidence 6) [187270B0] (AR v2)
Track 4 accurately ripped (confidence 6) [65EE8014] (AR v2)
Track 5 accurately ripped (confidence 6) [BC9666A5] (AR v2)
Track 6 accurately ripped (confidence 6) [9DA3E018] (AR v2)
Track 7 accurately ripped (confidence 6) [08A30ECD] (AR v2)
Track 8 accurately ripped (confidence 6) [6E958BDF] (AR v2)
Track 9 accurately ripped (confidence 6) [9DEF8535] (AR v2)
Track 10 accurately ripped (confidence 6) [93B97C76] (AR v2)
Track 11 accurately ripped (confidence 6) [F18ED882] (AR v2)
Track 12 accurately ripped (confidence 6) [81CE9158] (AR v2)
All tracks accurately ripped
End of status report
---- CUETools DB Plugin V2.1.6
[CTDB TOCID: gh2cFX1LvwGq2maCxtiUuv1kwbQ-] found
Submit result: gh2cFX1LvwGq2maCxtiUuv1kwbQ- has been confirmed
Track | CTDB Status
1 | (23/23) Accurately ripped
2 | (23/23) Accurately ripped
3 | (23/23) Accurately ripped
4 | (23/23) Accurately ripped
5 | (23/23) Accurately ripped
6 | (23/23) Accurately ripped
7 | (23/23) Accurately ripped
8 | (23/23) Accurately ripped
9 | (23/23) Accurately ripped
10 | (23/23) Accurately ripped
11 | (23/23) Accurately ripped
12 | (23/23) Accurately ripped
==== Log checksum 829521F75EE0B69D49B18D7793DFF0F83BE4014021A7AA50465F6833B0AC6647 ====
-

2016 - [CD] Creatures Watching Over The Dead (Original Recording) (Metal Blade Records 3984-15480-2) [00:33:20]

01. My Eyes
02. The Soulless
03. Afterlife
04. As I Catch My Breath
05. Lies
06. Reach into the Light
07. Tear Me Down
08. Living in the Shadow of Yesterday
09. Time Has Passed
Tim "Ripper" Owens - Vocals
Jason Suecof - Guitars
Richard Christy - Drums
Steve DiGiorgio - Bass

Лог создания рипа

Exact Audio Copy V1.3 from 2. September 2016
EAC extraction logfile from 8. October 2016, 12:00
Charred Walls Of The Damned / Creatures Watching Over The Dead
Used drive : ATAPI iHAS122 W Adapter: 2 ID: 0
Read mode : Secure
Utilize accurate stream : Yes
Defeat audio cache : Yes
Make use of C2 pointers : No
Read offset correction : 48
Overread into Lead-In and Lead-Out : No
Fill up missing offset samples with silence : Yes
Delete leading and trailing silent blocks : No
Null samples used in CRC calculations : Yes
Used interface : Installed external ASPI interface
Used output format : User Defined Encoder
Selected bitrate : 1024 kBit/s
Quality : High
Add ID3 tag : No
Command line compressor : C:\Program Files\FLAC\flac.exe
Additional command line options : -V -8 -T "Date=%year%" -T "Genre=%genre%" -T"COMMENT=Ripped by Ilijan" -8 -V %source%
TOC of the extracted CD
Track | Start | Length | Start sector | End sector
---------------------------------------------------------
1 | 0:00.00 | 4:29.41 | 0 | 20215
2 | 4:29.41 | 4:03.13 | 20216 | 38453
3 | 8:32.54 | 2:53.03 | 38454 | 51431
4 | 11:25.57 | 5:02.59 | 51432 | 74140
5 | 16:28.41 | 3:30.51 | 74141 | 89941
6 | 19:59.17 | 2:39.23 | 89942 | 101889
7 | 22:38.40 | 3:49.70 | 101890 | 119134
8 | 26:28.35 | 3:36.31 | 119135 | 135365
9 | 30:04.66 | 3:15.33 | 135366 | 150023
Range status and errors
Selected range
Filename D:\ilко\Charred Walls Of The Damned - Creatures Watching Over The Dead.wav
Peak level 97.3 %
Extraction speed 3.3 X
Range quality 99.9 %
Test CRC E9491FE7
Copy CRC E9491FE7
Copy OK
No errors occurred
AccurateRip summary
Track 1 accurately ripped (confidence 1) [2DD32201] (AR v2)
Track 2 accurately ripped (confidence 1) [8FC5168C] (AR v2)
Track 3 accurately ripped (confidence 1) [29D35E83] (AR v2)
Track 4 accurately ripped (confidence 1) [4FDA0164] (AR v2)
Track 5 accurately ripped (confidence 1) [B11A2C8F] (AR v2)
Track 6 accurately ripped (confidence 1) [6865316D] (AR v2)
Track 7 accurately ripped (confidence 1) [43B560D9] (AR v2)
Track 8 accurately ripped (confidence 1) [B88548B2] (AR v2)
Track 9 accurately ripped (confidence 1) [5353E1DD] (AR v2)
All tracks accurately ripped
End of status report
---- CUETools DB Plugin V2.1.6
[CTDB TOCID: TXKUxjEM2NkCScPmINyFRBYn9xE-] found
Submit result: TXKUxjEM2NkCScPmINyFRBYn9xE- has been confirmed
Track | CTDB Status
1 | (9/9) Accurately ripped
2 | (9/9) Accurately ripped
3 | (9/9) Accurately ripped
4 | (9/9) Accurately ripped
5 | (9/9) Accurately ripped
6 | (9/9) Accurately ripped
7 | (9/9) Accurately ripped
8 | (9/9) Accurately ripped
9 | (9/9) Accurately ripped
==== Log checksum 93F5FB9F6E98D02DB2562C4FBA22823F8E42D3CD7D144ECB325FB37296571C16 ====
-

To download the file disable ad blocking, and reload the page.

disable adblock How to disable ad blocking?

Download by magnet link 1.12 GB Download Torrent

Login using:

Загрузка...

Similar topics



   
Current time is: 16-Dec 07:21 :: All times are UTC + 3