Appearance Of Nothing / All Gods Are Gone
Жанр: Progressive Metal
Носитель: CD
Страна-производитель диска (релиза): UK
Год издания: 2011
Издатель (лейбл): Escape Music Ltd.
Номер по каталогу: ESM220
Страна исполнителя (группы): Switzerland, Basel, Basel-Stadt
Аудиокодек: FLAC (*.flac)
Тип рипа: image+.cue
Битрейт аудио: lossless
Продолжительность: 00:48:07
Источник (релизер): sking019
Наличие сканов в содержимом раздачи: да
Треклист:
1. The Mirror’s Eyes 06:03
2. 2nd God 06:18
3. Sweet Enemy 09:00
4. Destination 09:10
5. The Call of Eve 05:17
6. ...I said Silence 07:31
7. The Rise and Fall of Nothing 04:56

Лог создания рипа

Exact Audio Copy V1.0 beta 3 from 29. August 2011
Отчёт EAC об извлечении, выполненном 20. февраля 2015, 1:08
Appearance Of Nothing / All Gods Are Gone
Дисковод: HL-DT-STDVD-RAM GH22NP20 Adapter: 3 ID: 0
Режим чтения : Достоверность
Использование точного потока : Да
Отключение кэша аудио : Да
Использование указателей C2 : Нет
Коррекция смещения при чтении : 102
Способность читать области Lead-in и Lead-out : Нет
Заполнение пропущенных сэмплов тишиной : Да
Удаление блоков с тишиной в начале и конце : Нет
При вычислениях CRC использовались нулевые сэмплы : Да
Интерфейс : Встроенный Win32-интерфейс для Win NT/2000
Выходной формат : Пользовательский кодировщик
Выбранный битрейт : 896 kBit/s
Качество : Высокий
Добавление ID3-тега : Да
Утилита сжатия : C:\Program Files\FLAC\FLAC frontend.exe
Дополнительные параметры : -V -8 -T "Date=%year%" -T "Genre=%genre%" %source%
TOC извлечённого CD
Трек | Старт | Длительность | Начальный сектор | Конечный сектор
---------------------------------------------------------------------
1 | 0:00.00 | 6:02.05 | 0 | 27154
2 | 6:02.05 | 6:17.23 | 27155 | 55452
3 | 12:19.28 | 9:00.09 | 55453 | 95961
4 | 21:19.37 | 9:08.60 | 95962 | 137121
5 | 30:28.22 | 5:15.07 | 137122 | 160753
6 | 35:43.29 | 7:29.34 | 160754 | 194462
7 | 43:12.63 | 4:54.65 | 194463 | 216577
Характеристики диапазона извлечения и сообщения об ошибках
Выбранный диапазон
Имя файла F:\ВСЕ ЗАГРУЗКИ\ТОРЕНТ\Appearance Of Nothing - All Gods Are Gone (2011)\Appearance Of Nothing - All Gods Are Gone.wav
Пиковый уровень 99.2 %
Скорость извлечения 2.0 X
Качество диапазона 100.0 %
CRC теста 2DCC2F1E
CRC копии 2DCC2F1E
Копирование... OK
Ошибок не произошло
AccurateRip: сводка
Трек 1 : извлечено точно (доверие 3) [D194399A] (AR v2)
Трек 2 : извлечено точно (доверие 3) [53AC8139] (AR v2)
Трек 3 : извлечено точно (доверие 3) [2260D6E3] (AR v2)
Трек 4 : извлечено точно (доверие 3) [6F2BBA3A] (AR v2)
Трек 5 : извлечено точно (доверие 3) [67B3E2E2] (AR v2)
Трек 6 : извлечено точно (доверие 3) [20EE21B6] (AR v2)
Трек 7 : извлечено точно (доверие 3) [CBDA0D72] (AR v2)
Все треки извлечены точно
Конец отчёта
==== Контрольная сумма отчёта 34CD9B7D044F60645576BA6BB06DF758F2AF49AC1C02A2D5442E7F7C65784BA2 ====

Содержание индексной карты (.CUE)

REM GENRE Metal
REM DATE 2011
REM DISCID 530B4707
REM COMMENT "ExactAudioCopy v1.0b3"
PERFORMER "Appearance Of Nothing"
TITLE "All Gods Are Gone"
FILE "Appearance Of Nothing - All Gods Are Gone.flac" WAVE
TRACK 01 AUDIO
TITLE "The Mirrors Eyes"
PERFORMER "Appearance Of Nothing"
INDEX 01 00:00:00
TRACK 02 AUDIO
TITLE "2Nd God"
PERFORMER "Appearance Of Nothing"
INDEX 00 06:01:62
INDEX 01 06:02:05
TRACK 03 AUDIO
TITLE "Sweet Enemy"
PERFORMER "Appearance Of Nothing"
INDEX 00 12:19:13
INDEX 01 12:19:28
TRACK 04 AUDIO
TITLE "Destination"
PERFORMER "Appearance Of Nothing"
INDEX 00 21:19:01
INDEX 01 21:19:37
TRACK 05 AUDIO
TITLE "The Call Of Eve"
PERFORMER "Appearance Of Nothing"
INDEX 00 30:27:51
INDEX 01 30:28:22
TRACK 06 AUDIO
TITLE "I Said Silence"
PERFORMER "Appearance Of Nothing"
INDEX 00 35:43:17
INDEX 01 35:43:29
TRACK 07 AUDIO
TITLE "The Rise And Fall Of Nothing"
PERFORMER "Appearance Of Nothing"
INDEX 00 43:12:44
INDEX 01 43:12:63

Об исполнителе (группе)

http://www.metal-archives.com/bands/Appearance_of_Nothing/89314

Состав


Pat Gerber - Vocals, guitar
Omar Cuna - Vocals, bass
Peter Berger - Lead guitar
Marc Petralito - Keyboards
Yves Lüthi - Drums

To download the file disable ad blocking, and reload the page.

disable adblock How to disable ad blocking?

Download by magnet link 366 MB Download Torrent

Login using:

Загрузка...

Similar topics



   
Current time is: 16-Dec 06:45 :: All times are UTC + 3