Sacred Steel / Hammer Of Destruction (Reissue 2007)
Жанр: Heavy Metal
Носитель: CD
Страна-производитель диска (релиза): Russia
Год издания: 2006
Издатель (лейбл): Mystic Empire
Номер по каталогу: MYST CD 205
Страна исполнителя (группы): Germany,Ludwigsburg, Baden-Württemberg
Аудиокодек: FLAC (*.flac)
Тип рипа: image+.cue
Битрейт аудио: lossless
Продолжительность: 00:48:15
Источник (релизер): sking019
Наличие сканов в содержимом раздачи: да
Треклист:
1 Hammer Of Destruction 4:11
2 Where Demons Dare To Tread 4:32
3 Maniacs Of Speed 3:27
4 Blood And Thunder 3:37
5 Impaled By Metal 5:48
6 Descent Of A Lost Soul 1:14
7 Black Church 8:52
8 Generally Hostile 3:14
9 Plague Of Terror 3:54
10 Sword And Axes 4:53
11 The Torch Of Sin 4:26
Video Maniacs Of Speed 3:27

Лог создания рипа

Exact Audio Copy V1.1 from 23. June 2015
Отчёт EAC об извлечении, выполненном 24. августа 2015, 13:06
Sacred Steel / Hammer of Destruction
Дисковод: HL-DT-STDVD-RAM GH22NP20 Adapter: 1 ID: 0
Режим чтения : Достоверность
Использование точного потока : Да
Отключение кэша аудио : Да
Использование указателей C2 : Нет
Коррекция смещения при чтении : 102
Способность читать области Lead-in и Lead-out : Нет
Заполнение пропущенных сэмплов тишиной : Да
Удаление блоков с тишиной в начале и конце : Нет
При вычислениях CRC использовались нулевые сэмплы : Да
Интерфейс : Встроенный Win32-интерфейс для Win NT/2000
Выходной формат : Пользовательский кодировщик
Выбранный битрейт : 896 kBit/s
Качество : Высокий
Добавление ID3-тега : Да
Утилита сжатия : C:\Program Files\FLAC\FLAC frontend.exe
Дополнительные параметры : -V -8 -T "Date=%year%" -T "Genre=%genre%" %source%
TOC извлечённого CD
Трек | Старт | Длительность | Начальный сектор | Конечный сектор
---------------------------------------------------------------------
1 | 0:00.00 | 4:11.42 | 0 | 18866
2 | 4:11.42 | 4:32.04 | 18867 | 39270
3 | 8:43.46 | 3:27.60 | 39271 | 54855
4 | 12:11.31 | 3:37.51 | 54856 | 71181
5 | 15:49.07 | 5:48.49 | 71182 | 97330
6 | 21:37.56 | 1:14.14 | 97331 | 102894
7 | 22:51.70 | 8:52.60 | 102895 | 142854
8 | 31:44.55 | 3:14.60 | 142855 | 157464
9 | 34:59.40 | 3:55.27 | 157465 | 175116
10 | 38:54.67 | 4:53.54 | 175117 | 197145
11 | 43:48.46 | 4:26.69 | 197146 | 217164
12 | 50:47.40 | 14:54.60 | 228565 | 295674
Характеристики диапазона извлечения и сообщения об ошибках
Выбранный диапазон
Имя файла F:\ВСЕ ЗАГРУЗКИ\sking\Sacred Steel - Hammer Of Destruction (2007)\Sacred Steel - Hammer of Destruction.wav
Пиковый уровень 99.9 %
Скорость извлечения 2.5 X
Качество диапазона 100.0 %
CRC теста C3F49DAF
CRC копии C3F49DAF
Копирование... OK
Ошибок не произошло
AccurateRip: сводка
Трек 1 точность не определена (достоверность 5) [7087BF34], AccurateRip вернул [D2CA2883] (AR v2)
Трек 2 точность не определена (достоверность 5) [54E8673C], AccurateRip вернул [56520AEE] (AR v2)
Трек 3 точность не определена (достоверность 5) [44315966], AccurateRip вернул [1A5379B1] (AR v2)
Трек 4 точность не определена (достоверность 5) [F8D804A7], AccurateRip вернул [C8C6988C] (AR v2)
Трек 5 точность не определена (достоверность 5) [09968831], AccurateRip вернул [579CABF0] (AR v2)
Трек 6 точность не определена (достоверность 5) [A3070BD6], AccurateRip вернул [9E68CC5E] (AR v2)
Трек 7 точность не определена (достоверность 5) [F84482E0], AccurateRip вернул [23CB2BA0] (AR v2)
Трек 8 точность не определена (достоверность 5) [61F381CA], AccurateRip вернул [0999560D] (AR v2)
Трек 9 точность не определена (достоверность 5) [8DE40BFC], AccurateRip вернул [434EEA26] (AR v2)
Трек 10 точность не определена (достоверность 5) [30B526E4], AccurateRip вернул [65375A94] (AR v2)
Трек 11 точность не определена (достоверность 5) [E27CE831], AccurateRip вернул [67F30521] (AR v2)
Ни один трек не прошёл проверки на точность
В вашей базе может быть иной вариант штамповки диска
Конец отчёта
---- CUETools DB Plugin V2.1.6
[CTDB TOCID: uBmx5Bq8Aer3VbjTozaKKE.xiiM-] found
Submit result: uBmx5Bq8Aer3VbjTozaKKE.xiiM- has been confirmed
Track | CTDB Status
1 | (4/4) Accurately ripped
2 | (4/4) Accurately ripped
3 | (4/4) Accurately ripped
4 | (4/4) Accurately ripped
5 | (4/4) Accurately ripped
6 | (4/4) Accurately ripped
7 | (4/4) Accurately ripped
8 | (4/4) Accurately ripped
9 | (4/4) Accurately ripped
10 | (4/4) Accurately ripped
11 | (4/4) Accurately ripped
==== Контрольная сумма отчёта 5634D5838DD43BA7BF69A133F77A4F0CD3A13C2565DE61934028C6204F8A95FD ====

Содержание индексной карты (.CUE)

REM DATE 2006
REM DISCID 940F660C
REM COMMENT "ExactAudioCopy v1.1"
PERFORMER "Sacred Steel"
TITLE "Hammer of Destruction"
FILE "Sacred Steel - Hammer of Destruction.flac" WAVE
TRACK 01 AUDIO
TITLE "Hammer of Destruction"
PERFORMER "Sacred Steel"
INDEX 01 00:00:00
TRACK 02 AUDIO
TITLE "Where Demons Dare to Tread"
PERFORMER "Sacred Steel"
INDEX 01 04:11:42
TRACK 03 AUDIO
TITLE "Maniacs of Speed"
PERFORMER "Sacred Steel"
INDEX 00 08:42:46
INDEX 01 08:43:46
TRACK 04 AUDIO
TITLE "Blood and Thunder"
PERFORMER "Sacred Steel"
INDEX 00 12:09:31
INDEX 01 12:11:31
TRACK 05 AUDIO
TITLE "Impaled by Metal"
PERFORMER "Sacred Steel"
INDEX 00 15:48:07
INDEX 01 15:49:07
TRACK 06 AUDIO
TITLE "Descent of a Lost Soul"
PERFORMER "Sacred Steel"
INDEX 00 21:35:56
INDEX 01 21:37:56
TRACK 07 AUDIO
TITLE "Black Church"
PERFORMER "Sacred Steel"
INDEX 01 22:51:70
TRACK 08 AUDIO
TITLE "Generally Hostile"
PERFORMER "Sacred Steel"
INDEX 00 31:43:55
INDEX 01 31:44:55
TRACK 09 AUDIO
TITLE "Plague of Terror"
PERFORMER "Sacred Steel"
INDEX 00 34:58:40
INDEX 01 34:59:40
TRACK 10 AUDIO
TITLE "Sword and Axes"
PERFORMER "Sacred Steel"
INDEX 00 38:53:67
INDEX 01 38:54:67
TRACK 11 AUDIO
TITLE "The Torch of Sin"
PERFORMER "Sacred Steel"
INDEX 01 43:48:46

Об исполнителе (группе)

http://www.metal-archives.com/bands/Sacred_Steel/153

Состав

Тех.данные о видео и скриншоты


Video: MPEG1 Video 720x480 (329:240) 29.97fps 104857kbps [V: mpeg1video, yuv420p, 720x480, 104857 kb/s] [Video]
Audio: MPEG Audio 48000Hz stereo 160kbps [A: mp2, 48000 Hz, stereo, 160 kb/s] [Audio]

MediaInfo

General
Complete name : F:\Sacred Steel - Maniacs of Speed.mpg
Format : MPEG-PS
File size : 131 MiB
Duration : 3 min 30 s
Overall bit rate mode : Variable
Overall bit rate : 5 200 kb/s
Writing library : encoded by TMPGEnc 3.0 XPress Version. 3.0.4.24
Video
ID : 224 (0xE0)
Format : MPEG Video
Format version : Version 1
Format settings, BVOP : Yes
Format settings, Matrix : Custom
Format settings, GOP : M=3, N=18
Duration : 3 min 30 s
Bit rate mode : Variable
Bit rate : 4 937 kb/s
Width : 720 pixels
Height : 480 pixels
Display aspect ratio : 4:3
Frame rate : 29.970 (30000/1001) FPS
Standard : NTSC
Color space : YUV
Chroma subsampling : 4:2:0
Bit depth : 8 bits
Scan type : Progressive
Compression mode : Lossy
Bits/(Pixel*Frame) : 0.477
Time code of first frame : 00:00:00:00
Time code source : Group of pictures header
GOP, Open/Closed : Open
GOP, Open/Closed of first f : Closed
Stream size : 124 MiB (95%)
Writing library : TMPGEnc 3.0 XPress Version. 3.0.4.24
Audio
ID : 192 (0xC0)
Format : MPEG Audio
Format version : Version 1
Format profile : Layer 2
Duration : 3 min 30 s
Bit rate mode : Constant
Bit rate : 160 kb/s
Channel(s) : 2 channels
Sampling rate : 48.0 kHz
Compression mode : Lossy
Stream size : 4.02 MiB (3%)

To download the file disable ad blocking, and reload the page.

disable adblock How to disable ad blocking?

Download by magnet link 535 MB Download Torrent

Login using:

Similar topics

(Heavy Metal, Groove Metal) Blaxem - Who Cares - 2017, MP3, 320 kbps
 86 MB   0 | 0   26-May-17 18:27   0
(Heavy Metal/Progressive) Wine Guardian - Onirica - 2017, MP3, 320 kbps
 115 MB   0 | 0   26-May-17 18:27   0
(Blackened Heavy Metal) Ophicvs - Machine Gun Reaper - 2017, MP3, 320 kbps
 109 MB   0 | 0   26-May-17 18:27   0
(Heavy Metal) Cremator - The Coming Of War - 2017, MP3, 320 kbps
 114 MB   0 | 0   26-May-17 18:27   0


   
Current time is: 23-Oct 08:32 :: All times are UTC ± 0