-Gothic Fate - 2CD-
Жанр: Power Metal
Носитель: CD
Страна-производитель диска (релиза): EU
Год издания: 2002-2005(2015)
Издатель (лейбл): Good Life Records, Skol Records
Страна исполнителя (группы): Germany
Аудиокодек: FLAC (*.flac)
Тип рипа: image+.cue
Битрейт аудио: lossless
Продолжительность: 58:44+57:12
Источник: неизвестный релизер (2002) и kikel 2005(2015)
Наличие сканов в содержимом раздачи: да

2002 - Seduction [Good Life Records, Germany]

01. Intro (Thunder And Rain) (1:44)
02. Never Forget (4:33)
03. Down On Your Knees (5:15)
04. Black Knight (3:24)
05. All Systems Failed (5:02)
06. Angel Of Sin (6:00)
07. Absolute Horror (3:48)
08. The Healer (4:17)
09. Seven Gates Of Fate (Instr.) (4:54)
10. King Of Rage (4:49)
11. Eternity (5:11)
12. Across The Sea (5:48)
13. The Haunting (3:59)

Лог создания рипа

Exact Audio Copy V0.99 prebeta 4 from 23. January 2008
EAC extraction logfile from 22. January 2010, 17:30
Gothic Fate / Seduction
Used drive : HL-DT-STDVDRAM GSA-T50F Adapter: 0 ID: 2
Read mode : Secure
Utilize accurate stream : Yes
Defeat audio cache : Yes
Make use of C2 pointers : No
Read offset correction : 667
Overread into Lead-In and Lead-Out : No
Fill up missing offset samples with silence : Yes
Delete leading and trailing silent blocks : No
Null samples used in CRC calculations : Yes
Used interface : Installed external ASPI interface
Used output format : Internal WAV Routines
Sample format : 44.100 Hz; 16 Bit; Stereo
TOC of the extracted CD
Track | Start | Length | Start sector | End sector
---------------------------------------------------------
1 | 0:00.00 | 1:44.00 | 0 | 7799
2 | 1:44.00 | 4:33.16 | 7800 | 28290
3 | 6:17.16 | 5:14.56 | 28291 | 51896
4 | 11:31.72 | 3:24.37 | 51897 | 67233
5 | 14:56.34 | 5:02.05 | 67234 | 89888
6 | 19:58.39 | 5:59.40 | 89889 | 116853
7 | 25:58.04 | 3:48.32 | 116854 | 133985
8 | 29:46.36 | 4:17.17 | 133986 | 153277
9 | 34:03.53 | 4:53.55 | 153278 | 175307
10 | 38:57.33 | 4:48.42 | 175308 | 196949
11 | 43:46.00 | 5:10.60 | 196950 | 220259
12 | 48:56.60 | 5:47.74 | 220260 | 246358
13 | 54:44.59 | 3:58.56 | 246359 | 264264
Range status and errors
Selected range
Filename D:\EAC\Gothic Fate - 2002 - Seduction.wav
Peak level 97.7 %
Range quality 99.9 %
Copy CRC DEB61F97
Copy OK
No errors occurred
End of status report

2005 - Illuminati [2015, Skol Records, SR025, Poland]

01. The Enemy (4:31)
02. Lies (4:46)
03. Bleed (4:52)
04. Illuminati - I - Illuminati (1:28)
05. Illuminati - II - Against The Tide (4:19)
06. Illuminati - III - The Dark Side (4:47)
07. Deny The Gods (5:07)
08. Desperate Measures (3:51)
09. Nightmare (4:06)
10. The Healer (4:16)
11. Angel Of Sin (5:34)
12. Mental Damage (4:31)
13. Pride (5:04)

Лог создания рипа

Exact Audio Copy V1.0 beta 4 from 7. December 2014
EAC extraction logfile from 29. April 2017, 11:31
Gothic Fate / Illuminati
Used drive : HL-DT-STDVDRAM GU40N Adapter: 0 ID: 1
Read mode : Secure
Utilize accurate stream : Yes
Defeat audio cache : Yes
Make use of C2 pointers : No
Read offset correction : 103
Overread into Lead-In and Lead-Out : No
Fill up missing offset samples with silence : Yes
Delete leading and trailing silent blocks : No
Null samples used in CRC calculations : Yes
Used interface : Installed external ASPI interface
Used output format : User Defined Encoder
Selected bitrate : 1024 kBit/s
Quality : High
Add ID3 tag : No
Command line compressor : C:\Program Files (x86)\AudioConverter\AudioConverter.exe
Additional command line options : FLAC
TOC of the extracted CD
Track | Start | Length | Start sector | End sector
---------------------------------------------------------
1 | 0:00.00 | 4:31.10 | 0 | 20334
2 | 4:31.10 | 4:46.01 | 20335 | 41785
3 | 9:17.11 | 4:51.67 | 41786 | 63677
4 | 14:09.03 | 1:27.51 | 63678 | 70253
5 | 15:36.54 | 4:19.04 | 70254 | 89682
6 | 19:55.58 | 4:47.18 | 89683 | 111225
7 | 24:43.01 | 5:07.03 | 111226 | 134253
8 | 29:50.04 | 3:51.29 | 134254 | 151607
9 | 33:41.33 | 4:05.49 | 151608 | 170031
10 | 37:47.07 | 4:16.36 | 170032 | 189267
11 | 42:03.43 | 5:33.46 | 189268 | 214288
12 | 47:37.14 | 4:31.15 | 214289 | 234628
13 | 52:08.29 | 5:03.62 | 234629 | 257415
Range status and errors
Selected range
Filename C:\Users\workutagin\Desktop\Gothic Fate - Illuminati 2015\Gothic Fate - Illuminati.wav
Peak level 100.0 %
Extraction speed 2.1 X
Range quality 99.9 %
Test CRC F9472CFA
Copy CRC F9472CFA
Copy OK
No errors occurred
AccurateRip summary
Track 1 not present in database
Track 2 not present in database
Track 3 not present in database
Track 4 not present in database
Track 5 not present in database
Track 6 not present in database
Track 7 not present in database
Track 8 not present in database
Track 9 not present in database
Track 10 not present in database
Track 11 not present in database
Track 12 not present in database
Track 13 not present in database
None of the tracks are present in the AccurateRip database
End of status report
==== Log checksum 4BFF80E32294FB984777FB7997127D60A3B57ACBEDC4BB53EBB4258DED4AFEC3 ====

Об исполнителе (группе)

29 мая 2015 года на Skol Records состоялся релиз нового альбома группы GOTHIC FATE, в состав которой входит Uwe Wessel, бывший басист GAMMA RAY, записавший два первых альбома коллектива. "Illuminati" был записан и сведён у Wolfgang'a Budde и прошёл мастеринг у Bart'a Gabriel'a. Всего в диск вошлит 13 треков

Состав

2002
Ardi Hasenfuss Drums
Stefan Harder Guitars
Darius Schüler Vocals, Keyboards
Berti Bass
Markus Brune Guitars
2005
Uwe Wessel Bass
Stefan "Steve" Harder Guitars, Vocals
Markus Brune Guitars
Ardi Hasenfuss Drums, Vocals (backing)
Darius Schüler Vocals
По состоянию здоровья Uwe Wessel оставил свою последнюю группу Gothic Fate, и с тех пор отказался от своей музыкальной карьеры, а в 2006 году он основал собственную веб-радиостанцию под названием «Radio Paranoid», и до сих пор работает там как «web-mod» ".

To download the file disable ad blocking, and reload the page.

disable adblock How to disable ad blocking?

Download by magnet link 863 MB Download Torrent

Login using:

Загрузка...

Similar topics



   
Current time is: 16-Dec 13:06 :: All times are UTC + 3