Starblind / Dying Son
Жанр: Heavy Metal
Носитель: CD
Страна-производитель диска (релиза): Germany
Год издания: 2015
Издатель (лейбл): Pure Steel Records
Номер по каталогу: PSRCD109
Страна исполнителя (группы): Sweden
Аудиокодек: FLAC (*.flac)
Тип рипа: image+.cue
Битрейт аудио: lossless
Продолжительность: 00:47:53
Источник (релизер): Свой рип
Наличие сканов в содержимом раздачи: да
Треклист:
1. A Dying Son
2. Blood Red Skies
3. Firestone
4. The Man of the Crowd
5. The Lighthouse
6. Sacrifice
7. Room 101
8. The Land of Seven Rivers Beyond the Sea

Лог создания рипа

Exact Audio Copy V1.0 beta 6 from 9. April 2015
EAC extraction logfile from 29. April 2017, 22:34
Starblind / Dying Son
Used drive : Optiarc DVD RW AD-7700S Adapter: 1 ID: 1
Read mode : Secure
Utilize accurate stream : Yes
Defeat audio cache : Yes
Make use of C2 pointers : No
Read offset correction : 48
Overread into Lead-In and Lead-Out : No
Fill up missing offset samples with silence : Yes
Delete leading and trailing silent blocks : No
Null samples used in CRC calculations : Yes
Used interface : Native Win32 interface for Win NT & 2000
Used output format : User Defined Encoder
Selected bitrate : 1024 kBit/s
Quality : High
Add ID3 tag : No
Command line compressor : C:\Program Files (x86)\Exact Audio Copy\FLAC\FLAC.EXE
Additional command line options : -V -8 -T "Date=%year%" -T "Genre=%genre%" %source%
TOC of the extracted CD
Track | Start | Length | Start sector | End sector
---------------------------------------------------------
1 | 0:00.00 | 4:26.00 | 0 | 19949
2 | 4:26.00 | 5:52.00 | 19950 | 46349
3 | 10:18.00 | 7:06.00 | 46350 | 78299
4 | 17:24.00 | 5:34.40 | 78300 | 103389
5 | 22:58.40 | 3:36.70 | 103390 | 119659
6 | 26:35.35 | 5:07.54 | 119660 | 142738
7 | 31:43.14 | 4:36.49 | 142739 | 163487
8 | 36:19.63 | 11:33.15 | 163488 | 215477
Range status and errors
Selected range
Filename C:\Users\Олег\Desktop\Starblind - Dying Son.wav
Peak level 100.0 %
Extraction speed 4.5 X
Range quality 100.0 %
Test CRC EEDAAB84
Copy CRC EEDAAB84
Copy OK
No errors occurred
AccurateRip summary
Track 1 accurately ripped (confidence 1) [FC241F6A] (AR v2)
Track 2 accurately ripped (confidence 1) [F51A08E7] (AR v2)
Track 3 accurately ripped (confidence 1) [FB0EB111] (AR v2)
Track 4 accurately ripped (confidence 1) [C2EAF07C] (AR v2)
Track 5 accurately ripped (confidence 1) [3493C91E] (AR v2)
Track 6 accurately ripped (confidence 1) [B87EAC73] (AR v2)
Track 7 accurately ripped (confidence 1) [F3781324] (AR v2)
Track 8 accurately ripped (confidence 1) [A4646967] (AR v2)
All tracks accurately ripped
End of status report
---- CUETools DB Plugin V2.1.6
[CTDB TOCID: Tc9oyUvMVVWsGuhqmjAaoJfz.20-] found
Submit result: already submitted
Track | CTDB Status
1 | (2/2) Accurately ripped
2 | (2/2) Accurately ripped
3 | (2/2) Accurately ripped
4 | (2/2) Accurately ripped
5 | (2/2) Accurately ripped
6 | (2/2) Accurately ripped
7 | (2/2) Accurately ripped
8 | (2/2) Accurately ripped
==== Log checksum 561B3A2B6BEC3874C8536D232475C1B0762706F9F068399B1EB84208F7

Состав

Mike Stark : (Vocals)
Björn Rosenblad : (Guitar)
Zacharias Wikner : (Drums)
Johan J.J Jonasson :(Guitar)
Daniel Tillberg :(Bass)

To download the file disable ad blocking, and reload the page.

disable adblock How to disable ad blocking?

Download by magnet link 364 MB Download Torrent

Login using:

Similar topics

(Heavy Metal, Groove Metal) Blaxem - Who Cares - 2017, MP3, 320 kbps
 86 MB   0 | 0   26-May-17 18:27   0
(Heavy Metal/Progressive) Wine Guardian - Onirica - 2017, MP3, 320 kbps
 115 MB   0 | 0   26-May-17 18:27   0
(Blackened Heavy Metal) Ophicvs - Machine Gun Reaper - 2017, MP3, 320 kbps
 109 MB   0 | 0   26-May-17 18:27   0
(Heavy Metal) Cremator - The Coming Of War - 2017, MP3, 320 kbps
 114 MB   0 | 0   26-May-17 18:27   0


   
Current time is: 23-Oct 07:50 :: All times are UTC ± 0