-Wuthering Heights - Дискография (6CD)- Жанр: Progressive/Power/Folk Metal
Носитель: CD
Год издания: 1999-2010
Издатель (лейбл): Avalon/Marquee Inc./Toshiba EMI/Sensory Records
Страна-производитель диска: Japan/United States
Страна исполнителя: Denmark (Copenhagen)
Аудиокодек: FLAC (*.flac)
Тип рипа: image+.cue
Битрейт аудио: lossless
Продолжительность: 05:40:28
Источник (релизер): Собственные CD
Наличие сканов: Да (Complete 600 DPI)
Доп. информация: Encyclopaedia Metallum
-

1999 - [CD] Within (Original Recording) (Sensory Records SR3006) [00:47:38]

01. Enter the Cave
02. Hunter in the Dark
03. Too Great Thy Gift
04. Sorrow in Memoriam
05. Dreamwalker
06. The Bird
07. The Wanderer's Farewell
Kristian "Krille" Andrén - Vocals
Erik Ravn - Guitars, Vocals
Kasper Gram - Bass
Morten Nødgaard - Drums
Rune S. Brink - Keyboards

Лог создания рипа

Exact Audio Copy V1.3 from 2. September 2016
EAC extraction logfile from 24. April 2017, 16:18
Wuthering Heights / Within
Used drive : MATSHITADVD-RAM UJ8G6 Adapter: 1 ID: 0
Read mode : Secure
Utilize accurate stream : Yes
Defeat audio cache : Yes
Make use of C2 pointers : No
Read offset correction : 103
Overread into Lead-In and Lead-Out : No
Fill up missing offset samples with silence : Yes
Delete leading and trailing silent blocks : No
Null samples used in CRC calculations : Yes
Used interface : Native Win32 interface for Win NT & 2000
Used output format : User Defined Encoder
Selected bitrate : 1024 kBit/s
Quality : High
Add ID3 tag : No
Command line compressor : C:\Program Files (x86)\Exact Audio Copy\FLAC\FLAC.EXE
Additional command line options : -V -8 -T "Date=%year%" -T"Genre=%genre%" -T"COMMENT=Ripped by Ilijan - ilko" -8 -V %source%
TOC of the extracted CD
Track | Start | Length | Start sector | End sector
---------------------------------------------------------
1 | 0:00.00 | 3:08.37 | 0 | 14136
2 | 3:08.37 | 5:59.68 | 14137 | 41129
3 | 9:08.30 | 7:09.30 | 41130 | 73334
4 | 16:17.60 | 8:31.25 | 73335 | 111684
5 | 24:49.10 | 13:42.25 | 111685 | 173359
6 | 38:31.35 | 3:46.67 | 173360 | 190376
7 | 42:18.27 | 5:20.43 | 190377 | 214419
Range status and errors
Selected range
Filename D:\ilko\Wuthering Heights - Within.wav
Peak level 99.8 %
Extraction speed 3.9 X
Range quality 100.0 %
Test CRC 26965D3C
Copy CRC 26965D3C
Copy OK
No errors occurred
AccurateRip summary
Track 1 accurately ripped (confidence 3) [D9FB8014] (AR v2)
Track 2 accurately ripped (confidence 3) [BCEF914E] (AR v2)
Track 3 accurately ripped (confidence 3) [032A376D] (AR v2)
Track 4 accurately ripped (confidence 3) [1822F168] (AR v2)
Track 5 accurately ripped (confidence 3) [5AC499EF] (AR v2)
Track 6 accurately ripped (confidence 3) [BCE9CFD1] (AR v2)
Track 7 accurately ripped (confidence 2) [86D1A505] (AR v2)
All tracks accurately ripped
End of status report
---- CUETools DB Plugin V2.1.6
[CTDB TOCID: 8FalsAA4SbEz6sDE5uTyYHk4BYY-] found
Submit result: 8FalsAA4SbEz6sDE5uTyYHk4BYY- has been confirmed
Track | CTDB Status
1 | (13/13) Accurately ripped
2 | (13/13) Accurately ripped
3 | (13/13) Accurately ripped
4 | (13/13) Accurately ripped
5 | (13/13) Accurately ripped
6 | (13/13) Accurately ripped
7 | (12/13) Accurately ripped
==== Log checksum 7897A197A0734E2B1BD660CDB0F09C9C5534856EBBB8DC9207F8B9C9818CD65B ====
-

2002 - [CD] To Travel For Evermore (Japanese Edition) (Toshiba EMI TOCP-66072) [01:03:09]

01. Behind Tearstained Ice
02. The Nevershining Stones
03. Dancer in the Light
04. Lost Realms
05. Battle of the Seasons
06. When the Jester Cries (Bonus Track)
07. A Sinner's Confession (I: Dawn / II: The Child in the Sun / III: The Man in the Moon / IV: Dusk)
08. See Tomorrow Shine
09. Through Within to Beyond
10. River Oblivion
Kristian "Krille" Andrén - Vocals
Erik Ravn - Guitars, Bass, Keyboards
Henrik Flyman - Guitars
Morten Gade Sørensen - Drums
Rune S. Brink - Keyboards

Лог создания рипа

Exact Audio Copy V1.3 from 2. September 2016
EAC extraction logfile from 24. April 2017, 16:50
Wuthering Heights / To Travel for Evermore (Japan)
Used drive : MATSHITADVD-RAM UJ8G6 Adapter: 1 ID: 0
Read mode : Secure
Utilize accurate stream : Yes
Defeat audio cache : Yes
Make use of C2 pointers : No
Read offset correction : 103
Overread into Lead-In and Lead-Out : No
Fill up missing offset samples with silence : Yes
Delete leading and trailing silent blocks : No
Null samples used in CRC calculations : Yes
Used interface : Native Win32 interface for Win NT & 2000
Used output format : User Defined Encoder
Selected bitrate : 1024 kBit/s
Quality : High
Add ID3 tag : No
Command line compressor : C:\Program Files (x86)\Exact Audio Copy\FLAC\FLAC.EXE
Additional command line options : -V -8 -T "Date=%year%" -T"Genre=%genre%" -T"COMMENT=Ripped by Ilijan - ilko" -8 -V %source%
TOC of the extracted CD
Track | Start | Length | Start sector | End sector
---------------------------------------------------------
1 | 0:00.00 | 2:13.17 | 0 | 9991
2 | 2:13.17 | 6:27.28 | 9992 | 39044
3 | 8:40.45 | 5:31.17 | 39045 | 63886
4 | 14:11.62 | 8:28.14 | 63887 | 102000
5 | 22:40.01 | 8:48.13 | 102001 | 141613
6 | 31:28.14 | 6:06.16 | 141614 | 169079
7 | 37:34.30 | 9:38.06 | 169080 | 212435
8 | 47:12.36 | 5:13.20 | 212436 | 235930
9 | 52:25.56 | 6:52.34 | 235931 | 266864
10 | 59:18.15 | 3:51.58 | 266865 | 284247
Range status and errors
Selected range
Filename D:\ilko\Wuthering Heights - To Travel for Evermore (Japan).wav
Peak level 98.9 %
Extraction speed 4.3 X
Range quality 100.0 %
Test CRC 165AF4A6
Copy CRC 165AF4A6
Copy OK
No errors occurred
AccurateRip summary
Track 1 accurately ripped (confidence 1) [7861E0C4] (AR v2)
Track 2 accurately ripped (confidence 1) [B1DD8C7E] (AR v2)
Track 3 accurately ripped (confidence 1) [7BA155E6] (AR v2)
Track 4 accurately ripped (confidence 1) [DC1F8E2C] (AR v2)
Track 5 accurately ripped (confidence 1) [CE026C5A] (AR v2)
Track 6 accurately ripped (confidence 1) [B4CF558D] (AR v2)
Track 7 accurately ripped (confidence 1) [8E42B4D1] (AR v2)
Track 8 accurately ripped (confidence 1) [A9D2A84E] (AR v2)
Track 9 accurately ripped (confidence 1) [9F489E49] (AR v2)
Track 10 accurately ripped (confidence 1) [A94CE4BF] (AR v2)
All tracks accurately ripped
End of status report
---- CUETools DB Plugin V2.1.6
[CTDB TOCID: jtxC1O7vRydwWcX6qvB4hmIKAtw-] found
Submit result: jtxC1O7vRydwWcX6qvB4hmIKAtw- has been confirmed
Track | CTDB Status
1 | (3/3) Accurately ripped
2 | (3/3) Accurately ripped
3 | (3/3) Accurately ripped
4 | (3/3) Accurately ripped
5 | (3/3) Accurately ripped
6 | (3/3) Accurately ripped
7 | (3/3) Accurately ripped
8 | (3/3) Accurately ripped
9 | (3/3) Accurately ripped
10 | (3/3) Accurately ripped
==== Log checksum 99784DCF4B23683C5FCBD1BAABDD0C41ABE63FB87C7F880C83B670612D38F576 ====
-

2003 - [CD] Far From The Madding Crowd (Japanese Edition) (Toshiba EMI TOCP-67293) [01:07:14]

01. Gather Ye Wild
02. The Road Goes Ever On
03. Tree
04. Longing for the Woods Part I: The Wild Children
05. Highland Winds
06. Longing for the Woods Part II: The Ring of Fire
07. The Bollard
08. Bad Hobbits Die Hard
09. Longing for the Woods Part III: Herne's Prophecy
10. Land of Olden Glory
11. Lament for Lórien
12. Memory Within a Memory (Bonus Track)
Nils Patrik Johansson - Vocals
Erik Ravn - Guitars, Bass, Keyboards
Henrik Flyman - Guitars
Morten Gade Sørensen - Drums
Rune S. Brink - Keyboards

Лог создания рипа

Exact Audio Copy V1.3 from 2. September 2016
EAC extraction logfile from 24. April 2017, 18:23
Wuthering Heights / Far From the Madding Crowd (Japan)
Used drive : MATSHITADVD-RAM UJ8G6 Adapter: 1 ID: 0
Read mode : Secure
Utilize accurate stream : Yes
Defeat audio cache : Yes
Make use of C2 pointers : No
Read offset correction : 103
Overread into Lead-In and Lead-Out : No
Fill up missing offset samples with silence : Yes
Delete leading and trailing silent blocks : No
Null samples used in CRC calculations : Yes
Used interface : Native Win32 interface for Win NT & 2000
Used output format : User Defined Encoder
Selected bitrate : 1024 kBit/s
Quality : High
Add ID3 tag : No
Command line compressor : C:\Program Files (x86)\Exact Audio Copy\FLAC\FLAC.EXE
Additional command line options : -V -8 -T "Date=%year%" -T"Genre=%genre%" -T"COMMENT=Ripped by Ilijan - ilko" -8 -V %source%
TOC of the extracted CD
Track | Start | Length | Start sector | End sector
---------------------------------------------------------
1 | 0:00.00 | 1:46.40 | 0 | 7989
2 | 1:46.40 | 7:52.35 | 7990 | 43424
3 | 9:39.00 | 5:06.25 | 43425 | 66399
4 | 14:45.25 | 5:37.15 | 66400 | 91689
5 | 20:22.40 | 6:58.33 | 91690 | 123072
6 | 27:20.73 | 6:17.20 | 123073 | 151367
7 | 33:38.18 | 3:32.35 | 151368 | 167302
8 | 37:10.53 | 3:23.72 | 167303 | 182599
9 | 40:34.50 | 8:41.23 | 182600 | 221697
10 | 49:15.73 | 6:21.70 | 221698 | 250342
11 | 55:37.68 | 5:54.45 | 250343 | 276937
12 | 61:32.38 | 5:41.62 | 276938 | 302574
13 | 69:46.25 | 4:11.50 | 313975 | 332849
Range status and errors
Selected range
Filename D:\ilko\Wuthering Heights - Far From the Madding Crowd (Japan).wav
Peak level 98.8 %
Extraction speed 4.4 X
Range quality 100.0 %
Test CRC 62CFE2DD
Copy CRC 62CFE2DD
Copy OK
No errors occurred
AccurateRip summary
Track 1 accurately ripped (confidence 2) [7DE3E8E0] (AR v2)
Track 2 accurately ripped (confidence 2) [951477B1] (AR v2)
Track 3 accurately ripped (confidence 2) [C7AA63A0] (AR v2)
Track 4 accurately ripped (confidence 2) [CE2E7C54] (AR v2)
Track 5 accurately ripped (confidence 2) [74546B25] (AR v2)
Track 6 accurately ripped (confidence 2) [4CD27A25] (AR v2)
Track 7 accurately ripped (confidence 2) [FD4197FD] (AR v2)
Track 8 accurately ripped (confidence 2) [C2209048] (AR v2)
Track 9 accurately ripped (confidence 2) [8641D35E] (AR v2)
Track 10 accurately ripped (confidence 2) [339D7B05] (AR v2)
Track 11 accurately ripped (confidence 2) [ADD69870] (AR v2)
Track 12 accurately ripped (confidence 2) [A17D5FE2] (AR v2)
All tracks accurately ripped
End of status report
---- CUETools DB Plugin V2.1.6
[CTDB TOCID: BQx1DrdD2gpX0o7MeiGrFZ7dc3M-] found
Submit result: BQx1DrdD2gpX0o7MeiGrFZ7dc3M- has been confirmed
Track | CTDB Status
1 | (5/5) Accurately ripped
2 | (5/5) Accurately ripped
3 | (5/5) Accurately ripped
4 | (5/5) Accurately ripped
5 | (5/5) Accurately ripped
6 | (5/5) Accurately ripped
7 | (5/5) Accurately ripped
8 | (5/5) Accurately ripped
9 | (5/5) Accurately ripped
10 | (5/5) Accurately ripped
11 | (5/5) Accurately ripped
12 | (5/5) Accurately ripped
==== Log checksum A1B79DC8A28C327332852D46B3BCAB0FA1A580B1188E15AD39FD079BE3A5614B ====
-

2006 - [2CD] The Shadow Cabinet (Original Recording) (Sensory Records SR3035) [01:38:38]

CD1:
01. Demon Desire
02. Beautifool
03. The Raven
04. Faith - Apathy Divine Part 1
05. Envy
06. Snow - Apathy Divine Part 2
07. Sleep
08. I Shall Not Yield
09. Reason...?
10. Carpe Noctem - Seize the Night
Nils Patrik Johansson - Vocals
Erik Ravn - Guitars
Morten Gade Sørensen - Drums
Andreas Lindahl - Keyboards
Martin Arendal - Guitars
Teddy Möller - Bass

Лог создания рипа

Exact Audio Copy V1.3 from 2. September 2016
EAC extraction logfile from 24. April 2017, 17:21
Wuthering Heights / The Shadow Cabinet
Used drive : MATSHITADVD-RAM UJ8G6 Adapter: 1 ID: 0
Read mode : Secure
Utilize accurate stream : Yes
Defeat audio cache : Yes
Make use of C2 pointers : No
Read offset correction : 103
Overread into Lead-In and Lead-Out : No
Fill up missing offset samples with silence : Yes
Delete leading and trailing silent blocks : No
Null samples used in CRC calculations : Yes
Used interface : Native Win32 interface for Win NT & 2000
Used output format : User Defined Encoder
Selected bitrate : 1024 kBit/s
Quality : High
Add ID3 tag : No
Command line compressor : C:\Program Files (x86)\Exact Audio Copy\FLAC\FLAC.EXE
Additional command line options : -V -8 -T "Date=%year%" -T"Genre=%genre%" -T"COMMENT=Ripped by Ilijan - ilko" -8 -V %source%
TOC of the extracted CD
Track | Start | Length | Start sector | End sector
---------------------------------------------------------
1 | 0:00.00 | 5:18.09 | 0 | 23858
2 | 5:18.09 | 5:03.08 | 23859 | 46591
3 | 10:21.17 | 4:47.11 | 46592 | 68127
4 | 15:08.28 | 8:13.13 | 68128 | 105115
5 | 23:21.41 | 6:41.73 | 105116 | 135263
6 | 30:03.39 | 5:48.21 | 135264 | 161384
7 | 35:51.60 | 4:46.41 | 161385 | 182875
8 | 40:38.26 | 6:40.23 | 182876 | 212898
9 | 47:18.49 | 0:31.34 | 212899 | 215257
10 | 47:50.08 | 7:47.48 | 215258 | 250330
Range status and errors
Selected range
Filename D:\ilko\Wuthering Heights - The Shadow Cabinet.wav
Peak level 99.9 %
Extraction speed 4.0 X
Range quality 100.0 %
Test CRC 5236D970
Copy CRC 5236D970
Copy OK
No errors occurred
AccurateRip summary
Track 1 accurately ripped (confidence 4) [110885B5] (AR v2)
Track 2 accurately ripped (confidence 4) [CCCD6F42] (AR v2)
Track 3 accurately ripped (confidence 4) [02D8080A] (AR v2)
Track 4 accurately ripped (confidence 4) [1A9F55F7] (AR v2)
Track 5 accurately ripped (confidence 4) [0B8079E2] (AR v2)
Track 6 accurately ripped (confidence 4) [74697E8A] (AR v2)
Track 7 accurately ripped (confidence 4) [5EC8494B] (AR v2)
Track 8 accurately ripped (confidence 4) [7D302675] (AR v2)
Track 9 accurately ripped (confidence 4) [1BACAF6C] (AR v2)
Track 10 accurately ripped (confidence 4) [A3D4B407] (AR v2)
All tracks accurately ripped
End of status report
---- CUETools DB Plugin V2.1.6
[CTDB TOCID: EsyFTel46shDMAqev4WrPnO5708-] found
Submit result: EsyFTel46shDMAqev4WrPnO5708- has been confirmed
Track | CTDB Status
1 | (12/12) Accurately ripped
2 | (12/12) Accurately ripped
3 | (12/12) Accurately ripped
4 | (12/12) Accurately ripped
5 | (12/12) Accurately ripped
6 | (12/12) Accurately ripped
7 | (12/12) Accurately ripped
8 | (12/12) Accurately ripped
9 | (12/12) Accurately ripped
10 | (12/12) Accurately ripped
==== Log checksum DACB27DA170B8A76A5A4D1ACA34B6176A3762714A183D88A35AD8B15AC324293 ====
CD2:
Roaming Far From Home - Live at ProgPower 2004
01. Tree
02. Longing for the Woods Part 1
03. Longing for the Woods Part 2
04. Lost Realms
05. Bad Hobbits Die Hard
06. Hunter in the Dark
07. Highland Winds

Лог создания рипа

Exact Audio Copy V1.3 from 2. September 2016
EAC extraction logfile from 24. April 2017, 17:47
Wuthering Heights / The Shadow Cabinet (Bonus CD)
Used drive : MATSHITADVD-RAM UJ8G6 Adapter: 1 ID: 0
Read mode : Secure
Utilize accurate stream : Yes
Defeat audio cache : Yes
Make use of C2 pointers : No
Read offset correction : 103
Overread into Lead-In and Lead-Out : No
Fill up missing offset samples with silence : Yes
Delete leading and trailing silent blocks : No
Null samples used in CRC calculations : Yes
Used interface : Native Win32 interface for Win NT & 2000
Used output format : User Defined Encoder
Selected bitrate : 1024 kBit/s
Quality : High
Add ID3 tag : No
Command line compressor : C:\Program Files (x86)\Exact Audio Copy\FLAC\FLAC.EXE
Additional command line options : -V -8 -T "Date=%year%" -T"Genre=%genre%" -T"COMMENT=Ripped by Ilijan - ilko" -8 -V %source%
TOC of the extracted CD
Track | Start | Length | Start sector | End sector
---------------------------------------------------------
1 | 0:00.00 | 5:17.45 | 0 | 23819
2 | 5:17.45 | 5:07.67 | 23820 | 46911
3 | 10:25.37 | 6:03.73 | 46912 | 74209
4 | 16:29.35 | 7:31.29 | 74210 | 108063
5 | 24:00.64 | 5:15.47 | 108064 | 131735
6 | 29:16.36 | 6:04.26 | 131736 | 159061
7 | 35:20.62 | 7:40.39 | 159062 | 193600
Range status and errors
Selected range
Filename D:\ilko\Wuthering Heights - The Shadow Cabinet (Bonus CD).wav
Peak level 98.9 %
Extraction speed 3.8 X
Range quality 100.0 %
Test CRC FB469A6D
Copy CRC FB469A6D
Copy OK
No errors occurred
AccurateRip summary
Track 1 accurately ripped (confidence 6) [E1BE0E89] (AR v1)
Track 2 accurately ripped (confidence 6) [02DC24ED] (AR v1)
Track 3 accurately ripped (confidence 6) [BD55F88F] (AR v1)
Track 4 accurately ripped (confidence 6) [BAA81398] (AR v1)
Track 5 accurately ripped (confidence 6) [7103CC4E] (AR v1)
Track 6 accurately ripped (confidence 6) [9EAD9679] (AR v1)
Track 7 accurately ripped (confidence 6) [F8E45FC1] (AR v1)
All tracks accurately ripped
End of status report
---- CUETools DB Plugin V2.1.6
[CTDB TOCID: JfqrlEQbXke8NndhRCgzOJda_wA-] found
Submit result: JfqrlEQbXke8NndhRCgzOJda_wA- has been confirmed
Track | CTDB Status
1 | (6/6) Accurately ripped
2 | (6/6) Accurately ripped
3 | (6/6) Accurately ripped
4 | (6/6) Accurately ripped
5 | (6/6) Accurately ripped
6 | (6/6) Accurately ripped
7 | (6/6) Accurately ripped
==== Log checksum 15F7D1E4FD935995940080F12180660B36956B4C72BCA1B077D79A08084FCA99 ====
-

2010 - [CD] Salt (Japanese Edition) (Avalon/Marquee Inc. MICP-10908) [01:04:29]

01. Away!
02. The Desperate Poet
03. The Mad Sailor
04. The Last Tribe (Mother Earth)
05. Tears
06. Weather the Storm
07. The Field
08. Water of Life
09. Lost at Sea
10. Sympathy (Uriah Heep Cover) (Bonus Track)
Nils Patrik Johansson - Vocals
Erik Ravn - Guitars
Morten Gade Sørensen - Drums
Andreas Lindahl - Keyboards
Martin Arendal - Guitars
Teddy Möller - Bass

Лог создания рипа

Exact Audio Copy V1.3 from 2. September 2016
EAC extraction logfile from 24. April 2017, 20:38
Wuthering Heights / Salt (Japan)
Used drive : MATSHITADVD-RAM UJ8G6 Adapter: 1 ID: 0
Read mode : Secure
Utilize accurate stream : Yes
Defeat audio cache : Yes
Make use of C2 pointers : No
Read offset correction : 103
Overread into Lead-In and Lead-Out : No
Fill up missing offset samples with silence : Yes
Delete leading and trailing silent blocks : No
Null samples used in CRC calculations : Yes
Used interface : Native Win32 interface for Win NT & 2000
Used output format : User Defined Encoder
Selected bitrate : 1024 kBit/s
Quality : High
Add ID3 tag : No
Command line compressor : C:\Program Files (x86)\Exact Audio Copy\FLAC\FLAC.EXE
Additional command line options : -V -8 -T "Date=%year%" -T"Genre=%genre%" -T"COMMENT=Ripped by Ilijan - ilko" -8 -V %source%
TOC of the extracted CD
Track | Start | Length | Start sector | End sector
---------------------------------------------------------
1 | 0:00.00 | 1:27.21 | 0 | 6545
2 | 1:27.21 | 6:28.53 | 6546 | 35698
3 | 7:55.74 | 6:18.54 | 35699 | 64102
4 | 14:14.53 | 7:54.06 | 64103 | 99658
5 | 22:08.59 | 5:55.15 | 99659 | 126298
6 | 28:03.74 | 6:52.45 | 126299 | 157243
7 | 34:56.44 | 5:57.72 | 157244 | 184090
8 | 40:54.41 | 2:06.33 | 184091 | 193573
9 | 43:00.74 | 16:38.01 | 193574 | 268424
10 | 59:39.00 | 4:50.00 | 268425 | 290174
Range status and errors
Selected range
Filename D:\ilko\Wuthering Heights - Salt (Japan).wav
Peak level 98.9 %
Extraction speed 4.4 X
Range quality 100.0 %
Test CRC F5512E6B
Copy CRC F5512E6B
Copy OK
No errors occurred
AccurateRip summary
Track 1 accurately ripped (confidence 4) [519B91F8] (AR v2)
Track 2 accurately ripped (confidence 4) [4CCD1519] (AR v2)
Track 3 accurately ripped (confidence 4) [3C7CB840] (AR v2)
Track 4 accurately ripped (confidence 4) [A837C8DE] (AR v2)
Track 5 accurately ripped (confidence 4) [4C4AD3DC] (AR v2)
Track 6 accurately ripped (confidence 4) [5938ADD3] (AR v2)
Track 7 accurately ripped (confidence 4) [633B7EC0] (AR v2)
Track 8 accurately ripped (confidence 4) [8ACEF2DB] (AR v2)
Track 9 accurately ripped (confidence 4) [5F2A6BD0] (AR v2)
Track 10 accurately ripped (confidence 4) [14784E4F] (AR v2)
All tracks accurately ripped
End of status report
---- CUETools DB Plugin V2.1.6
[CTDB TOCID: iaBlFOTA7ht1c4ctKrWS8bnqN2M-] found
Submit result: iaBlFOTA7ht1c4ctKrWS8bnqN2M- has been confirmed
Track | CTDB Status
1 | (3/3) Accurately ripped
2 | (3/3) Accurately ripped
3 | (3/3) Accurately ripped
4 | (3/3) Accurately ripped
5 | (3/3) Accurately ripped
6 | (3/3) Accurately ripped
7 | (3/3) Accurately ripped
8 | (3/3) Accurately ripped
9 | (3/3) Accurately ripped
10 | (3/3) Accurately ripped
==== Log checksum 82F42D54B6071380F157098135CBC10F4106762F37C8C0DBAE86D7BD45876F10 ====

To download the file disable ad blocking, and reload the page.

disable adblock How to disable ad blocking?

Download by magnet link 2.6 GB Download Torrent

Login using:

Similar topics



   
Current time is: 23-Oct 08:35 :: All times are UTC ± 0