Ossian / 30 ev legszebb balladai (2016)
Жанр: Heavy Metal
Носитель: CD
Страна-производитель диска (релиза): Hungary
Год издания: 2016
Издатель (лейбл): HMRCD 165
Страна исполнителя (группы): Hungary
Аудиокодек: FLAC (*.flac)
Тип рипа: tracks
Битрейт аудио: lossless
Продолжительность: 1:18:05
Источник (релизер): Own CD
Наличие сканов в содержимом раздачи: Da
Треклист:
1. Ha te ott leszel velem 05:03
2. Ahányszor látlak 03:31
3. Éjféli lány 04:38
4. Többet ér mindennél 04:20
5. Magányos angyal 05:11
6. Társ a bajban 03:19
7. Még egy nap 04:27
8. A régi láng 03:38
9. Bilincs vagy ékszer 03:13
10. Huség 04:03
11. A bátrakért 05:24
12. A tuz jegyében 05:14
13. Nincs menekvés 04:30
14. A hosszú álom 02:33
15. Küldetés 03:59
16. Asszony feketében 04:02
17. Visszajövök 04:29
18. Álmod legyen 02:25
19. Csendesen 04:00

Лог создания рипа

Exact Audio Copy V1.3 from 2. September 2016
EAC extraction logfile from 29. April 2017, 17:28
Ossian / 30 ev legszebb balladai
Used drive : PIONEER BD-RW BDR-209D Adapter: 1 ID: 1
Read mode : Secure
Utilize accurate stream : Yes
Defeat audio cache : Yes
Make use of C2 pointers : No
Read offset correction : 667
Overread into Lead-In and Lead-Out : No
Fill up missing offset samples with silence : Yes
Delete leading and trailing silent blocks : No
Null samples used in CRC calculations : Yes
Used interface : Native Win32 interface for Win NT & 2000
Gap handling : Appended to previous track
Used output format : User Defined Encoder
Selected bitrate : 1024 kBit/s
Quality : High
Add ID3 tag : No
Command line compressor : C:\Program Files (x86)\Exact Audio Copy\FLAC\FLAC.EXE
Additional command line options : -6 -V -T "ARTIST=%artist%" -T "TITLE=%title%" -T "ALBUM=%albumtitle%" -T "DATE=%year%" -T "TRACKNUMBER=%tracknr%" -T "GENRE=%genre%" -T "COMMENT=%comment%" -T "BAND=%albuminterpret%" -T "ALBUMARTIST=%albuminterpret%" -T "COMPOSER=%composer%" %haslyrics%--tag-from-file=LYRICS="%lyricsfile%"%haslyrics% -T "DISCNUMBER=%cdnumber%" -T "TOTALDISCS=%totalcds%" -T "TOTALTRACKS=%numtracks%" %hascover%--picture="%coverfile%"%hascover% %source% -o %dest%
TOC of the extracted CD
Track | Start | Length | Start sector | End sector
---------------------------------------------------------
1 | 0:00.00 | 5:03.37 | 0 | 22761
2 | 5:03.37 | 3:31.00 | 22762 | 38586
3 | 8:34.37 | 4:38.38 | 38587 | 59474
4 | 13:13.00 | 4:20.37 | 59475 | 79011
5 | 17:33.37 | 5:11.38 | 79012 | 102374
6 | 22:45.00 | 3:19.37 | 102375 | 117336
7 | 26:04.37 | 4:27.38 | 117337 | 137399
8 | 30:32.00 | 3:38.37 | 137400 | 153786
9 | 34:10.37 | 3:13.38 | 153787 | 168299
10 | 37:24.00 | 4:03.37 | 168300 | 186561
11 | 41:27.37 | 5:24.00 | 186562 | 210861
12 | 46:51.37 | 5:14.38 | 210862 | 234449
13 | 52:06.00 | 4:30.00 | 234450 | 254699
14 | 56:36.00 | 2:33.37 | 254700 | 266211
15 | 59:09.37 | 3:59.00 | 266212 | 284136
16 | 63:08.37 | 4:02.00 | 284137 | 302286
17 | 67:10.37 | 4:29.38 | 302287 | 322499
18 | 71:40.00 | 2:25.00 | 322500 | 333374
19 | 74:05.00 | 4:00.00 | 333375 | 351374
Track 1
Filename D:\Torrent\Ossian - 30 ev legszebb balladai (2016)\01. Ossian - Ha te ott leszel velem.wav
Pre-gap length 0:00:02.00
Peak level 100.0 %
Extraction speed 5.1 X
Track quality 100.0 %
Test CRC 79233C69
Copy CRC 79233C69
Accurately ripped (confidence 1) [912DF9E1] (AR v2)
Copy OK
Track 2
Filename D:\Torrent\Ossian - 30 ev legszebb balladai (2016)\02. Ossian - Ahanyszor latlak.wav
Peak level 96.9 %
Extraction speed 5.3 X
Track quality 100.0 %
Test CRC D511DF93
Copy CRC D511DF93
Accurately ripped (confidence 1) [CE0BC428] (AR v2)
Copy OK
Track 3
Filename D:\Torrent\Ossian - 30 ev legszebb balladai (2016)\03. Ossian - Ejfeli lany.wav
Peak level 97.7 %
Extraction speed 5.9 X
Track quality 100.0 %
Test CRC 3D622E51
Copy CRC 3D622E51
Accurately ripped (confidence 1) [7710176F] (AR v2)
Copy OK
Track 4
Filename D:\Torrent\Ossian - 30 ev legszebb balladai (2016)\04. Ossian - Tobbet er mindennel.wav
Peak level 88.0 %
Extraction speed 6.3 X
Track quality 100.0 %
Test CRC 80268006
Copy CRC 80268006
Accurately ripped (confidence 1) [3B372550] (AR v2)
Copy OK
Track 5
Filename D:\Torrent\Ossian - 30 ev legszebb balladai (2016)\05. Ossian - Magyanyos angyal.wav
Peak level 97.7 %
Extraction speed 6.8 X
Track quality 100.0 %
Test CRC 5F248AEA
Copy CRC 5F248AEA
Accurately ripped (confidence 1) [C95D3445] (AR v2)
Copy OK
Track 6
Filename D:\Torrent\Ossian - 30 ev legszebb balladai (2016)\06. Ossian - Tars a bajban.wav
Peak level 96.3 %
Extraction speed 6.7 X
Track quality 100.0 %
Test CRC DDA020F2
Copy CRC DDA020F2
Accurately ripped (confidence 1) [5446957C] (AR v2)
Copy OK
Track 7
Filename D:\Torrent\Ossian - 30 ev legszebb balladai (2016)\07. Ossian - Meg egy nap.wav
Peak level 63.0 %
Extraction speed 7.2 X
Track quality 100.0 %
Test CRC 8975B582
Copy CRC 8975B582
Accurately ripped (confidence 1) [54F0B8C8] (AR v2)
Copy OK
Track 8
Filename D:\Torrent\Ossian - 30 ev legszebb balladai (2016)\08. Ossian - A regi lang.wav
Peak level 97.5 %
Extraction speed 7.2 X
Track quality 100.0 %
Test CRC 9505F7A7
Copy CRC 9505F7A7
Accurately ripped (confidence 1) [F849166B] (AR v2)
Copy OK
Track 9
Filename D:\Torrent\Ossian - 30 ev legszebb balladai (2016)\09. Ossian - Bilincs vagy ekszer.wav
Peak level 88.0 %
Extraction speed 6.4 X
Track quality 99.9 %
Test CRC 82FE23A2
Copy CRC 82FE23A2
Accurately ripped (confidence 1) [980F9368] (AR v2)
Copy OK
Track 10
Filename D:\Torrent\Ossian - 30 ev legszebb balladai (2016)\10. Ossian - Huseg.wav
Peak level 88.1 %
Extraction speed 7.7 X
Track quality 100.0 %
Test CRC EBE00520
Copy CRC EBE00520
Accurately ripped (confidence 1) [884F2DF4] (AR v2)
Copy OK
Track 11
Filename D:\Torrent\Ossian - 30 ev legszebb balladai (2016)\11. Ossian - A Batrakert.wav
Peak level 97.7 %
Extraction speed 7.5 X
Track quality 99.9 %
Test CRC CD6F8DB6
Copy CRC CD6F8DB6
Accurately ripped (confidence 1) [49E0C427] (AR v2)
Copy OK
Track 12
Filename D:\Torrent\Ossian - 30 ev legszebb balladai (2016)\12. Ossian - A tuz jegyeben.wav
Peak level 100.0 %
Extraction speed 8.4 X
Track quality 100.0 %
Test CRC 9860045E
Copy CRC 9860045E
Accurately ripped (confidence 1) [8E6FF6F6] (AR v2)
Copy OK
Track 13
Filename D:\Torrent\Ossian - 30 ev legszebb balladai (2016)\13. Ossian - Nincs menekves.wav
Peak level 97.7 %
Extraction speed 8.5 X
Track quality 100.0 %
Test CRC 9C1CB7F7
Copy CRC 9C1CB7F7
Accurately ripped (confidence 1) [32321113] (AR v2)
Copy OK
Track 14
Filename D:\Torrent\Ossian - 30 ev legszebb balladai (2016)\14. Ossian - A hosszu alom.wav
Peak level 93.4 %
Extraction speed 7.9 X
Track quality 100.0 %
Test CRC 15C09BEE
Copy CRC 15C09BEE
Accurately ripped (confidence 1) [30F7EA36] (AR v2)
Copy OK
Track 15
Filename D:\Torrent\Ossian - 30 ev legszebb balladai (2016)\15. Ossian - A kuldetes.wav
Peak level 96.2 %
Extraction speed 8.8 X
Track quality 100.0 %
Test CRC B0C9ED03
Copy CRC B0C9ED03
Accurately ripped (confidence 1) [2D130F22] (AR v2)
Copy OK
Track 16
Filename D:\Torrent\Ossian - 30 ev legszebb balladai (2016)\16. Ossian - Asszony feketeben.wav
Peak level 97.7 %
Extraction speed 7.9 X
Track quality 99.9 %
Test CRC 9737F2EA
Copy CRC 9737F2EA
Accurately ripped (confidence 1) [07140D4D] (AR v2)
Copy OK
Track 17
Filename D:\Torrent\Ossian - 30 ev legszebb balladai (2016)\17. Ossian - Visszajovok.wav
Peak level 96.4 %
Extraction speed 9.2 X
Track quality 100.0 %
Test CRC 249DB37B
Copy CRC 249DB37B
Accurately ripped (confidence 1) [7554A0F4] (AR v2)
Copy OK
Track 18
Filename D:\Torrent\Ossian - 30 ev legszebb balladai (2016)\18. Ossian - Almod legyen.wav
Peak level 97.5 %
Extraction speed 8.5 X
Track quality 100.0 %
Test CRC E4511760
Copy CRC E4511760
Accurately ripped (confidence 1) [C1D06512] (AR v2)
Copy OK
Track 19
Filename D:\Torrent\Ossian - 30 ev legszebb balladai (2016)\19. Ossian - Csendesen.wav
Peak level 96.9 %
Extraction speed 9.3 X
Track quality 100.0 %
Test CRC 7FA844C7
Copy CRC 7FA844C7
Accurately ripped (confidence 1) [390418FD] (AR v2)
Copy OK
All tracks accurately ripped
No errors occurred
End of status report
---- CUETools DB Plugin V2.1.6
[CTDB TOCID: c64ZQQhQIl57mfX.cvpvgaJvC7M-] found
Submit result: already submitted
Track | CTDB Status
1 | (5/5) Accurately ripped
2 | (5/5) Accurately ripped
3 | (5/5) Accurately ripped
4 | (5/5) Accurately ripped
5 | (5/5) Accurately ripped
6 | (5/5) Accurately ripped
7 | (5/5) Accurately ripped
8 | (5/5) Accurately ripped
9 | (5/5) Accurately ripped
10 | (5/5) Accurately ripped
11 | (5/5) Accurately ripped
12 | (5/5) Accurately ripped
13 | (5/5) Accurately ripped
14 | (5/5) Accurately ripped
15 | (5/5) Accurately ripped
16 | (5/5) Accurately ripped
17 | (5/5) Accurately ripped
18 | (5/5) Accurately ripped
19 | (5/5) Accurately ripped
==== Log checksum 9686D4B4F0469067361EE5D2B584F346BE1B871B29FDDA2F4E9D6E29CBB1313F ====
Доп. информация: Artwork

To download the file disable ad blocking, and reload the page.

disable adblock How to disable ad blocking?

Download by magnet link 652 MB Download Torrent

Login using:

Similar topics

(Heavy Metal, Groove Metal) Blaxem - Who Cares - 2017, MP3, 320 kbps
 86 MB   0 | 0   26-May-17 18:27   0
(Heavy Metal/Progressive) Wine Guardian - Onirica - 2017, MP3, 320 kbps
 115 MB   0 | 0   26-May-17 18:27   0
(Blackened Heavy Metal) Ophicvs - Machine Gun Reaper - 2017, MP3, 320 kbps
 109 MB   0 | 0   26-May-17 18:27   0
(Heavy Metal) Cremator - The Coming Of War - 2017, MP3, 320 kbps
 114 MB   0 | 0   26-May-17 18:27   0


   
Current time is: 16-Oct 07:29 :: All times are UTC ± 0