Ruthless / Discipline Of Steel / Metal Without Mercy (EP)
Жанр: Heavy / Power Metal
Носитель: CD
Страна-производитель диска (релиза): Франция
Год издания: 1997
Издатель (лейбл): Axe Killer Records
Номер по каталогу: 3023332
Страна исполнителя (группы): США
Аудиокодек: FLAC (*.flac)
Тип рипа: image+.cue
Битрейт аудио: lossless
Продолжительность: 01:07:03
Источник (релизер): abbath2008
Наличие сканов в содержимом раздачи: front + back
Треклист:
Discipline of Steel (1986)
1 Discipline Of Steel
2 Ancient Warrior
3 Know No Evil
4 Look Out
5 Sign Of The Cross
6 Another Day In Hell
7 Raiders Of The Night
8 Hardcore
9 Run For Your Life
10 The Message
Metal Without Mercy (EP)(1984)
11 Gates Of Hell
12 Metal Without Mercy
13 Bury The Axe
14 The Fever
15 Mass Killer

Лог создания рипа

Exact Audio Copy V0.99 prebeta 4 from 23. January 2008
EAC extraction logfile from 4. August 2009, 16:59
Ruthless / Discipline Of Steel
Used drive : PIONEER DVD-RW DVR-106D Adapter: 1 ID: 1
Read mode : Secure
Utilize accurate stream : Yes
Defeat audio cache : Yes
Make use of C2 pointers : No
Read offset correction : 48
Overread into Lead-In and Lead-Out : No
Fill up missing offset samples with silence : Yes
Delete leading and trailing silent blocks : No
Null samples used in CRC calculations : Yes
Used interface : Installed external ASPI interface
Used output format : User Defined Encoder
Selected bitrate : 32 kBit/s
Quality : High
Add ID3 tag : No
Command line compressor : C:\Program Files\Exact Audio Copy\Flac\flac.exe
Additional command line options : -6 -V %s
TOC of the extracted CD
Track | Start | Length | Start sector | End sector
---------------------------------------------------------
1 | 0:00.32 | 4:03.40 | 32 | 18296
2 | 4:03.72 | 4:02.28 | 18297 | 36474
3 | 8:06.25 | 4:14.00 | 36475 | 55524
4 | 12:20.25 | 3:15.32 | 55525 | 70181
5 | 15:35.57 | 5:29.65 | 70182 | 94921
6 | 21:05.47 | 2:29.10 | 94922 | 106106
7 | 23:34.57 | 5:12.48 | 106107 | 129554
8 | 28:47.30 | 6:13.15 | 129555 | 157544
9 | 35:00.45 | 2:57.57 | 157545 | 170876
10 | 37:58.27 | 6:08.15 | 170877 | 198491
11 | 44:06.42 | 4:16.40 | 198492 | 217731
12 | 48:23.07 | 4:47.18 | 217732 | 239274
13 | 53:10.25 | 4:20.50 | 239275 | 258824
14 | 57:31.00 | 3:36.25 | 258825 | 275049
15 | 61:07.25 | 5:55.65 | 275050 | 301739
Range status and errors
Selected range
Filename L:\metalmadness\Ruthless - Discipline Of Steel.wav
Peak level 100.0 %
Range quality 100.0 %
Copy CRC BC0CA1FB
Copy OK
No errors occurred
AccurateRip summary
Track 1 not present in database
Track 2 not present in database
Track 3 not present in database
Track 4 not present in database
Track 5 not present in database
Track 6 not present in database
Track 7 not present in database
Track 8 not present in database
Track 9 not present in database
Track 10 not present in database
Track 11 not present in database
Track 12 not present in database
Track 13 not present in database
Track 14 not present in database
Track 15 not present in database
None of the tracks are present in the AccurateRip database
End of status report

Об альбоме (сборнике)

Переиздание на 1 диске полноформатника и ЕР отличной (и недавно возродившейся) американской команды. Ltd 2000.

To download the file disable ad blocking, and reload the page.

disable adblock How to disable ad blocking?

Download by magnet link 485 MB Download Torrent

Login using:

Загрузка...

Similar topics

(Heavy/Power Metal) Headon - Cicatrices - 2018, MP3, 320 kbps
 106 MB   0 | 0   30-Nov-18 22:00   5
(Heavy | Power Metal) Scorcher - Systems of Time - 2018, MP3, 320 kbps
 114 MB   0 | 0   30-Nov-18 18:50   0


   
Current time is: 16-Dec 14:14 :: All times are UTC + 3