Жанр: Power Metal || Носитель: CD || Год издания: 2001 - 2008
Аудиокодек: FLAC (*.flac)&WavPack (*.wv) || Тип рипа: image+.cue || Битрейт аудио: lossless
Страна исполнителя (группы): Mexico || Наличие сканов в содержимом раздачи: да

2001 - Guerreros clandestinos ; 01:00:18

Издатель (лейбл): Discos y Cintas Denver
Номер по каталогу: CD-DSD-6190
Страна-производитель диска (релиза): Mexico
Аудиокодек: FLAC (*.flac)
Источник (релизер): overkiller ( спасибо )
Треклист:
1. Guerreros Clandestinos 04:44
2. El Aprendiz 05:42
3. Lluvia Acida 03:44
4. Lo Que Mas Duele 04:30
5. Manipuladores de la Fe 05:16
6. Justine 03:10
7. Marcando Territorio 03:13
8. Gladiador 05:06
9. M�rtires 03:35
10. Psic�patas 05:54
11. Madame Desgranges 05:20
12. Equidad 05:24
13. Debajo de los Cielos P�rpura (bonus track) 04:34

Лог создания рипа

Exact Audio Copy V0.99 prebeta 5 from 4. May 2009
EAC extraction logfile from 4. November 2010, 22:53
IRA / Guerreros Clandestinos
Used drive : TSSTcorpCDDVDW SH-S203D Adapter: 1 ID: 1
Read mode : Secure
Utilize accurate stream : Yes
Defeat audio cache : Yes
Make use of C2 pointers : No
Read offset correction : 6
Overread into Lead-In and Lead-Out : No
Fill up missing offset samples with silence : Yes
Delete leading and trailing silent blocks : No
Null samples used in CRC calculations : Yes
Used interface : Native Win32 interface for Win NT & 2000
Used output format : Internal WAV Routines
Sample format : 44.100 Hz; 16 Bit; Stereo
TOC of the extracted CD
Track | Start | Length | Start sector | End sector
---------------------------------------------------------
1 | 0:00.00 | 4:44.70 | 0 | 21369
2 | 4:44.70 | 5:42.45 | 21370 | 47064
3 | 10:27.40 | 3:44.18 | 47065 | 63882
4 | 14:11.58 | 4:30.36 | 63883 | 84168
5 | 18:42.19 | 5:16.60 | 84169 | 107928
6 | 23:59.04 | 3:10.12 | 107929 | 122190
7 | 27:09.16 | 3:13.09 | 122191 | 136674
8 | 30:22.25 | 5:06.12 | 136675 | 159636
9 | 35:28.37 | 3:35.59 | 159637 | 175820
10 | 39:04.21 | 5:54.33 | 175821 | 202403
11 | 44:58.54 | 5:20.25 | 202404 | 226428
12 | 50:19.04 | 5:24.13 | 226429 | 250741
13 | 55:43.17 | 4:34.58 | 250742 | 271349
Range status and errors
Selected range
Filename D:\На телефон\НОВОЕ\IRA - Guerreros Clandestinos.wav
Peak level 100.0 %
Range quality 100.0 %
Copy CRC C7CAA4FF
Copy OK
No errors occurred
AccurateRip summary
Track 1 not present in database
Track 2 not present in database
Track 3 not present in database
Track 4 not present in database
Track 5 not present in database
Track 6 not present in database
Track 7 not present in database
Track 8 not present in database
Track 9 not present in database
Track 10 not present in database
Track 11 not present in database
Track 12 not present in database
Track 13 not present in database
None of the tracks are present in the AccurateRip database
End of status report

Состав

Adán Moreno Bass, Vocals, Keyboards
Iván Moreno Guitars, Vocals
Lupe Ortiz Drums
Erik Pizaña Guitars

2004 - Gesta heroica ; 00:38:45

Издатель (лейбл): Pizmor Records
Номер по каталогу: [N/A]
Страна-производитель диска (релиза): Finland
Аудиокодек: WavPack (*.wv)
Источник (релизер): FireSnake ( спасибо )
Треклист:
01. Gesta Heroica (02:14)
02. Soldados Del Destino (03:26)
03. Constructores Del Final (04:35)
04. Los Dias Que Vienen (04:36)
05. Guerra Por La Paz (04:36)
06. Ad Honores (04:44)
07. Fin De Eras (04:30)
08. Luz Y Esperanza (02:17)
09. Tierra Inhospita (03:28)
10. Hasta La Victoria (04:14)

Лог создания рипа

Exact Audio Copy V0.99 prebeta 5 from 4. May 2009
EAC extraction logfile from 17. October 2011, 0:39
Ira / Gesta Heroica
Used drive : Optiarc DVD RW AD-7260S Adapter: 3 ID: 0
Read mode : Secure
Utilize accurate stream : Yes
Defeat audio cache : Yes
Make use of C2 pointers : No
Read offset correction : 48
Overread into Lead-In and Lead-Out : No
Fill up missing offset samples with silence : Yes
Delete leading and trailing silent blocks : No
Null samples used in CRC calculations : Yes
Used interface : Installed external ASPI interface
Used output format : User Defined Encoder
Selected bitrate : 1024 kBit/s
Quality : High
Add ID3 tag : No
Command line compressor : D:\Program Files\Exact Audio Copy\WavPack\wavpack.exe
Additional command line options : -hhx6 -w "Artist=%a" -w "Album=%g" -w "Year=%y" -w "Genre=%m" -w "Cuesheet=@*.cue" %s %d
TOC of the extracted CD
Track | Start | Length | Start sector | End sector
---------------------------------------------------------
1 | 0:00.00 | 2:14.63 | 0 | 10112
2 | 2:14.63 | 3:26.06 | 10113 | 25568
3 | 5:40.69 | 4:35.68 | 25569 | 46261
4 | 10:16.62 | 4:36.02 | 46262 | 66963
5 | 14:52.64 | 4:36.41 | 66964 | 87704
6 | 19:29.30 | 4:44.26 | 87705 | 109030
7 | 24:13.56 | 4:30.08 | 109031 | 129288
8 | 28:43.64 | 2:17.02 | 129289 | 139565
9 | 31:00.66 | 3:28.59 | 139566 | 155224
10 | 34:29.50 | 4:14.64 | 155225 | 174338
Range status and errors
Selected range
Filename H:\IRA [2004] [CD] Gesta Heroica [EAC-WV]\Ira - Gesta Heroica.wav
Peak level 97.7 %
Range quality 100.0 %
Test CRC BDE571C1
Copy CRC BDE571C1
Copy OK
No errors occurred
AccurateRip summary
Track 1 not present in database
Track 2 not present in database
Track 3 not present in database
Track 4 not present in database
Track 5 not present in database
Track 6 not present in database
Track 7 not present in database
Track 8 not present in database
Track 9 not present in database
Track 10 not present in database
None of the tracks are present in the AccurateRip database
End of status report

Состав

Adán Moreno Bass, Vocals
Iván Moreno Guitars, Vocals
Erik Pizana Guitars
Alan Pizana Drums

2004 - Gesta heroica (Reissued-2007) ; 00:38:45

Издатель (лейбл): Discos y Cintas Denver
Номер по каталогу: CD-DSD-6459
Страна-производитель диска (релиза): Mexico
Аудиокодек: FLAC (*.flac)
Источник (релизер): Psicosis ( спасибо )
Треклист:
01. Gesta Heróica (Instrumental)
02. Soldados Del Destino
03. Constructores Del Final
04. Los Días Que Vienen
05. Guerra Por La Paz
06. Ad Honores
07. Fin De Eras
08. Luz Y Esperanza (Instrumental)
09. Tierra Inhóspita
10. Hasta La Victoria

Лог создания рипа

Exact Audio Copy V1.0 beta 3 from 29. August 2011
EAC extraction logfile from 6. June 2013, 18:51
Ira / Gesta Heróica
Used drive : HL-DT-STDVD-RAM GH22LS30 Adapter: 1 ID: 1
Read mode : Secure
Utilize accurate stream : Yes
Defeat audio cache : Yes
Make use of C2 pointers : No
Read offset correction : 102
Overread into Lead-In and Lead-Out : No
Fill up missing offset samples with silence : Yes
Delete leading and trailing silent blocks : No
Null samples used in CRC calculations : Yes
Used interface : Native Win32 interface for Win NT & 2000
Used output format : User Defined Encoder
Selected bitrate : 128 kBit/s
Quality : High
Add ID3 tag : No
Command line compressor : C:\Program Files (x86)\FLAC\flac.exe
Additional command line options : -6 -V %source%
TOC of the extracted CD
Track | Start | Length | Start sector | End sector
---------------------------------------------------------
1 | 0:00.00 | 2:14.63 | 0 | 10112
2 | 2:14.63 | 3:26.06 | 10113 | 25568
3 | 5:40.69 | 4:35.68 | 25569 | 46261
4 | 10:16.62 | 4:36.02 | 46262 | 66963
5 | 14:52.64 | 4:36.41 | 66964 | 87704
6 | 19:29.30 | 4:44.26 | 87705 | 109030
7 | 24:13.56 | 4:30.08 | 109031 | 129288
8 | 28:43.64 | 2:17.02 | 129289 | 139565
9 | 31:00.66 | 3:28.59 | 139566 | 155224
10 | 34:29.50 | 4:14.64 | 155225 | 174338
Range status and errors
Selected range
Filename E:\Ira - Gesta Heróica.wav
Peak level 97.7 %
Extraction speed 2.4 X
Range quality 100.0 %
Test CRC 42FB5A7B
Copy CRC 42FB5A7B
Copy OK
No errors occurred
AccurateRip summary
Track 1 not present in database
Track 2 not present in database
Track 3 not present in database
Track 4 not present in database
Track 5 not present in database
Track 6 not present in database
Track 7 not present in database
Track 8 not present in database
Track 9 not present in database
Track 10 not present in database
None of the tracks are present in the AccurateRip database
End of status report
==== Log checksum 477100DE72F2AD9E3AAFFBB5FF2D7E5DA9BEF2245ABC4B35FF342690E2F7F29A ====

2008 - Gloria eterna ; 00:57:17

Издатель (лейбл): Discos y Cintas Denver
Номер по каталогу: CD-DSD-6474
Страна-производитель диска (релиза): Mexico
Аудиокодек: FLAC (*.flac)
Источник (релизер): Psicosis ( спасибо )
Треклист:
01. Recursus Ab Aeterno
02. Gloria Eterna
03. Días De Ira
04. Ignominia
05. Senderos (con Marcela Bovio)
06. ...Y Renacer
07. El Intangible
08. Bajo El Sol Marchito
09. Expeliendo De Mí
10. De Sphaera Mundi (In María)
11. Historial Del Dolor
12. Odio (La Haine)
13. Marshal Lockjaw (con Paul Di'Anno)

Лог создания рипа

Exact Audio Copy V1.0 beta 3 from 29. August 2011
EAC extraction logfile from 28. June 2013, 13:58
Ira / Gloria Eterna
Used drive : HL-DT-STDVD-RAM GH22LS30 Adapter: 1 ID: 1
Read mode : Secure
Utilize accurate stream : Yes
Defeat audio cache : Yes
Make use of C2 pointers : No
Read offset correction : 102
Overread into Lead-In and Lead-Out : No
Fill up missing offset samples with silence : Yes
Delete leading and trailing silent blocks : No
Null samples used in CRC calculations : Yes
Used interface : Native Win32 interface for Win NT & 2000
Used output format : User Defined Encoder
Selected bitrate : 128 kBit/s
Quality : High
Add ID3 tag : No
Command line compressor : C:\Program Files (x86)\FLAC\flac.exe
Additional command line options : -6 -V %source%
TOC of the extracted CD
Track | Start | Length | Start sector | End sector
---------------------------------------------------------
1 | 0:00.00 | 1:45.03 | 0 | 7877
2 | 1:45.03 | 4:57.18 | 7878 | 30170
3 | 6:42.21 | 5:22.22 | 30171 | 54342
4 | 12:04.43 | 4:00.21 | 54343 | 72363
5 | 16:04.64 | 5:50.63 | 72364 | 98676
6 | 21:55.52 | 3:22.32 | 98677 | 113858
7 | 25:18.09 | 4:26.36 | 113859 | 133844
8 | 29:44.45 | 4:27.42 | 133845 | 153911
9 | 34:12.12 | 5:18.03 | 153912 | 177764
10 | 39:30.15 | 4:22.03 | 177765 | 197417
11 | 43:52.18 | 3:12.67 | 197418 | 211884
12 | 47:05.10 | 5:51.50 | 211885 | 238259
13 | 52:56.60 | 4:20.42 | 238260 | 257801
Range status and errors
Selected range
Filename E:\Ira - Gloria Eterna.wav
Peak level 100.0 %
Extraction speed 2.7 X
Range quality 100.0 %
Test CRC 152624E9
Copy CRC 152624E9
Copy OK
No errors occurred
AccurateRip summary
Track 1 not present in database
Track 2 not present in database
Track 3 not present in database
Track 4 not present in database
Track 5 not present in database
Track 6 not present in database
Track 7 not present in database
Track 8 not present in database
Track 9 not present in database
Track 10 not present in database
Track 11 not present in database
Track 12 not present in database
Track 13 not present in database
None of the tracks are present in the AccurateRip database
End of status report
==== Log checksum 841DD02212AD675BB3E7563850C11A4730A9D74CF8BA1B8BEEC177B4CAAD7662 ====

Состав

Adán Moreno Bass, Vocals
Rolando Cruz Guitars (lead)
Iván Moreno Guitars, Vocals (lead)
Francisco Elósegui Drums

To download the file disable ad blocking, and reload the page.

disable adblock How to disable ad blocking?

Download by magnet link 1.43 GB Download Torrent

Login using:

Similar topics



   
Current time is: 16-Oct 08:08 :: All times are UTC ± 0