Sacred Steel / Carnage Victory
Жанр: Heavy Metal
Носитель: CD
Страна-производитель диска (релиза): Russia
Год издания: 2009
Издатель (лейбл): Irond
Номер по каталогу: IROND CD 09-1759
Страна исполнителя (группы): Germany,Ludwigsburg, Baden-Württemberg
Аудиокодек: FLAC (*.flac)
Тип рипа: image+.cue
Битрейт аудио: lossless
Продолжительность: 00:51:31
Источник (релизер): sking019
Наличие сканов в содержимом раздачи: да
Треклист:
1 Charge Into Overkill
2 Don't Break The Oath
3 Carnage Victory
4 Broken Rites
5 Crosses Stained With Blood
6 Ceremonial Magician Of The Left Hand Path
7 The Skeleton Key
8 Shadows Of Reprisal
9 Denial Of Judas (Heaven Betrayed)
10 Metal Underground
11 By Vengeance And Hatred We Ride

Лог создания рипа

Exact Audio Copy V1.1 from 23. June 2015
Отчёт EAC об извлечении, выполненном 23. августа 2015, 23:56
Sacred Steel / Carnage Victory
Дисковод: HL-DT-STDVD-RAM GH22NP20 Adapter: 1 ID: 0
Режим чтения : Достоверность
Использование точного потока : Да
Отключение кэша аудио : Да
Использование указателей C2 : Нет
Коррекция смещения при чтении : 102
Способность читать области Lead-in и Lead-out : Нет
Заполнение пропущенных сэмплов тишиной : Да
Удаление блоков с тишиной в начале и конце : Нет
При вычислениях CRC использовались нулевые сэмплы : Да
Интерфейс : Встроенный Win32-интерфейс для Win NT/2000
Выходной формат : Пользовательский кодировщик
Выбранный битрейт : 896 kBit/s
Качество : Высокий
Добавление ID3-тега : Да
Утилита сжатия : C:\Program Files\FLAC\FLAC frontend.exe
Дополнительные параметры : -V -8 -T "Date=%year%" -T "Genre=%genre%" %source%
TOC извлечённого CD
Трек | Старт | Длительность | Начальный сектор | Конечный сектор
---------------------------------------------------------------------
1 | 0:00.00 | 3:46.59 | 0 | 17008
2 | 3:46.59 | 3:48.25 | 17009 | 34133
3 | 7:35.09 | 5:56.18 | 34134 | 60851
4 | 13:31.27 | 5:46.61 | 60852 | 86862
5 | 19:18.13 | 4:57.07 | 86863 | 109144
6 | 24:15.20 | 5:04.54 | 109145 | 131998
7 | 29:19.74 | 5:34.22 | 131999 | 157070
8 | 34:54.21 | 1:33.44 | 157071 | 164089
9 | 36:27.65 | 5:24.62 | 164090 | 188451
10 | 41:52.52 | 4:22.61 | 188452 | 208162
11 | 46:15.38 | 5:16.29 | 208163 | 231891
Характеристики диапазона извлечения и сообщения об ошибках
Выбранный диапазон
Имя файла F:\ВСЕ ЗАГРУЗКИ\sking\Sacred Steel - Carnage Victory (2009)\Sacred Steel - Carnage Victory.wav
Пиковый уровень 98.3 %
Скорость извлечения 2.0 X
Качество диапазона 99.9 %
CRC теста 48E29334
CRC копии 48E29334
Копирование... OK
Ошибок не произошло
AccurateRip: сводка
Трек 1 точность не определена (достоверность 3) [01BECDBA], AccurateRip вернул [902D18D5] (AR v2)
Трек 2 точность не определена (достоверность 3) [D56E86DE], AccurateRip вернул [03F7346D] (AR v2)
Трек 3 точность не определена (достоверность 3) [3EC09762], AccurateRip вернул [07E678E8] (AR v2)
Трек 4 точность не определена (достоверность 3) [0C36DBBE], AccurateRip вернул [DD5419C7] (AR v2)
Трек 5 точность не определена (достоверность 3) [30E06DE7], AccurateRip вернул [86F18ACB] (AR v2)
Трек 6 точность не определена (достоверность 3) [0A98B839], AccurateRip вернул [6505245F] (AR v2)
Трек 7 точность не определена (достоверность 3) [02041FA8], AccurateRip вернул [9413D242] (AR v2)
Трек 8 точность не определена (достоверность 3) [7036E920], AccurateRip вернул [E28BF9F3] (AR v2)
Трек 9 точность не определена (достоверность 3) [C988856E], AccurateRip вернул [06EED717] (AR v2)
Трек 10 точность не определена (достоверность 3) [EB428D11], AccurateRip вернул [71ECE1A6] (AR v2)
Трек 11 точность не определена (достоверность 3) [4EF876C4], AccurateRip вернул [5AE6E56D] (AR v2)
Ни один трек не прошёл проверки на точность
В вашей базе может быть иной вариант штамповки диска
Конец отчёта
---- CUETools DB Plugin V2.1.6
[CTDB TOCID: SzOLsv2VM18v6ljvrhHlfZTDT0I-] found
Submit result: SzOLsv2VM18v6ljvrhHlfZTDT0I- has been confirmed
Track | CTDB Status
1 | (3/3) Accurately ripped
2 | (3/3) Accurately ripped
3 | (3/3) Accurately ripped
4 | (3/3) Accurately ripped
5 | (3/3) Accurately ripped
6 | (3/3) Accurately ripped
7 | (3/3) Accurately ripped
8 | (3/3) Accurately ripped
9 | (3/3) Accurately ripped
10 | (3/3) Accurately ripped
11 | (3/3) Accurately ripped
==== Контрольная сумма отчёта 5C8B765FC78546A5E445C476C31CC158AD1100E5D5E4E779DE3887C956660584 ====

Содержание индексной карты (.CUE)

REM GENRE "Heavy Metal"
REM DATE 2009
REM DISCID 9A0C130B
REM COMMENT "ExactAudioCopy v1.1"
PERFORMER "Sacred Steel"
TITLE "Carnage Victory"
FILE "Sacred Steel - Carnage Victory.flac" WAVE
TRACK 01 AUDIO
TITLE "Charge Into Overkill"
PERFORMER "Sacred Steel"
INDEX 01 00:00:00
TRACK 02 AUDIO
TITLE "DONґT BREAK THE OATH"
PERFORMER "Sacred Steel"
INDEX 00 03:45:49
INDEX 01 03:46:59
TRACK 03 AUDIO
TITLE "Carnage Victory"
PERFORMER "Sacred Steel"
INDEX 00 07:34:68
INDEX 01 07:35:09
TRACK 04 AUDIO
TITLE "Broken Rites"
PERFORMER "Sacred Steel"
INDEX 00 13:30:51
INDEX 01 13:31:27
TRACK 05 AUDIO
TITLE "Crosses Stained With Blood"
PERFORMER "Sacred Steel"
INDEX 00 19:17:39
INDEX 01 19:18:13
TRACK 06 AUDIO
TITLE "Ceremonial Magican Of The Left Hand Path"
PERFORMER "Sacred Steel"
INDEX 00 24:13:74
INDEX 01 24:15:20
TRACK 07 AUDIO
TITLE "The Skeleton Key"
PERFORMER "Sacred Steel"
INDEX 00 29:19:50
INDEX 01 29:19:74
TRACK 08 AUDIO
TITLE "Shadows Of Reprisal"
PERFORMER "Sacred Steel"
INDEX 00 34:53:62
INDEX 01 34:54:21
TRACK 09 AUDIO
TITLE "Denial Of Judas"
PERFORMER "Sacred Steel"
INDEX 01 36:27:65
TRACK 10 AUDIO
TITLE "Metal Underground"
PERFORMER "Sacred Steel"
INDEX 00 41:51:48
INDEX 01 41:52:52
TRACK 11 AUDIO
TITLE "By Venegance And Hatred"
PERFORMER "Sacred Steel"
INDEX 00 46:14:59
INDEX 01 46:15:38

Об исполнителе (группе)

http://www.metal-archives.com/bands/Sacred_Steel/153

Состав


Gerrit P. Mutz - Vocals
Mathias Straub - Drums
Kai Schindelar - Bass
Jonas Khalil - Guitars
Jens Sonnenberg - Guitars

To download the file disable ad blocking, and reload the page.

disable adblock How to disable ad blocking?

Download by magnet link 421 MB Download Torrent

Login using:

Similar topics

(Heavy Metal, Groove Metal) Blaxem - Who Cares - 2017, MP3, 320 kbps
 86 MB   0 | 0   26-May-17 18:27   0
(Heavy Metal/Progressive) Wine Guardian - Onirica - 2017, MP3, 320 kbps
 115 MB   0 | 0   26-May-17 18:27   0
(Blackened Heavy Metal) Ophicvs - Machine Gun Reaper - 2017, MP3, 320 kbps
 109 MB   0 | 0   26-May-17 18:27   0
(Heavy Metal) Cremator - The Coming Of War - 2017, MP3, 320 kbps
 114 MB   0 | 0   26-May-17 18:27   0


   
Current time is: 16-Oct 08:51 :: All times are UTC ± 0