Iron Fire / Among The Dead
Жанр: Power Metal, Heavy Metal
Носитель: CD
Страна-производитель диска (релиза): Denmark
Год издания: 2016
Издатель (лейбл): Crime Records (14.0004)
Страна исполнителя (группы): Denmark (Copenhagen)
Аудиокодек: FLAC (*.flac)
Тип рипа: image+.cue
Битрейт аудио: lossless
Продолжительность: 45:54
Источник (релизер): Kantor1975/ Его CD и рип.
Наличие сканов в содержимом раздачи: минимум: Front, mini-Back, band
Треклист:
1 Intro (The Lost City) 1:16
2 Among The Dead 4:11
3 Hammer Of The Gods 3:53
4 Tornado Of Sickness 4:04
5 Higher Ground 3:45
6 Iron Eagle 3:44
7 Made To Suffer 4:11
8 The Last Survivor 3:29
9 No Sign Of Life 3:32
10 Ghost From The Past 4:19
11 When The Lights Go Out 4:26
12 For Whom The Bell Tolls (Metallica cover) 5:00

Лог создания рипа

Exact Audio Copy V1.3 from 2. September 2016
Отчёт EAC об извлечении, выполненном 23. апреля 2017, 9:47
Iron Fire / Among The Dead
Дисковод: ASUS DRW-2014S1T Adapter: 2 ID: 1
Режим чтения : Достоверность
Использование точного потока : Да
Отключение кэша аудио : Да
Использование указателей C2 : Нет
Коррекция смещения при чтении : 6
Способность читать области Lead-in и Lead-out : Нет
Заполнение пропущенных сэмплов тишиной : Да
Удаление блоков с тишиной в начале и конце : Нет
При вычислениях CRC использовались нулевые сэмплы : Да
Интерфейс : Установленный внешний ASPI-интерфейс
Выходной формат : Пользовательский кодировщик
Выбранный битрейт : 128 kBit/s
Качество : Высокий
Добавление ID3-тега : Нет
Утилита сжатия : C:\Program Files\Exact Audio Copy\Flac\flac.exe
Дополнительные параметры : -V -8 -T "Date=%year%" -T "Genre=%genre%" %source%
TOC извлечённого CD
Трек | Старт | Длительность | Начальный сектор | Конечный сектор
---------------------------------------------------------------------
1 | 0:00.00 | 1:16.34 | 0 | 5733
2 | 1:16.34 | 4:11.13 | 5734 | 24571
3 | 5:27.47 | 3:53.26 | 24572 | 42072
4 | 9:20.73 | 4:04.32 | 42073 | 60404
5 | 13:25.30 | 3:45.66 | 60405 | 77345
6 | 17:11.21 | 3:44.10 | 77346 | 94155
7 | 20:55.31 | 4:11.37 | 94156 | 113017
8 | 25:06.68 | 3:29.10 | 113018 | 128702
9 | 28:36.03 | 3:32.19 | 128703 | 144621
10 | 32:08.22 | 4:19.07 | 144622 | 164053
11 | 36:27.29 | 4:26.03 | 164054 | 184006
12 | 40:53.32 | 5:00.40 | 184007 | 206546
Характеристики диапазона извлечения и сообщения об ошибках
Выбранный диапазон
Имя файла D:\Iron Fire - Among The Dead.wav
Пиковый уровень 100.0 %
Скорость извлечения 8.0 X
Качество диапазона 99.9 %
CRC теста 1FD82861
CRC копии 1FD82861
Копирование... OK
Ошибок не произошло
AccurateRip: сводка
Трек 1 : извлечено точно (доверие 2) [36BCA684] (AR v2)
Трек 2 : извлечено точно (доверие 2) [2E348203] (AR v2)
Трек 3 : извлечено точно (доверие 2) [896DCA0A] (AR v2)
Трек 4 : извлечено точно (доверие 2) [A60EFE46] (AR v2)
Трек 5 : извлечено точно (доверие 2) [1F12CD46] (AR v2)
Трек 6 : извлечено точно (доверие 2) [5838FE96] (AR v2)
Трек 7 : извлечено точно (доверие 2) [5FB35820] (AR v2)
Трек 8 : извлечено точно (доверие 2) [1984DE3B] (AR v2)
Трек 9 : извлечено точно (доверие 2) [F30B6A16] (AR v2)
Трек 10 : извлечено точно (доверие 2) [272369A5] (AR v2)
Трек 11 : извлечено точно (доверие 2) [BD3B56DF] (AR v2)
Трек 12 : извлечено точно (доверие 2) [635C201B] (AR v2)
Все треки извлечены точно
Конец отчёта
---- CUETools DB Plugin V2.1.6
[CTDB TOCID: HP7hhSUWUBHoLAgu9Icjjr7Jdik-] found
Submit result: HP7hhSUWUBHoLAgu9Icjjr7Jdik- has been confirmed
Track | CTDB Status
1 | (3/3) Accurately ripped
2 | (3/3) Accurately ripped
3 | (3/3) Accurately ripped
4 | (3/3) Accurately ripped
5 | (3/3) Accurately ripped
6 | (3/3) Accurately ripped
7 | (3/3) Accurately ripped
8 | (3/3) Accurately ripped
9 | (3/3) Accurately ripped
10 | (3/3) Accurately ripped
11 | (3/3) Accurately ripped
12 | (3/3) Accurately ripped
==== Контрольная сумма отчёта D5BC558BC1AD8B1818AAB044C5ECB609D07C3DBC58CDCB88D71032DF02A48ECA ====

Лог проверки качества

AUDIOCHECKER v2.0 beta (build 457) - by Dester - opdester@freemail.hu
~~~~~~~~~~~~~~~~~~~~~~~~~~~~~~~~~~
-=== НЕ РЕДАКТИРУЙТЕ ЭТОТ ФАЙЛ! ===-
Путь: ...\Iron Fire - Among The Dead
1 -=- Iron Fire - Among The Dead.flac -=- CDDA (100%)
57085156
Доп. информация: Это совершенно не моё направление, но выкладываю по просьбе камрада.
(Heavy/Power Metal) [CD] Iron Fire - Дискография (Full Length): 2000-2012, FLAC (image+.cue), lossless

To download the file disable ad blocking, and reload the page.

disable adblock How to disable ad blocking?

Download by magnet link 333 MB Download Torrent

Login using:

Загрузка...

Similar topics

(Heavy/Power Metal) Headon - Cicatrices - 2018, MP3, 320 kbps
 106 MB   0 | 0   30-Nov-18 22:00   5
(Heavy | Power Metal) Scorcher - Systems of Time - 2018, MP3, 320 kbps
 114 MB   0 | 0   30-Nov-18 18:50   0


   
Current time is: 16-Dec 13:03 :: All times are UTC + 3