Pyramaze / Дискография (2004-2017) Жанр: Progressive Power Metal
Носитель: CD
Страна-производитель диска (релиза): Япония, Испания, Швеция
Год издания: 2004-2017
Издатель (лейбл): Toshiba-EMI; King Records; Locomotive Records; Inner Wound Recordings
Номер по каталогу: TOCP-67414; KICP 1127; LM637; IW83049; IW83062
Страна исполнителя (группы): Дания
Аудиокодек: FLAC (*.flac)
Тип рипа: image+.cue
Битрейт аудио: lossless
Продолжительность: 04:32:45 (5CD)
Источник (релизер): Собственные CD's
Наличие сканов в содержимом раздачи: да

2004 - Melancholy Beast (Japanese Edition)

01. Sleepy Hollow
02. Forsaken Kingdom
03. Melancholy Beast
04. The Journey
05. Until We Fade Away
06. Legend
07. Mighty Abyss
08. The Nature Of Triumph
09. Power Of Imagination
10. The Wizard (Japanese Bonus Track)
Продолжительность: 00:55:27
Издатель (лейбл): Toshiba-EMI

Лог создания рипа

Exact Audio Copy V1.0 beta 3 from 29. August 2011
Отчёт EAC об извлечении, выполненном 13. января 2017, 16:30
Pyramaze / Melancholy Beast (Japanese Edition)
Дисковод: MATSHITADVD-RAM UJ8B0AW Adapter: 0 ID: 0
Режим чтения : Достоверность
Использование точного потока : Да
Отключение кэша аудио : Да
Использование указателей C2 : Нет
Коррекция смещения при чтении : 102
Способность читать области Lead-in и Lead-out : Нет
Заполнение пропущенных сэмплов тишиной : Да
Удаление блоков с тишиной в начале и конце : Нет
При вычислениях CRC использовались нулевые сэмплы : Да
Интерфейс : Встроенный Win32-интерфейс для Win NT/2000
Выходной формат : Пользовательский кодировщик
Выбранный битрейт : 1024 kBit/s
Качество : Высокий
Добавление ID3-тега : Нет
Утилита сжатия : D:\Exact Audio Copy\Flac\flac.exe
Дополнительные параметры : -V -8 -T "Date=%year%" -T "Genre=%genre%" %source%
TOC извлечённого CD
Трек | Старт | Длительность | Начальный сектор | Конечный сектор
---------------------------------------------------------------------
1 | 0:00.00 | 6:11.55 | 0 | 27879
2 | 6:11.55 | 5:27.65 | 27880 | 52469
3 | 11:39.45 | 6:11.22 | 52470 | 80316
4 | 17:50.67 | 5:47.63 | 80317 | 106404
5 | 23:38.55 | 4:36.05 | 106405 | 127109
6 | 28:14.60 | 7:10.65 | 127110 | 159424
7 | 35:25.50 | 8:03.00 | 159425 | 195649
8 | 43:28.50 | 0:49.70 | 195650 | 199394
9 | 44:18.45 | 6:31.32 | 199395 | 228751
10 | 50:50.02 | 4:38.28 | 228752 | 249629
11 | 58:00.30 | 15:57.45 | 261030 | 332849
Характеристики диапазона извлечения и сообщения об ошибках
Выбранный диапазон
Имя файла D:\1_МУЛЬТИМЕДИА\1_RuTracker.org_SONGATOR\Pyramaze - Дискография (2004-2015) (4CD) FLAC\2004 - Melancholy Beast (Japanese Edition)\Pyramaze - Melancholy Beast (Japanese Edition).wav
Пиковый уровень 100.0 %
Скорость извлечения 2.0 X
Качество диапазона 100.0 %
CRC теста 4EBD0B54
CRC копии 4EBD0B54
Копирование... OK
Ошибок не произошло
AccurateRip: сводка
Трек 1 : извлечено точно (доверие 4) [6FA5CC8A] (AR v2)
Трек 2 : извлечено точно (доверие 4) [0338E838] (AR v2)
Трек 3 : извлечено точно (доверие 4) [757C2745] (AR v2)
Трек 4 : извлечено точно (доверие 4) [06BB0538] (AR v2)
Трек 5 : извлечено точно (доверие 4) [67B85B13] (AR v2)
Трек 6 : извлечено точно (доверие 4) [6B75B154] (AR v2)
Трек 7 : извлечено точно (доверие 4) [A0D9930D] (AR v2)
Трек 8 : извлечено точно (доверие 4) [D13B139A] (AR v2)
Трек 9 : извлечено точно (доверие 4) [E9555FDA] (AR v2)
Трек 10 : извлечено точно (доверие 4) [623CD345] (AR v2)
Все треки извлечены точно
Конец отчёта
==== Контрольная сумма отчёта 46AC1642ACE5E1C92C5E4881E71F7CAC4915293E421D5DD79FE6133F6BE5A6C4 ====

2006 - Legend Of The Bone Carver (Japanese Edition)

01. Era Of Chaos
02. The Birth
03. What Lies Beyond
04. Ancient Words Within
05. Souls In Pain
06. She Who Summoned Me
07. The Bone Carver
08. Bring Back Life
09. Blood Red Skies
10. Tears Of Hate
11. Flame And Retribution (Japanese Bonus Track)
Продолжительность: 00:51:10
Издатель (лейбл): King Records

Лог создания рипа

Exact Audio Copy V1.0 beta 3 from 29. August 2011
Отчёт EAC об извлечении, выполненном 11. января 2017, 20:44
Pyramaze / Legend Of The Bone Carver (Japanese Edition)
Дисковод: MATSHITADVD-RAM UJ8B0AW Adapter: 0 ID: 0
Режим чтения : Достоверность
Использование точного потока : Да
Отключение кэша аудио : Да
Использование указателей C2 : Нет
Коррекция смещения при чтении : 102
Способность читать области Lead-in и Lead-out : Нет
Заполнение пропущенных сэмплов тишиной : Да
Удаление блоков с тишиной в начале и конце : Нет
При вычислениях CRC использовались нулевые сэмплы : Да
Интерфейс : Встроенный Win32-интерфейс для Win NT/2000
Выходной формат : Пользовательский кодировщик
Выбранный битрейт : 1024 kBit/s
Качество : Высокий
Добавление ID3-тега : Нет
Утилита сжатия : D:\Exact Audio Copy\Flac\flac.exe
Дополнительные параметры : -V -8 -T "Date=%year%" -T "Genre=%genre%" %source%
TOC извлечённого CD
Трек | Старт | Длительность | Начальный сектор | Конечный сектор
---------------------------------------------------------------------
1 | 0:00.00 | 1:17.70 | 0 | 5844
2 | 1:17.70 | 5:52.22 | 5845 | 32266
3 | 7:10.17 | 4:26.73 | 32267 | 52289
4 | 11:37.15 | 5:37.17 | 52290 | 77581
5 | 17:14.32 | 5:16.35 | 77582 | 101316
6 | 22:30.67 | 5:53.48 | 101317 | 127839
7 | 28:24.40 | 5:06.10 | 127840 | 150799
8 | 33:30.50 | 4:55.62 | 150800 | 172986
9 | 38:26.37 | 3:30.70 | 172987 | 188806
10 | 41:57.32 | 6:01.68 | 188807 | 215949
11 | 47:59.25 | 3:16.20 | 215950 | 230669
Характеристики диапазона извлечения и сообщения об ошибках
Выбранный диапазон
Имя файла D:\1_МУЛЬТИМЕДИА\1_RuTracker.org_SONGATOR\Pyramaze - Дискография (2004-2015) (4CD) FLAC\2006 - Legend Of The Bone Carver (Japanese Edition)\Pyramaze - Legend Of The Bone Carver (Japanese Edition).wav
Пиковый уровень 97.9 %
Скорость извлечения 1.9 X
Качество диапазона 100.0 %
CRC теста 78617A96
CRC копии 78617A96
Копирование... OK
Ошибок не произошло
AccurateRip: сводка
Трек 1 : извлечено точно (доверие 3) [36D9A4C4] (AR v2)
Трек 2 : извлечено точно (доверие 3) [2CC2441F] (AR v2)
Трек 3 : извлечено точно (доверие 3) [4A1414C7] (AR v2)
Трек 4 : извлечено точно (доверие 3) [AE616EF4] (AR v2)
Трек 5 : извлечено точно (доверие 3) [41E0B199] (AR v2)
Трек 6 : извлечено точно (доверие 3) [609BD69A] (AR v2)
Трек 7 : извлечено точно (доверие 3) [0F8DEF45] (AR v2)
Трек 8 : извлечено точно (доверие 3) [67B6F749] (AR v2)
Трек 9 : извлечено точно (доверие 3) [51E232C8] (AR v2)
Трек 10 : извлечено точно (доверие 3) [17A4E99B] (AR v2)
Трек 11 : извлечено точно (доверие 3) [62EA4485] (AR v2)
Все треки извлечены точно
Конец отчёта
==== Контрольная сумма отчёта 03B26CDB44168E01CAB30531FD429E70578F15E2A55A1EBF58C452E338268D0B ====

2008 - Immortal (Limited Edition)

01. Arise
02. Year Of The Phoenix
03. Ghost Light
04. Touched By The Mara
05. A Beautiful Death
06. Legacy In A Rhyme
07. Caramon's Poem
08. The Highland
09. Shadow Of The Beast
10. March Through An Endless Rain
11. The Birth (Live Bonus Track)
12. What Lies Beyond (Live Bonus Track)
Продолжительность: 00:56:52
Издатель (лейбл): Locomotive Records

Лог создания рипа

Exact Audio Copy V1.0 beta 3 from 29. August 2011
Отчёт EAC об извлечении, выполненном 11. января 2017, 22:03
Pyramaze / Immortal (Limited Edition)
Дисковод: MATSHITADVD-RAM UJ8B0AW Adapter: 0 ID: 0
Режим чтения : Достоверность
Использование точного потока : Да
Отключение кэша аудио : Да
Использование указателей C2 : Нет
Коррекция смещения при чтении : 102
Способность читать области Lead-in и Lead-out : Нет
Заполнение пропущенных сэмплов тишиной : Да
Удаление блоков с тишиной в начале и конце : Нет
При вычислениях CRC использовались нулевые сэмплы : Да
Интерфейс : Встроенный Win32-интерфейс для Win NT/2000
Выходной формат : Пользовательский кодировщик
Выбранный битрейт : 1024 kBit/s
Качество : Высокий
Добавление ID3-тега : Нет
Утилита сжатия : D:\Exact Audio Copy\Flac\flac.exe
Дополнительные параметры : -V -8 -T "Date=%year%" -T "Genre=%genre%" %source%
TOC извлечённого CD
Трек | Старт | Длительность | Начальный сектор | Конечный сектор
---------------------------------------------------------------------
1 | 0:00.00 | 1:04.21 | 0 | 4820
2 | 1:04.21 | 4:56.60 | 4821 | 27080
3 | 6:01.06 | 6:08.42 | 27081 | 54722
4 | 12:09.48 | 5:54.27 | 54723 | 81299
5 | 18:04.00 | 4:28.22 | 81300 | 101421
6 | 22:32.22 | 4:05.17 | 101422 | 119813
7 | 26:37.39 | 4:57.61 | 119814 | 142149
8 | 31:35.25 | 5:40.63 | 142150 | 167712
9 | 37:16.13 | 6:04.20 | 167713 | 195032
10 | 43:20.33 | 2:07.73 | 195033 | 204630
11 | 45:28.31 | 6:41.11 | 204631 | 234716
12 | 52:09.42 | 4:43.72 | 234717 | 256013
Характеристики диапазона извлечения и сообщения об ошибках
Выбранный диапазон
Имя файла D:\1_МУЛЬТИМЕДИА\1_RuTracker.org_SONGATOR\Pyramaze - Дискография (2004-2015) (4CD) FLAC\2008 - Immortal (Limited Edition)\Pyramaze - Immortal (Limited Edition).wav
Пиковый уровень 100.0 %
Скорость извлечения 2.0 X
Качество диапазона 100.0 %
CRC теста F044001D
CRC копии F044001D
Копирование... OK
Ошибок не произошло
AccurateRip: сводка
Трек 1 : извлечено точно (доверие 8) [3942CF9E] (AR v2)
Трек 2 : извлечено точно (доверие 8) [5F84D180] (AR v2)
Трек 3 : извлечено точно (доверие 7) [E4A542E9] (AR v2)
Трек 4 : извлечено точно (доверие 8) [CC48D351] (AR v2)
Трек 5 : извлечено точно (доверие 8) [6CB1F293] (AR v2)
Трек 6 : извлечено точно (доверие 8) [145E95E0] (AR v2)
Трек 7 : извлечено точно (доверие 8) [95399D61] (AR v2)
Трек 8 : извлечено точно (доверие 8) [05FF4EC3] (AR v2)
Трек 9 : извлечено точно (доверие 8) [DDD04564] (AR v2)
Трек 10 : извлечено точно (доверие 8) [2CC96B4D] (AR v2)
Трек 11 : извлечено точно (доверие 8) [33818432] (AR v2)
Трек 12 : извлечено точно (доверие 8) [082E8922] (AR v2)
Все треки извлечены точно
Конец отчёта
==== Контрольная сумма отчёта AFB07F6B1A559B7EF143E64AD7AF028B319227F7D9DAD80FCC7C2D2FCFCBDE06 ====

2015 - Disciples Of The Sun

01. We Are The Ocean
02. The Battle Of Paridas
03. Disciples Of The Sun
04. Back For More
05. Genetic Process
06. Fearless
07. Perfectly Imperfect
08. Unveil
09. Hope Springs Eternal
10. Exposure
11. When Black Turns To White
12. Photograph
Продолжительность: 00:52:25
Издатель (лейбл): Inner Wound Recordings

Лог создания рипа

Exact Audio Copy V1.0 beta 3 from 29. August 2011
Отчёт EAC об извлечении, выполненном 11. января 2017, 23:51
Pyramaze / Disciples Of The Sun
Дисковод: MATSHITADVD-RAM UJ8B0AW Adapter: 0 ID: 0
Режим чтения : Достоверность
Использование точного потока : Да
Отключение кэша аудио : Да
Использование указателей C2 : Нет
Коррекция смещения при чтении : 102
Способность читать области Lead-in и Lead-out : Нет
Заполнение пропущенных сэмплов тишиной : Да
Удаление блоков с тишиной в начале и конце : Нет
При вычислениях CRC использовались нулевые сэмплы : Да
Интерфейс : Встроенный Win32-интерфейс для Win NT/2000
Выходной формат : Пользовательский кодировщик
Выбранный битрейт : 1024 kBit/s
Качество : Высокий
Добавление ID3-тега : Нет
Утилита сжатия : D:\Exact Audio Copy\Flac\flac.exe
Дополнительные параметры : -V -8 -T "Date=%year%" -T "Genre=%genre%" %source%
TOC извлечённого CD
Трек | Старт | Длительность | Начальный сектор | Конечный сектор
---------------------------------------------------------------------
1 | 0:00.00 | 1:17.09 | 0 | 5783
2 | 1:17.09 | 4:30.45 | 5784 | 26078
3 | 5:47.54 | 3:54.15 | 26079 | 43643
4 | 9:41.69 | 4:22.24 | 43644 | 63317
5 | 14:04.18 | 4:58.04 | 63318 | 85671
6 | 19:02.22 | 5:23.03 | 85672 | 109899
7 | 24:25.25 | 4:51.59 | 109900 | 131783
8 | 29:17.09 | 5:15.05 | 131784 | 155413
9 | 34:32.14 | 5:23.60 | 155414 | 179698
10 | 39:55.74 | 5:11.03 | 179699 | 203026
11 | 45:07.02 | 4:35.32 | 203027 | 223683
12 | 49:42.34 | 2:42.60 | 223684 | 235893
Характеристики диапазона извлечения и сообщения об ошибках
Выбранный диапазон
Имя файла D:\1_МУЛЬТИМЕДИА\1_RuTracker.org_SONGATOR\Pyramaze - Дискография (2004-2015) (4CD) FLAC\2015 - Disciples Of The Sun\Pyramaze - Disciples Of The Sun.wav
Пиковый уровень 98.8 %
Скорость извлечения 2.0 X
Качество диапазона 100.0 %
CRC теста 82D2F77D
CRC копии 82D2F77D
Копирование... OK
Ошибок не произошло
AccurateRip: сводка
Трек 1 : извлечено точно (доверие 8) [5613D456] (AR v2)
Трек 2 : извлечено точно (доверие 8) [2C362288] (AR v2)
Трек 3 : извлечено точно (доверие 8) [AAA4FD70] (AR v2)
Трек 4 : извлечено точно (доверие 8) [9793E32C] (AR v2)
Трек 5 : извлечено точно (доверие 8) [3DDD3085] (AR v2)
Трек 6 : извлечено точно (доверие 8) [15ACAF48] (AR v2)
Трек 7 : извлечено точно (доверие 8) [3CEBCFDF] (AR v2)
Трек 8 : извлечено точно (доверие 8) [BB6F23FF] (AR v2)
Трек 9 : извлечено точно (доверие 8) [1B944D07] (AR v2)
Трек 10 : извлечено точно (доверие 8) [F9DC3069] (AR v2)
Трек 11 : извлечено точно (доверие 8) [2F5472D1] (AR v2)
Трек 12 : извлечено точно (доверие 8) [11B2F206] (AR v2)
Все треки извлечены точно
Конец отчёта
==== Контрольная сумма отчёта 4DF32D105233396FA87AC311FF1168DB08E8797FE8B908AF024E47A59BB980AF ====

2017 - Contingent

01. Land Of Information
02. Kingdom Of Solace
03. Star Men
04. A World Divided
05. Nemesis
06. Contingent - Part I: The Campaign
07. 20 Second Century
08. Obsession
09. Heir Apparent
10. Contingent - Part II: The Hammer Of Remnant
11. Under Restraint
12. The Tides That Won't Change
13. Symphony Of Tears
Продолжительность: 00:56:42
Издатель (лейбл): Inner Wound Recordings

Лог создания рипа

Exact Audio Copy V1.3 from 2. September 2016
Отчёт EAC об извлечении, выполненном 27. апреля 2017, 19:11
Pyramaze / Contingent
Дисковод: MATSHITADVD-RAM UJ8B0AW Adapter: 1 ID: 0
Режим чтения : Достоверность
Использование точного потока : Да
Отключение кэша аудио : Да
Использование указателей C2 : Нет
Коррекция смещения при чтении : 102
Способность читать области Lead-in и Lead-out : Нет
Заполнение пропущенных сэмплов тишиной : Да
Удаление блоков с тишиной в начале и конце : Нет
При вычислениях CRC использовались нулевые сэмплы : Да
Интерфейс : Встроенный Win32-интерфейс для Win NT/2000
Выходной формат : Пользовательский кодировщик
Выбранный битрейт : 1024 kBit/s
Качество : Высокий
Добавление ID3-тега : Нет
Утилита сжатия : C:\Program Files (x86)\Exact Audio Copy\Flac\flac.exe
Дополнительные параметры : -V -8 -T "Date=%year%" -T "Genre=%genre%" %source%
TOC извлечённого CD
Трек | Старт | Длительность | Начальный сектор | Конечный сектор
---------------------------------------------------------------------
1 | 0:00.00 | 5:37.56 | 0 | 25330
2 | 5:37.56 | 5:53.24 | 25331 | 51829
3 | 11:31.05 | 5:11.04 | 51830 | 75158
4 | 16:42.09 | 5:07.52 | 75159 | 98235
5 | 21:49.61 | 4:08.21 | 98236 | 116856
6 | 25:58.07 | 1:41.60 | 116857 | 124491
7 | 27:39.67 | 5:03.41 | 124492 | 147257
8 | 32:43.33 | 4:06.01 | 147258 | 165708
9 | 36:49.34 | 4:53.56 | 165709 | 187739
10 | 41:43.15 | 1:54.32 | 187740 | 196321
11 | 43:37.47 | 4:36.17 | 196322 | 217038
12 | 48:13.64 | 3:33.41 | 217039 | 233054
13 | 51:47.30 | 4:54.63 | 233055 | 255167
Характеристики диапазона извлечения и сообщения об ошибках
Выбранный диапазон
Имя файла D:\********.org\Songator\Pyramaze - Дискография (2004-2015) (4CD) FLAC\2017 - Contingent\Pyramaze - Contingent.wav
Пиковый уровень 98.8 %
Скорость извлечения 2.1 X
Качество диапазона 100.0 %
CRC теста 612A9D3F
CRC копии 612A9D3F
Копирование... OK
Ошибок не произошло
AccurateRip: сводка
Трек 1 отсутствует в базе данных
Трек 2 отсутствует в базе данных
Трек 3 отсутствует в базе данных
Трек 4 отсутствует в базе данных
Трек 5 отсутствует в базе данных
Трек 6 отсутствует в базе данных
Трек 7 отсутствует в базе данных
Трек 8 отсутствует в базе данных
Трек 9 отсутствует в базе данных
Трек 10 отсутствует в базе данных
Трек 11 отсутствует в базе данных
Трек 12 отсутствует в базе данных
Трек 13 отсутствует в базе данных
Ни одного трека нет в базе AccurateRip
Конец отчёта
==== Контрольная сумма отчёта B2F6026AA6E5085D0674D09F8C6246B508961ED8102688286DD01C3FCB6E19BB ====
---

Видеоклипы

---

Об исполнителе (группе)

Первые шаги Pyramaze были сделаны зимой 2001-2002 года, когда 24-летний гитарист Майкл Кэммейер покинул группу Damion, в которой он играл на протяжении трех лет. После ухода, Майкл взял короткий перерыв от музыки, чтобы, развеявшись, обрести новое вдохновение. По прошествии нескольких месяцев у него возникла идея написания полностью самофинансируемого альбома на собственном материале. Последующие месяцы были проведены в интенсивной работе над написанием песен, и к лету 2002 Майкл обеспечил себя достаточным количеством материала для альбома. Пришло время придумать название и найти идеальных музыкантов для новой группы. Именно тогда Pyramaze начал обретать форму.
Ему не пришлось далеко идти, чтобы найти двух первых музыкантов, так как местный барабанщик Мортен Гэйд Сорэнсен и басист Нильс Квист немедленно воспользовались благоприятной возможностью присоединиться к Майклу в его поисках. Следующим стал американский клавишник Джона Вейнгартен, которого Майкл встретил в Интернете. Новорожденная группа начала репетировать написанный материал с обеих сторон Атлантического океана: датские парни - с одной стороны, а Джона - в США. Они отослали демо-записи и дальше, в ходе творческого процесса, стали связываться по телефону. Собрав группу, Майкл заказал студию для записи дебютного альбома. Он пригласил популярного продюссера Джекоба Хэнсена - человека, за которым стоит длинный список фантастических команд, от Hatesphere и Mercenary до Manticora и Falconer (лишь несколько примеров).
В январе 2003 года Джона прилетел в Данию и группа начала запись диска в студии Джекоба в небольшом городе под названием Рибе. После сведения всех треков, кроме вокала, продюссер Джекоб решил послать несколько MP3 своим старым друзьям на Intromental Management - датское металлическое агенство, которое уже работало вместе с Джекобом по многочисленным записям. Парни из Intromental влюбились в материал Pyramaze и позвонили Майклу. После нескольких телефонных бесед обе стороны, Pyramaze и Intromental, решили объединить усилия, и группа неожиданно открыла для себя, что обрела профессиональных промоутеров. Одно из условий, которое было поставлено с подписанием контракта с Intromental, - это решение найти действительно фантастического вокалиста. Кого-то, кто бы не только приспособился к материалу, но и был бы в состоянии поднять этот материал на более высокий уровень.
Майкл согласился с этой идеей, и Intromental отправил ему несколько CD с разными вокалистами, работающими с ними. После тщательного прослушивания всех их, Майкл убедился, что только один вокалист действительно отличался от других, и это был Лэнс Кинг, известный по таким великолепным работам в стиле пауэр- и прогрессив-метал, как Balance Of Power, Mattson, King's Machine и Gemini. Лэнс ознакомился с материалом и согласился стать вокалистом Pyramaze. Уже законченные вещи, вместе с текстами отправили Лэнсу, и Лэнс начал запись вокала в своей студии в Миннеаполисе. Несколько месяцев спустя вокал был наложен, и материал был снова отправлен в Данию, где было сделано окончательное сведение и мастеринг на студии Джекоба в Рибе.
Теперь настало время найти записывающую компанию, которая выпустила бы дебютный альбом Pyramaze - "Melancholy Beast'". К счастью, реакция на альбом была чрезвычайно позитивной, и предложения стали поступать сразу же. После того, как переговоры были завершены, группа подписала контракты со следующими лейблами: NTS Records (ныне известна как Replica Records) в Европе и Канаде, Toshiba-EMI - в Японии и Nightmare Records - в США. Была утверждена общая дата релиза, и альбом поступил в продажу во всех странах к концу мая 2004. Pyramaze получил исключительные рецензии прессы во всем мире, а в 2005 было также подписано соглашение с корейской компанией Melodic Heaven о продажах в Азии (за исключением Японии).
Летом 2004 года группа поехала в турне по Северной Америке, Дании, Германии и Франции в поддержку своего дебютного альбома "Melancholy Beast". Для этих концертов был приглашен датский гитарист Токе Скённемэнд, и вскоре после того, как турне завершилось, Токе был приглашен войти в состав группы в качестве постоянного участника.
Майкл начал создавать то, что должно было стать вторым релизом Pyramaze зимой 2004/2005 - концептуальный альбом под названием "Legend Of The Bone Carver", имеющий необыкновенную историю, которая развивается от начала до конца. Записанное вновь под руководством Джекоба Хэнсена, это новое музыкальное произведение было завершено летом 2005. Сразу после окончания работы Intromental Management связалось со всеми записывающими компаниями, и в дополнении к Replica Records (бывшая NTS) во Франции, Nightmare Records в США и Melodic Heaven в Азии, были найдены новые лейблы для Японии (King Records) и Европы (Massacre Records).
Общая дата выпуска была намечена на конец февраля 2006. В январе 2006 Pyramaze уже стоял в программе нескольких широко известных фестивалей (Kloften Fest в Дании (23 июня) / Bloodstock Open Air в Англии (14 июля) / Headbangers Open Air в Германии (15 июля) / и желанное место в программе фестиваля ProgPower в США).
"Legend of the Bone Carver" выходит в свет в феврале 2006.
Мы полагаем, что это только начало для этого нового и подающего надежды бриллианта металической музыки.
Материал был записан на Hansen Studios в Дании, сведение и мастеринг проходили под руководством Якоба Хансена в той же студии. 15 сентября 2006 года Pyramaze принимают участие в фестивале ProgPower USA VII, Атланта.
13 марта 2008 года Pyramaze выпускают демо-ленту с двумя новыми песнями с грядущего альбома: "Year of the Phoenix" и "Caramon's Poem". Сам полноформатный "Immortal" официально вышел 30 мая того же года.
На данный момент идёт активная работа над четвёртым полноформатным альбомом, релиз которого запланирован на конец 2012.
После выхода своего третьего полноформатного альбома "Immortal", группа пропадает из поля зрения своих поклонников, лишь эпизодически напоминая о своём существовании.
Лишь в конце 2011 Pyramaze заявляют о начале записи нового альбома и некоторых перестановках в коллективе. Так команду покинул основной автор всех песен группы Майкл Кэммейер. В связи с этим обязанности за написание новых композиций были равно разделены между всеми участниками коллектива. Вместе с Майклом из группы ушёл и бас гитарист Нильс Квист. Место ушедших ребят занял Джейкоб Хансен (Invocator, Anubis Gate, Beyond Twilight), который так же является ещё и продюсером группы на протяжении всего её существования..
В течении всего 2012 года музыканты преимущественно проводят в студии, где полным ходом идёт запись нового альбома. Периодически ребята дают небольшие концерты, преимущественно в пределах родной страны.
2013 год так же проходит под знаком работы над новым альбомом. Но, попутно ребята принимают участие и в других проектах. Так 4 июля клавишник Джон Вейнгартен вместе со своим проектом Structure of Inhumanity выпустил дебютную работу "Completion Integration". Помимо работы над новой пластинкой, группа занимается своим имиджем. Как результат, Pyramaze решили изменить свой логотип.
В конце сентября 2014 группа заявляет, что работа над четвёртым полноформатным альбомом окончена. Она шла долго, по причине наличия у всех участников семей и детей. В связи с уходом вокалиста Урбана Брида в новый проект Serious Black, Pyramaze обещают в скором времени найти нового участника команды.
В начале 2015 года Pyramaze сообщают, что новый альбом, который получил название "Disciples Of The Sun" выйдет 22 мая, а новым вокалистом коллектива стал Терье Хэрой.

Состав

Morten Gade Sørensen - Drums (2001-present)
Jonah Weingarten - Keyboards (2002-present)
Toke Skjønnemand - Guitars (2004-present)
Jacob Hansen - Guitars, Bass (2011-present)
Terje Harøy - Vocals (2015-present)

To download the file disable ad blocking, and reload the page.

disable adblock How to disable ad blocking?

Download by magnet link 2.29 GB Download Torrent

Login using:

Загрузка...

Similar topics



   
Current time is: 13-Dec 07:13 :: All times are UTC + 3