Deliverance (UK) / Evil Friendship / The Book Of Lies
Жанр: Heavy Metal
Носитель: CD
Страна-производитель диска (релиза): Spain
Год издания: 1990
Издатель (лейбл): Metalworks
Номер по каталогу: VOV 673
Страна исполнителя (группы): UK
Аудиокодек: FLAC (*.flac)
Тип рипа: image+.cue
Битрейт аудио: lossless
Продолжительность: 1:18:54.147 (208 775 868 samples)
Источник (релизер): igorockas
Наличие сканов в содержимом раздачи: да
Треклист:
1 Dies Irae
2 Tongues Of Lies
3 Lord Of Vice
4 Bell, Book And Scandal
5 No Way Out
6 Alive Forever
7 The Drowning
8 Turn Me To Stone
9 Evil Friendship
10 Rabid
11 Troopers Of Death
12 Requiem
13 Succubus
14 Siren
15 Succubus II
16 Nightmare
17 Angels In The Dinner
18 Sympathy
19 The Book Of Lies
20 Runaway
21 The Evil
22 R.I.P.

Лог создания рипа

Exact Audio Copy V1.3 from 2. September 2016
EAC extraction logfile from 27. April 2017, 6:36
Deliverance / Evil Friendship + The Book Of Lies
Used drive : TS8XDVDRTranscend Adapter: 1 ID: 0
Read mode : Secure
Utilize accurate stream : Yes
Defeat audio cache : Yes
Make use of C2 pointers : No
Read offset correction : 6
Overread into Lead-In and Lead-Out : No
Fill up missing offset samples with silence : Yes
Delete leading and trailing silent blocks : No
Null samples used in CRC calculations : Yes
Used interface : Native Win32 interface for Win NT & 2000
Used output format : User Defined Encoder
Selected bitrate : 896 kBit/s
Quality : High
Add ID3 tag : No
Command line compressor : C:\Program Files (x86)\Exact Audio Copy\flac-1.3.2-win\flac-1.3.2-win\win64\flac.exe
Additional command line options : -V -8 -T "Date=%year%" -T "Genre=%genre%" %source%
TOC of the extracted CD
Track | Start | Length | Start sector | End sector
---------------------------------------------------------
1 | 0:00.00 | 2:16.60 | 0 | 10259
2 | 2:16.60 | 2:53.10 | 10260 | 23244
3 | 5:09.70 | 2:30.65 | 23245 | 34559
4 | 7:40.60 | 4:19.58 | 34560 | 54042
5 | 12:00.43 | 2:04.27 | 54043 | 63369
6 | 14:04.70 | 2:59.18 | 63370 | 76812
7 | 17:04.13 | 2:20.15 | 76813 | 87327
8 | 19:24.28 | 3:14.57 | 87328 | 101934
9 | 22:39.10 | 2:57.29 | 101935 | 115238
10 | 25:36.39 | 3:03.74 | 115239 | 129037
11 | 28:40.38 | 2:00.40 | 129038 | 138077
12 | 30:41.03 | 6:43.06 | 138078 | 168308
13 | 37:24.09 | 4:07.22 | 168309 | 186855
14 | 41:31.31 | 5:40.05 | 186856 | 212360
15 | 47:11.36 | 3:54.14 | 212361 | 229924
16 | 51:05.50 | 3:58.22 | 229925 | 247796
17 | 55:03.72 | 1:24.72 | 247797 | 254168
18 | 56:28.69 | 3:35.53 | 254169 | 270346
19 | 60:04.47 | 5:01.63 | 270347 | 292984
20 | 65:06.35 | 4:11.70 | 292985 | 311879
21 | 69:18.30 | 5:09.13 | 311880 | 335067
22 | 74:27.43 | 4:26.43 | 335068 | 355060
Range status and errors
Selected range
Filename E:\Lossless\Deliverance (UK)\1990 - Evil Friendship + The Book Of Lies\Deliverance - Evil Friendship + The Book Of Lies.wav
Peak level 89.1 %
Extraction speed 1.8 X
Range quality 99.9 %
Test CRC 8E55A8F2
Copy CRC F3E7881E
Copy OK
No errors occurred
AccurateRip summary
Track 1 accurately ripped (confidence 1) [4FADB3BE] (AR v1)
Track 2 accurately ripped (confidence 1) [6D74E4E7] (AR v1)
Track 3 accurately ripped (confidence 1) [39D13F65] (AR v1)
Track 4 accurately ripped (confidence 1) [9ED7BF66] (AR v1)
Track 5 accurately ripped (confidence 1) [EE3933C4] (AR v1)
Track 6 cannot be verified as accurate (confidence 1) [0B4BA538], AccurateRip returned [DDF094A5] (AR v2)
Track 7 cannot be verified as accurate (confidence 1) [48CE252E], AccurateRip returned [867ED4AF] (AR v2)
Track 8 accurately ripped (confidence 1) [7FD8DB33] (AR v1)
Track 9 accurately ripped (confidence 1) [D5656203] (AR v1)
Track 10 accurately ripped (confidence 1) [7FEBBF7B] (AR v1)
Track 11 accurately ripped (confidence 1) [00EA7167] (AR v1)
Track 12 accurately ripped (confidence 1) [32AC01A4] (AR v1)
Track 13 not present in database
Track 14 not present in database
Track 15 not present in database
Track 16 not present in database
Track 17 not present in database
Track 18 not present in database
Track 19 not present in database
Track 20 not present in database
Track 21 not present in database
Track 22 not present in database
10 track(s) accurately ripped
2 track(s) could not be verified as accurate
10 track(s) not present in the AccurateRip database
Some tracks could not be verified as accurate
End of status report
---- CUETools DB Plugin V2.1.6
[CTDB TOCID: a6aDBOAYyRvw139R4YxGOZkmjkw-] database access error: The remote name could not be resolved: 'db.cuetools.net'
==== Log checksum 17616D84B1116D6B29699CE50A68165444AD05B291FC2F6478044A51F106D0AD ====

Содержание индексной карты (.CUE)

REM GENRE "Heavy Metal"
REM DATE 1990
REM DISCID 2B127E16
REM COMMENT "ExactAudioCopy v1.3"
PERFORMER "Deliverance"
TITLE "Evil Friendship + The Book Of Lies"
REM COMPOSER ""
FILE "Deliverance - Evil Friendship + The Book Of Lies.flac" WAVE
TRACK 01 AUDIO
TITLE "Dies Irae"
PERFORMER "Deliverance"
REM COMPOSER ""
FLAGS DCP
INDEX 01 00:00:00
TRACK 02 AUDIO
TITLE "Tongues of Lies"
PERFORMER "Deliverance"
REM COMPOSER ""
FLAGS DCP
INDEX 01 02:16:60
TRACK 03 AUDIO
TITLE "Lord Of vice"
PERFORMER "Deliverance"
REM COMPOSER ""
FLAGS DCP
INDEX 01 05:09:70
TRACK 04 AUDIO
TITLE "Bell, Book and Scandal"
PERFORMER "Deliverance"
REM COMPOSER ""
FLAGS DCP
INDEX 01 07:40:60
TRACK 05 AUDIO
TITLE "No way out"
PERFORMER "Deliverance"
REM COMPOSER ""
FLAGS DCP
INDEX 01 12:00:43
TRACK 06 AUDIO
TITLE "Alive Forever"
PERFORMER "Deliverance"
REM COMPOSER ""
FLAGS DCP
INDEX 01 14:04:70
TRACK 07 AUDIO
TITLE "The Drowning"
PERFORMER "Deliverance"
REM COMPOSER ""
FLAGS DCP
INDEX 01 17:04:13
TRACK 08 AUDIO
TITLE "Turn Me to Stone"
PERFORMER "Deliverance"
REM COMPOSER ""
FLAGS DCP
INDEX 01 19:24:28
TRACK 09 AUDIO
TITLE "Evil Friendship"
PERFORMER "Deliverance"
REM COMPOSER ""
FLAGS DCP
INDEX 01 22:39:10
TRACK 10 AUDIO
TITLE "Rabid"
PERFORMER "Deliverance"
REM COMPOSER ""
FLAGS DCP
INDEX 01 25:36:39
TRACK 11 AUDIO
TITLE "Troopers of death"
PERFORMER "Deliverance"
REM COMPOSER ""
FLAGS DCP
INDEX 01 28:40:38
TRACK 12 AUDIO
TITLE "requiem"
PERFORMER "Deliverance"
REM COMPOSER ""
FLAGS DCP
INDEX 01 30:41:03
TRACK 13 AUDIO
TITLE "Succubus"
PERFORMER "Deliverance"
REM COMPOSER ""
FLAGS DCP
INDEX 01 37:24:09
TRACK 14 AUDIO
TITLE "Siren"
PERFORMER "Deliverance"
REM COMPOSER ""
FLAGS DCP
INDEX 01 41:31:31
TRACK 15 AUDIO
TITLE "Succubus II"
PERFORMER "Deliverance"
REM COMPOSER ""
FLAGS DCP
INDEX 01 47:11:36
TRACK 16 AUDIO
TITLE "Nightmare"
PERFORMER "Deliverance"
REM COMPOSER ""
FLAGS DCP
INDEX 01 51:05:50
TRACK 17 AUDIO
TITLE "Angels in the diner"
PERFORMER "Deliverance"
REM COMPOSER ""
FLAGS DCP
INDEX 01 55:03:72
TRACK 18 AUDIO
TITLE "Sympathy"
PERFORMER "Deliverance"
REM COMPOSER ""
FLAGS DCP
INDEX 01 56:28:69
TRACK 19 AUDIO
TITLE "The book of lies"
PERFORMER "Deliverance"
REM COMPOSER ""
FLAGS DCP
INDEX 01 60:04:47
TRACK 20 AUDIO
TITLE "Runaway"
PERFORMER "Deliverance"
REM COMPOSER ""
FLAGS DCP
INDEX 01 65:06:35
TRACK 21 AUDIO
TITLE "The evil"
PERFORMER "Deliverance"
REM COMPOSER ""
FLAGS DCP
INDEX 01 69:18:30
TRACK 22 AUDIO
TITLE "R.I.P"
PERFORMER "Deliverance"
REM COMPOSER ""
FLAGS DCP
INDEX 01 74:27:43
Доп. информация: Эта раздача посвящается Легендарному и Непревзойдённому Revici

Состав

Kris Krowe - Bass, Vocals
Sin - Guitars, Organs, Piano
Master Daniels - Vocals, Drums, Percussion
Clive Cutie - Drums, Percussion

To download the file disable ad blocking, and reload the page.

disable adblock How to disable ad blocking?

Download by magnet link 468 MB Download Torrent

Login using:

Загрузка...

Similar topics

(Heavy Metal) Furious - Dead Mark - 2017, MP3, 320 kbps
 179 MB   0 | 0   26-May-17 21:27   0
(Heavy / Power Metal) Afterdreams - Nightmare - 2017, MP3, 320 kbps
 111 MB   0 | 0   26-May-17 21:27   1
(Heavy Metal, Groove Metal) Blaxem - Who Cares - 2017, MP3, 320 kbps
 86 MB   0 | 0   26-May-17 21:27   0
(Heavy Metal/Progressive) Wine Guardian - Onirica - 2017, MP3, 320 kbps
 115 MB   0 | 0   26-May-17 21:27   0


   
Current time is: 16-Dec 07:23 :: All times are UTC + 3