Motörhead - Официальная дискография (1977-2016) v.2.6 (166 CD)
Жанр: Heavy Metal
Страны-производители дисков: 32CD | 31CD | 42CD | 32CD | 22CD | 1CD | 1CD | 3CD | 1CD
Аудио кодек: FLAC (*.flac)
Тип рипа: image+.cue
Битрейт аудио: lossless
Источник: Оригинальные диски из личной коллекции unclsandy (30 изданий) + помощь
Наличие сканов в содержимом раздачи: да (PNG 300dpi/JPG 300dpi)-

Примерный список разыскиваемых изданий

С учётом наличия отдельной раздачи японских первопрессов список выглядит примерно так:
• 1982 - Iron Fist: VDP 1151 и/или 18 DN-58 (Japan); и/или Ariola 254 636-217 (Germany)
• 1983 - Another Perfect Day: Ariola 255 487-217 (Germany); CLA CD 225 (UK)
• 1998 - All The Aces/The Muggers Tapes (06076-85207-2, 2CD)
Перед тем как качать - полезные советы Как скачать отдельный файл;
[url=http://********.wiki/%D0%9A%D0%B0%D0%BA_%D0%B4%D0%BE%D0%BA%D0%B0%D1%87%D0%B0%D1%82%D1%8C_%D0%BF%D1%80%D0%BE%D0%BF%D1%83%D1%89%D0%B5%D0%BD%D0%BD%D1%8B%D0%B5_%D1%84%D0%B0%D0%B9%D0%BB%D1%8B_%D1%82%D0%BE%D1%80%D1%80%D0%B5%D0%BD%D1%82%D0%B0]Как докачать пропущенные файлы торрента;[/url]
Чем можно послушать музыку в lossless;
Как создать Audio диск из Lossless образа;
Как порезать образ на треки
!!! ВНИМАНИЕ !!!
Для обновления от 26 апреля 2017г переименуйте папку раздачи в "Motorhead"
-♠ Full Length Albums ♠

1977-Motorhead

1977-Motorhead (1988, USA, Roadrunner, RR 9357-2)

Страна-производитель диска: US
Год издания диска: 1988
Издатель (лейбл): RoadrunneR Records
Номер по каталогу: RR 9357-2
Аудио кодек: FLAC (*.flac)
Тип рипа: image+.cue
Битрейт аудио: lossless
Продолжительность: 0:50:53
Источник: unclesandy
Наличие сканов в содержимом раздачи: да (PNG 300dpi)
Треклист:
1. Motorhead - 3:11
2. Vibrator - 3:37
3. Lost Johnny - 4:13
4. Iron Horse/Born to Lose - 5:20
5. White Line Fever - 2:37
6. Keep Us On The Road - 5:55
7. The Watcher - 4:29
8. The Train Kept A-Rollin' - 3:17
9. City Kids - 3:25
10. Beer Drinkers & Hell Raisers - 3:27
11. On Parole - 5:58
12. Instro - 2:27
13. I'm Your Witch Doctor - 2:57

Лог создания рипа

Exact Audio Copy V1.0 beta 3 from 29. August 2011
EAC extraction logfile from 16. November 2013, 15:17
Motorhead / Motorhead (1990, USA, Roadrunner, RR 9357-2)
Used drive : PIONEER DVD-RW DVR-219L Adapter: 1 ID: 0
Read mode : Secure
Utilize accurate stream : Yes
Defeat audio cache : Yes
Make use of C2 pointers : No
Read offset correction : 6
Overread into Lead-In and Lead-Out : No
Fill up missing offset samples with silence : Yes
Delete leading and trailing silent blocks : No
Null samples used in CRC calculations : Yes
Used interface : Native Win32 interface for Win NT & 2000
Used output format : Internal WAV Routines
Sample format : 44.100 Hz; 16 Bit; Stereo
TOC of the extracted CD
Track | Start | Length | Start sector | End sector
---------------------------------------------------------
1 | 0:00.00 | 3:11.05 | 0 | 14329
2 | 3:11.05 | 3:37.37 | 14330 | 30641
3 | 6:48.42 | 4:13.18 | 30642 | 49634
4 | 11:01.60 | 5:19.57 | 49635 | 73616
5 | 16:21.42 | 2:36.68 | 73617 | 85384
6 | 18:58.35 | 5:55.12 | 85385 | 112021
7 | 24:53.47 | 4:28.48 | 112022 | 132169
8 | 29:22.20 | 3:17.02 | 132170 | 146946
9 | 32:39.22 | 3:25.15 | 146947 | 162336
10 | 36:04.37 | 3:27.03 | 162337 | 177864
11 | 39:31.40 | 5:57.47 | 177865 | 204686
12 | 45:29.12 | 2:27.05 | 204687 | 215716
13 | 47:56.17 | 2:57.20 | 215717 | 229011
Range status and errors
Selected range
Filename D:\CDRip for Unclesandy\Motorhead - Motorhead (1990, USA, Roadrunner, RR 9357-2).wav
Peak level 100.0 %
Extraction speed 6.9 X
Range quality 100.0 %
Test CRC 1F2D5806
Copy CRC 1F2D5806
Copy OK
No errors occurred
AccurateRip summary
Track 1 accurately ripped (confidence 2) [DAB67C6E] (AR v1)
Track 2 accurately ripped (confidence 2) [3A16ED16] (AR v1)
Track 3 accurately ripped (confidence 2) [F168ED3D] (AR v1)
Track 4 accurately ripped (confidence 2) [DDAE13A6] (AR v1)
Track 5 accurately ripped (confidence 2) [CD50E2B9] (AR v1)
Track 6 accurately ripped (confidence 2) [8B63EF28] (AR v1)
Track 7 accurately ripped (confidence 2) [4C343431] (AR v1)
Track 8 accurately ripped (confidence 2) [50D02CF6] (AR v1)
Track 9 accurately ripped (confidence 2) [2DF38ED4] (AR v1)
Track 10 accurately ripped (confidence 2) [B58A19B3] (AR v1)
Track 11 accurately ripped (confidence 2) [FBCBEE07] (AR v1)
Track 12 accurately ripped (confidence 2) [A0BB2777] (AR v1)
Track 13 accurately ripped (confidence 2) [8C7F5195] (AR v1)
All tracks accurately ripped
End of status report
---- CUETools DB Plugin V2.1.4
[CTDB TOCID: RbeBD0idQJj4afERcpV0qTPPgiU-] found
Submit result: RbeBD0idQJj4afERcpV0qTPPgiU- has been confirmed
Track | CTDB Status
1 | (2/2) Accurately ripped
2 | (2/2) Accurately ripped
3 | (2/2) Accurately ripped
4 | (2/2) Accurately ripped
5 | (2/2) Accurately ripped
6 | (2/2) Accurately ripped
7 | (2/2) Accurately ripped
8 | (2/2) Accurately ripped
9 | (2/2) Accurately ripped
10 | (2/2) Accurately ripped
11 | (2/2) Accurately ripped
12 | (2/2) Accurately ripped
13 | (2/2) Accurately ripped
==== Log checksum A2BC5F4187E4E9644472F4E25401BB24AD0BFCDD90F148E9194736170E125C7E ====

1977-Motorhead (2001, UK, Ace Records, CDWIKM 2) (Remastered)

Страна-производитель диска: UK
Год издания диска: 2001
Издатель (лейбл): Ace Records Ltd.
Номер по каталогу: CDWIKM 2
Аудио кодек: FLAC (*.flac)
Тип рипа: image+.cue
Битрейт аудио: lossless
Продолжительность: 0:50:52
Источник: Dar_kW
Наличие сканов в содержимом раздачи: да (JPG 300dpi)
Треклист:
1. Motorhead - 3:11
2. Vibrator - 3:36
3. Lost Johnny - 4:13
4. Iron Horse / Born To Lose - 5:20
5. White Line Fever - 2:37
6. Keep Us On The Road - 5:55
7. The Watcher - 4:27
8. The Train Kept A-rollin' - 3:17
9. City Kids - 3:24
10. Beer Drinkers & Hell Raisers - 3:25
11. On Parole - 5:59
12. Instro - 2:28
13. I'm Your Witch Doctor - 3:00

Лог создания рипа

Exact Audio Copy V0.99 prebeta 5 from 4. May 2009
EAC extraction logfile from 16. February 2011, 15:15
Motцrhead / Mot rhead
Used drive : HL-DT-STDVD-RAM GH15L Adapter: 0 ID: 1
Read mode : Secure
Utilize accurate stream : Yes
Defeat audio cache : Yes
Make use of C2 pointers : No
Read offset correction : 667
Overread into Lead-In and Lead-Out : No
Fill up missing offset samples with silence : Yes
Delete leading and trailing silent blocks : No
Null samples used in CRC calculations : Yes
Used interface : Native Win32 interface for Win NT & 2000
Used output format : Monkey's Audio Lossless Encoder
Selected bitrate : High Lossless Compression
Quality : High
Add ID3 tag : No
Command line compressor : C:\Program Files\Exact Audio Copy\MAC.EXE
TOC of the extracted CD
Track | Start | Length | Start sector | End sector
---------------------------------------------------------
1 | 0:00.00 | 3:11.01 | 0 | 14325
2 | 3:11.01 | 3:36.26 | 14326 | 30551
3 | 6:47.27 | 4:13.36 | 30552 | 49562
4 | 11:00.63 | 5:20.08 | 49563 | 73570
5 | 16:20.71 | 2:37.03 | 73571 | 85348
6 | 18:57.74 | 5:55.29 | 85349 | 112002
7 | 24:53.28 | 4:26.70 | 112003 | 132022
8 | 29:20.23 | 3:16.59 | 132023 | 146781
9 | 32:37.07 | 3:23.47 | 146782 | 162053
10 | 36:00.54 | 3:25.27 | 162054 | 177455
11 | 39:26.06 | 5:58.43 | 177456 | 204348
12 | 45:24.49 | 2:27.41 | 204349 | 215414
13 | 47:52.15 | 2:59.58 | 215415 | 228897
Range status and errors
Selected range
Filename C:\Documents and Settings\Administrator\Pulpit\MOTORHEAD [1977] [CD] Motorhead (Remastered 2001)\Motorhead - Mot rhead.wav
Peak level 99.8 %
Range quality 100.0 %
Copy CRC DB92BD09
Copy OK
No errors occurred
End of status report

1977-Motorhead (2010, Japan, Ace Records, TECI-23605) (Remastered)

Страна-производитель диска: Japan
Год издания диска: 2010
Издатель (лейбл): Ace Records Ltd./Imperial Records
Номер по каталогу: TECI-23605
Аудио кодек: FLAC (*.flac)
Тип рипа: image+.cue
Битрейт аудио: lossless
Продолжительность: 0:50:50
Источник: Igor191965
Наличие сканов в содержимом раздачи: да (JPG 300dpi)
Треклист:
1. Motorhead - 3:11
2. Vibrator - 3:36
3. Lost Johnny - 4:14
4. Iron Horse/Born To Lose - 5:20
5. White Line Fever - 2:37
6. Keep Us On The Road - 5:55
7. The Watcher - 4:27
8. The Train Kept A-Rollin' - 3:17
9. City Kids - 3:24
10. Beer Drinkers And Hell Raisers (Bonus Track) - 3:25
11. On Parole (Bonus Track) - 5:59
12. Instro (Bonus Track) - 2:28
13. I'm Your Witch Doctor (Bonus Track) - 2:58

Лог создания рипа

Exact Audio Copy V0.99 prebeta 4 from 23. January 2008
Отчёт EAC об извлечении, выполненном 10. апреля 2010, 10:50
Motorhead / Motorhead (SHM-CD Japanese TECI-23605)
Дисковод: PLEXTOR DVDR PX-716A Adapter: 3 ID: 0
Режим чтения : Достоверность
Использование точного потока : Да
Отключение кэша аудио : Да
Использование указателей C2 : Нет
Коррекция смещения при чтении : 30
Способность читать области Lead-in и Lead-out : Да
Заполнение пропущенных сэмплов тишиной : Да
Удаление блоков с тишиной в начале и конце : Нет
При вычислениях CRC использовались нулевые сэмплы : Нет
Интерфейс : Установленный внешний ASPI-интерфейс
Выходной формат : Пользовательский кодировщик
Выбранный битрейт : 32 kBit/s
Качество : Высокий
Добавление ID3-тэга : Нет
Утилита сжатия : C:\Program Files\AUDIO\Exact Audio Copy 099pb4\Flac\flac.exe
Дополнительные параметры : -6 -V -T "artist=%a" -T "title=%t" -T "album=%g" -T "date=%y" -T "tracknumber=%n" -T "genre=%m" -T "comment=EAC 0.99prebeta4 / FLAC 1.2.1 q6" %s
TOC извлечённого CD
Трек | Старт | Длительность | Начальный сектор | Конечный сектор
---------------------------------------------------------------------
1 | 0:00.00 | 3:10.62 | 0 | 14311
2 | 3:10.62 | 3:36.28 | 14312 | 30539
3 | 6:47.15 | 4:13.47 | 30540 | 49561
4 | 11:00.62 | 5:19.70 | 49562 | 73556
5 | 16:20.57 | 2:37.18 | 73557 | 85349
6 | 18:58.00 | 5:55.27 | 85350 | 112001
7 | 24:53.27 | 4:26.58 | 112002 | 132009
8 | 29:20.10 | 3:16.60 | 132010 | 146769
9 | 32:36.70 | 3:23.45 | 146770 | 162039
10 | 36:00.40 | 3:25.27 | 162040 | 177441
11 | 39:25.67 | 5:58.45 | 177442 | 204336
12 | 45:24.37 | 2:27.53 | 204337 | 215414
13 | 47:52.15 | 2:58.07 | 215415 | 228771
Характеристики диапазона извлечения и сообщения об ошибках
Выбранный диапазон
Имя файла D:\MY_Create\Motorhead\Motorhead - Motorhead (SHM-CD Japanese TECI-23605).wav
Пиковый уровень 99.8 %
Качество диапазона 100.0 %
CRC копии 611F7DC6
Копирование... OK
Ошибок не произошло
Конец отчёта

1979-Overkill

1979-Overkill (1987, UK, Legacy, LLMCD3011)

Страна-производитель диска: UK
Год издания диска: 1987
Издатель (лейбл): Legacy Records Ltd.
Номер по каталогу: LLMCD3011
Аудио кодек: FLAC (*.flac)
Тип рипа: image+.cue
Битрейт аудио: lossless
Продолжительность: 0:34:51
Источник: V3nom
Наличие сканов в содержимом раздачи: да (JPG 300dpi)
Треклист:
1. Overkill - 5:12
2. Stay Clean - 2:43
3. (I Won't) Pay Your Price - 2:57
4. I'll Be Your Sister - 2:56
5. Capricorn - 4:11
6. No Class - 2:39
7. Damage Case - 3:02
8. Tear Ya Down - 2:40
9. Metropolis - 3:36
10. Limb From Limb - 4:55

Лог создания рипа

Exact Audio Copy V0.99 prebeta 4 from 23. January 2008
EAC extraction logfile from 27. June 2008, 15:13
Motorhead / Overkill
Used drive : PLEXTOR DVDR PX-716A Adapter: 3 ID: 0
Read mode : Secure
Utilize accurate stream : Yes
Defeat audio cache : Yes
Make use of C2 pointers : No
Read offset correction : 30
Overread into Lead-In and Lead-Out : Yes
Fill up missing offset samples with silence : Yes
Delete leading and trailing silent blocks : No
Null samples used in CRC calculations : Yes
Used interface : Native Win32 interface for Win NT & 2000
Used output format : User Defined Encoder
Selected bitrate : 32 kBit/s
Quality : High
Add ID3 tag : No
Command line compressor : C:\Program Files\FLAC\flac.exe
Additional command line options : -8 -V -T "ARTIST=%a" -T "TITLE=%t" -T "ALBUM=%g" -T "DATE=%y" -T "TRACKNUMBER=%n" -T "GENRE=%m" -T "COMMENT=%e" %s -o %d
TOC of the extracted CD
Track | Start | Length | Start sector | End sector
---------------------------------------------------------
1 | 0:00.72 | 5:11.68 | 72 | 23464
2 | 5:12.65 | 2:42.47 | 23465 | 35661
3 | 7:55.37 | 2:56.73 | 35662 | 48934
4 | 10:52.35 | 2:55.40 | 48935 | 62099
5 | 13:48.00 | 4:10.62 | 62100 | 80911
6 | 17:58.62 | 2:38.70 | 80912 | 92831
7 | 20:37.57 | 3:02.18 | 92832 | 106499
8 | 23:40.00 | 2:40.35 | 106500 | 118534
9 | 26:20.35 | 3:36.12 | 118535 | 134746
10 | 29:56.47 | 4:55.33 | 134747 | 156904
Range status and errors
Selected range
Filename D:\Motorhead - Overkill.wav
Peak level 100.0 %
Range quality 100.0 %
Copy CRC 71A6ED3A
Copy OK
No errors occurred
AccurateRip summary
Track 1 not present in database
Track 2 not present in database
Track 3 not present in database
Track 4 not present in database
Track 5 not present in database
Track 6 not present in database
Track 7 not present in database
Track 8 not present in database
Track 9 not present in database
Track 10 not present in database
None of the tracks are present in the AccurateRip database
End of status report

1979-Overkill (1989, Japan, Teichiku, 18DN-37)

Страна-производитель диска: Japan
Год издания диска: 1989
Издатель (лейбл): Teichiku Records
Номер по каталогу: 18DN-37
Аудио кодек: FLAC (*.flac)
Тип рипа: image+.cue
Битрейт аудио: lossless
Продолжительность: 0:34:48
Источник: JarpoMarx (MMT)
Наличие сканов в содержимом раздачи: да (JPG 300dpi)
Треклист:
1. Overkill - 5:11
2. Stay Clean - 2:42
3. (I Won't) Pay Your Price - 2:57
4. I'll Be Your Sister - 2:55
5. Capricorn - 4:11
6. No Class - 2:39
7. Damage Case - 3:02
8. Tear Ya Down - 2:41
9. Metropolis - 3:36
10. Limb From Limb - 4:54

Лог создания рипа

Exact Audio Copy V0.99 prebeta 5 from 4. May 2009
Archivo Log de extracciones desde 31. Octubre 2012, 12:52
Motorhead / Overkill - Japan (18DN-37)
Usar unidad : HL-DT-STDVDRAM GH22NS70 Adapter: 0 ID: 0
Modo de Lectura : Seguro
Utilizar Corriente Exacta : Sн
Descartar Audio cachй : Sн
Utilizar los punteros C2 : No
Correcciуn de Desplazamiento de Lectura : 667
Sobreleer tanto en Lead-In como en Lead-Out : No
Rellenar las muestras faltantes con silencios : Sн
Eliminar silencios inicial y final : No
Se han usado muestras nulas en los cбlculos CRC : Sн
Interfaz usada : Interfaz propio de Win32 para Windowns NT y 2000
Formato de Salida utilizado : Compresor definido por el usuario
Bitrate seleccionado : 32 kBit/s
Calidad : Alta
Aсadir Etiqueta ID3 : No
Compresor de linea de comandos : C:\Program Files (x86)\Exact Audio Copy\Flac\flac.exe
Opciones adicionales en lнnea de comandos : -6 -V %s
TOC del CD extraido
Pista | Inicio | Duraciуn | Sector inicial | Sector final
-------------------------------------------------------------
1 | 0:00.37 | 5:11.23 | 37 | 23384
2 | 5:11.60 | 2:42.22 | 23385 | 35556
3 | 7:54.07 | 2:56.70 | 35557 | 48826
4 | 10:51.02 | 2:55.28 | 48827 | 61979
5 | 13:46.30 | 4:10.72 | 61980 | 80801
6 | 17:57.27 | 2:39.25 | 80802 | 92751
7 | 20:36.52 | 3:01.63 | 92752 | 106389
8 | 23:38.40 | 2:40.55 | 106390 | 118444
9 | 26:19.20 | 3:35.65 | 118445 | 134634
10 | 29:55.10 | 4:53.57 | 134635 | 156666
Gama de estados y errores
Seleccionar gama
Nombre de Archivo E:\Mъsica\EAC\Motorhead\Overkill\Motorhead - Overkill - Japan (18DN-37).wav
Nivel Pico 98.2 %
Gama de Calidad 100.0 %
Test CRC 4685AB66
Copiar CRC 4685AB66
Copia OK
Sin Errores
Resumen AccurateRip
Pista 1 no presente en la base de datos
Pista 2 no presente en la base de datos
Pista 3 no presente en la base de datos
Pista 4 no presente en la base de datos
Pista 5 no presente en la base de datos
Pista 6 no presente en la base de datos
Pista 7 no presente en la base de datos
Pista 8 no presente en la base de datos
Pista 9 no presente en la base de datos
Pista 10 no presente en la base de datos
Ninguna de las pistas estб presente en la base de datos AccurateRip
Final del Informe

1979-Overkill (1991, USA, Roadracer, RRD 9229)

Страна-производитель диска: USA
Год издания диска: 1991
Издатель (лейбл): Roadraced Records Revisited
Номер по каталогу: RRD 9229
Аудио кодек: FLAC (*.flac)
Тип рипа: image+.cue
Битрейт аудио: lossless
Продолжительность: 0:43:38
Источник: SHI (MMT)
Наличие сканов в содержимом раздачи: да (JPG 300dpi)
Треклист:
1. Overkill - 5:11
2. Stay Clean - 2:43
3. (I Won't) Pay Your Price - 2:57
4. I'll Be Your Sister - 2:56
5. Capricorn - 4:11
6. No Class - 2:39
7. Damage Case - 3:02
8. Tear Ya Down - 2:40
9. Metropolis - 3:36
10. Limb From Limb - 4:56
11. Too Late, Too Late (Bonus Track) - 3:23
12. Tear Ya Down (Original Version) (Bonus Track) - 2:39
13. Louie, Louie (Bonus Track) - 2:46

Лог создания рипа

Exact Audio Copy V1.0 beta 2 from 29. April 2011
EAC extraction logfile from 30. August 2011, 12:37
Motorhead / Overkill
Used drive : HL-DT-STDVDRAM GT20N Adapter: 0 ID: 0
Read mode : Secure
Utilize accurate stream : Yes
Defeat audio cache : Yes
Make use of C2 pointers : No
Read offset correction : 667
Overread into Lead-In and Lead-Out : No
Fill up missing offset samples with silence : Yes
Delete leading and trailing silent blocks : No
Null samples used in CRC calculations : Yes
Used interface : Installed external ASPI interface
Used output format : Internal WAV Routines
Sample format : 44.100 Hz; 16 Bit; Stereo
TOC of the extracted CD
Track | Start | Length | Start sector | End sector
---------------------------------------------------------
1 | 0:00.00 | 5:10.72 | 0 | 23321
2 | 5:10.72 | 2:42.48 | 23322 | 35519
3 | 7:53.45 | 2:56.72 | 35520 | 48791
4 | 10:50.42 | 2:55.38 | 48792 | 61954
5 | 13:46.05 | 4:10.65 | 61955 | 80769
6 | 17:56.70 | 2:38.67 | 80770 | 92686
7 | 20:35.62 | 3:02.28 | 92687 | 106364
8 | 23:38.15 | 2:40.27 | 106365 | 118391
9 | 26:18.42 | 3:36.15 | 118392 | 134606
10 | 29:54.57 | 4:55.43 | 134607 | 156774
11 | 34:50.25 | 3:23.27 | 156775 | 172026
12 | 38:13.52 | 2:39.05 | 172027 | 183956
13 | 40:52.57 | 2:45.48 | 183957 | 196379
Range status and errors
Selected range
Filename D:\EAC\Motorhead - Overkill\Motorhead - Overkill.wav
Peak level 89.6 %
Extraction speed 3.9 X
Range quality 100.0 %
Test CRC 0D159596
Copy CRC 0D159596
Copy OK
No errors occurred
AccurateRip summary
Track 1 not present in database
Track 2 not present in database
Track 3 not present in database
Track 4 not present in database
Track 5 accurately ripped (confidence 2) [AC5E48DC] (AR v1)
Track 6 not present in database
Track 7 not present in database
Track 8 not present in database
Track 9 not present in database
Track 10 not present in database
Track 11 not present in database
Track 12 not present in database
Track 13 not present in database
1 track(s) accurately ripped
12 track(s) not present in the AccurateRip database
Some tracks could not be verified as accurate
End of status report

1979-Overkill (1996, UK, Castle, ESM CD 310) (Remastered)

Страна-производитель диска: UK
Год издания диска: 1996
Издатель (лейбл): Castle Communication plc.
Номер по каталогу: ESM CD 310
Аудио кодек: FLAC (*.flac)
Тип рипа: image+.cue
Битрейт аудио: lossless
Продолжительность: 0:51:18
Источник: unclesandy
Наличие сканов в содержимом раздачи: да (PNG 300dpi)
Треклист:
1. Overkill - 5:12
2. Stay Clean - 2:43
3. (I Won't) Pay Your Price - 2:57
4. I'll Be Your Sister - 2:55
5. Capricorn - 4:12
6. No Class - 2:42
7. Damage Case - 3:03
8. Tear Ya Down - 2:42
9. Metropolis - 3:37
10. Limb From Limb - 4:57
11. Too Late, Too Late (B-Side Of Overkill) (Bonus Track) - 3:27
12. Like A Nightmare (B-Side Of No Class) (Bonus Track)- 4:28
13. Louie, Louie (Bonus Track) - 2:48
14. Tear Ya Down (Instrumental Version) (Bonus Track) - 2:39
15. Louie, Louie (Alternate Version) (Bonus Track) - 2:55

Лог создания рипа

Exact Audio Copy V1.0 beta 3 from 29. August 2011
EAC extraction logfile from 15. November 2013, 21:43
Motorhead / Overkill (1996, UK, Castle, ESM CD 310)
Used drive : PIONEER DVD-RW DVR-219L Adapter: 1 ID: 0
Read mode : Secure
Utilize accurate stream : Yes
Defeat audio cache : Yes
Make use of C2 pointers : No
Read offset correction : 6
Overread into Lead-In and Lead-Out : No
Fill up missing offset samples with silence : Yes
Delete leading and trailing silent blocks : No
Null samples used in CRC calculations : Yes
Used interface : Native Win32 interface for Win NT & 2000
Used output format : Internal WAV Routines
Sample format : 44.100 Hz; 16 Bit; Stereo
TOC of the extracted CD
Track | Start | Length | Start sector | End sector
---------------------------------------------------------
1 | 0:00.00 | 5:12.02 | 0 | 23401
2 | 5:12.02 | 2:42.48 | 23402 | 35599
3 | 7:54.50 | 2:57.37 | 35600 | 48911
4 | 10:52.12 | 2:55.00 | 48912 | 62036
5 | 13:47.12 | 4:11.68 | 62037 | 80929
6 | 17:59.05 | 2:41.57 | 80930 | 93061
7 | 20:40.62 | 3:02.50 | 93062 | 106761
8 | 23:43.37 | 2:42.13 | 106762 | 118924
9 | 26:25.50 | 3:37.20 | 118925 | 135219
10 | 30:02.70 | 4:57.15 | 135220 | 157509
11 | 35:00.10 | 3:27.00 | 157510 | 173034
12 | 38:27.10 | 4:28.02 | 173035 | 193136
13 | 42:55.12 | 2:48.35 | 193137 | 205771
14 | 45:43.47 | 2:39.35 | 205772 | 217731
15 | 48:23.07 | 2:54.50 | 217732 | 230831
Range status and errors
Selected range
Filename D:\CDRip for Unclesandy\Motorhead - Overkill (1996, UK, Castle, ESM CD 310).wav
Peak level 100.0 %
Extraction speed 6.8 X
Range quality 100.0 %
Test CRC 73641E17
Copy CRC 73641E17
Copy OK
No errors occurred
AccurateRip summary
Track 1 accurately ripped (confidence 9) [83AACD7E] (AR v2)
Track 2 accurately ripped (confidence 9) [54512D3D] (AR v2)
Track 3 accurately ripped (confidence 9) [FE66F595] (AR v2)
Track 4 accurately ripped (confidence 9) [232B24FF] (AR v2)
Track 5 accurately ripped (confidence 9) [67075381] (AR v2)
Track 6 accurately ripped (confidence 9) [85B63E95] (AR v2)
Track 7 accurately ripped (confidence 9) [38D77383] (AR v2)
Track 8 accurately ripped (confidence 9) [37293BB7] (AR v2)
Track 9 accurately ripped (confidence 9) [3184533E] (AR v2)
Track 10 accurately ripped (confidence 9) [73F836CB] (AR v2)
Track 11 accurately ripped (confidence 9) [D9005B88] (AR v2)
Track 12 accurately ripped (confidence 9) [B9365F6C] (AR v2)
Track 13 accurately ripped (confidence 9) [9E867A05] (AR v2)
Track 14 accurately ripped (confidence 9) [43BF723D] (AR v2)
Track 15 accurately ripped (confidence 9) [BBAC8A77] (AR v2)
All tracks accurately ripped
End of status report
---- CUETools DB Plugin V2.1.4
[CTDB TOCID: nKT3o24LDmARZ08YGMAbygELVqk-] found
Submit result: nKT3o24LDmARZ08YGMAbygELVqk- has been confirmed
Track | CTDB Status
1 | (45/45) Accurately ripped
2 | (45/45) Accurately ripped
3 | (45/45) Accurately ripped
4 | (45/45) Accurately ripped
5 | (45/45) Accurately ripped
6 | (45/45) Accurately ripped
7 | (45/45) Accurately ripped
8 | (45/45) Accurately ripped
9 | (45/45) Accurately ripped
10 | (44/45) Accurately ripped
11 | (45/45) Accurately ripped
12 | (45/45) Accurately ripped
13 | (45/45) Accurately ripped
14 | (45/45) Accurately ripped
15 | (45/45) Accurately ripped
==== Log checksum E333717854102456BE4E1639AB72E004DE105777D8296408C50ADC36509FCB74 ====

1979-Overkill (2005, USA, Sanctuary, 06076-86407-2, 2CD) (Remastered)

Страна-производитель диска: USA
Год издания диска: 2005
Издатель (лейбл): Sanctuary Records Group Ltd.
Номер по каталогу: 06076-86407-2
Аудио кодек: FLAC (*.flac)
Тип рипа: image+.cue
Битрейт аудио: lossless
Продолжительность: 0:34:44 + 1:03:02
Источник: Deminbek
Наличие сканов в содержимом раздачи: да (JPG 300dpi)
CD1 Треклист:
1. Overkill - 5:14
2. Stay Clean - 2:42
3. (I Won't) Pay Your Price - 2:55
4. I'll Be Your Sister - 2:52
5. Capricorn - 4:09
6. No Class - 2:40
7. Damage Case - 3:01
8. Tear Ya Down - 2:40
9. Metropolis - 3:36
10. Limb From Limb - 4:55
CD2 Треклист:
1. Louie Louie (Single A-side) - 2:48
2. Louie Louie (Alternative Version) - 2:53
3. Louie Louie (Alternative Version 2) - 2:46
4. Tear Ya Down (Single B-side) - 2:42
5. Tear Ya Down (Alternative Version) - 2:41
6. Tear Ya Down (Instrumental Version) - 2:39
7. Too Late, Too Late (B-side single 'Overkill') - 3:25
8. Like a Nightmare (B-side single 'No Class') - 4:14
9. Like a Nightmare (Alternative Version) - 4:28
10. Louie Louie (BBC John Peel Session '78) - 2:46
11. I'll Be Your Sister (BBC John Peel Session '78) - 3:15
12. Tear Ya Down (BBC John Peel Session '78) - 2:39
13. Stay Clean (BBC Radio 1 In Concert) - 3:03
14. No Class (BBC Radio 1 In Concert) - 2:43
15. I'll Be Your Sister (BBC Radio 1 In Concert) - 3:36
16. Too Late, Too Late (BBC Radio 1 In Concert) - 3:24
17. (I Won't) Pay Your Price (BBC Radio 1 In Concert) - 3:19
18. Capricorn (BBC Radio 1 In Concert) - 4:15
19. Limb From Limb (BBC Radio 1 In Concert) - 5:26

Лог создания рипа

Exact Audio Copy V1.0 beta 1 from 15. November 2010
EAC extraction logfile from 18. January 2011, 21:05
Motorhead / Overkill
Used drive : PIONEER DVD-RW DVR-112D Adapter: 1 ID: 0
Read mode : Secure
Utilize accurate stream : Yes
Defeat audio cache : Yes
Make use of C2 pointers : No
Read offset correction : 48
Overread into Lead-In and Lead-Out : No
Fill up missing offset samples with silence : Yes
Delete leading and trailing silent blocks : No
Null samples used in CRC calculations : Yes
Used interface : Installed external ASPI interface
Used output format : User Defined Encoder
Selected bitrate : 1024 kBit/s
Quality : High
Add ID3 tag : No
Command line compressor : C:\Program Files\Exact Audio Copy\FLAC\FLAC.EXE
Additional command line options : -8 -V %s
TOC of the extracted CD
Track | Start | Length | Start sector | End sector
---------------------------------------------------------
1 | 0:00.00 | 5:13.39 | 0 | 23513
2 | 5:13.39 | 2:41.40 | 23514 | 35628
3 | 7:55.04 | 2:55.30 | 35629 | 48783
4 | 10:50.34 | 2:52.32 | 48784 | 61715
5 | 13:42.66 | 4:08.63 | 61716 | 80378
6 | 17:51.54 | 2:40.03 | 80379 | 92381
7 | 20:31.57 | 3:01.34 | 92382 | 105990
8 | 23:33.16 | 2:40.21 | 105991 | 118011
9 | 26:13.37 | 3:35.63 | 118012 | 134199
10 | 29:49.25 | 4:55.05 | 134200 | 156329
Range status and errors
Selected range
Filename C:\CDRip by Deminbek\Motorhead - Overkill [Sanctuary 06076-86407-2].wav
Peak level 99.7 %
Extraction speed 0.9 X
Range quality 99.9 %
Test CRC 319CE6F0
Copy CRC 319CE6F0
Copy OK
No errors occurred
AccurateRip summary
Track 1 accurately ripped (confidence 27) [1D0A3F9E]
Track 2 accurately ripped (confidence 26) [2CB3A7F3]
Track 3 accurately ripped (confidence 26) [D7D5C390]
Track 4 accurately ripped (confidence 26) [BEC1DA17]
Track 5 accurately ripped (confidence 26) [F6B6CA85]
Track 6 accurately ripped (confidence 26) [82A2B714]
Track 7 accurately ripped (confidence 26) [7F593C06]
Track 8 accurately ripped (confidence 26) [CBE655B2]
Track 9 accurately ripped (confidence 26) [5309C343]
Track 10 accurately ripped (confidence 26) [DA481F9E]
All tracks accurately ripped
End of status report
==== Log checksum C5C111D86C52942CC6D3074AC785E9D9E02E6DC550763EFB993F65E682E2AA92 ====
=======================================================================================
Exact Audio Copy V1.0 beta 1 from 15. November 2010
EAC extraction logfile from 18. January 2011, 21:28
Motorhead / Overkill (Deluxe Edition, Disc 2)
Used drive : PIONEER DVD-RW DVR-112D Adapter: 1 ID: 0
Read mode : Secure
Utilize accurate stream : Yes
Defeat audio cache : Yes
Make use of C2 pointers : No
Read offset correction : 48
Overread into Lead-In and Lead-Out : No
Fill up missing offset samples with silence : Yes
Delete leading and trailing silent blocks : No
Null samples used in CRC calculations : Yes
Used interface : Installed external ASPI interface
Used output format : User Defined Encoder
Selected bitrate : 1024 kBit/s
Quality : High
Add ID3 tag : No
Command line compressor : C:\Program Files\Exact Audio Copy\FLAC\FLAC.EXE
Additional command line options : -8 -V %s
TOC of the extracted CD
Track | Start | Length | Start sector | End sector
---------------------------------------------------------
1 | 0:00.00 | 2:47.58 | 0 | 12582
2 | 2:47.58 | 2:52.67 | 12583 | 25549
3 | 5:40.50 | 2:45.40 | 25550 | 37964
4 | 8:26.15 | 2:41.62 | 37965 | 50101
5 | 11:08.02 | 2:40.73 | 50102 | 62174
6 | 13:49.00 | 2:39.18 | 62175 | 74117
7 | 16:28.18 | 3:25.01 | 74118 | 89493
8 | 19:53.19 | 4:13.40 | 89494 | 108508
9 | 24:06.59 | 4:27.70 | 108509 | 128603
10 | 28:34.54 | 2:46.13 | 128604 | 141066
11 | 31:20.67 | 3:15.01 | 141067 | 155692
12 | 34:35.68 | 2:39.21 | 155693 | 167638
13 | 37:15.14 | 3:03.10 | 167639 | 181373
14 | 40:18.24 | 2:43.21 | 181374 | 193619
15 | 43:01.45 | 3:35.62 | 193620 | 209806
16 | 46:37.32 | 3:24.29 | 209807 | 225135
17 | 50:01.61 | 3:19.21 | 225136 | 240081
18 | 53:21.07 | 4:14.62 | 240082 | 259193
19 | 57:35.69 | 5:26.29 | 259194 | 283672
Range status and errors
Selected range
Filename C:\CDRip by Deminbek\Motorhead - Overkill [Deluxe Edition, Disc 2].wav
Peak level 99.7 %
Extraction speed 0.6 X
Range quality 99.9 %
Test CRC F48E3A84
Copy CRC F48E3A84
Copy OK
No errors occurred
AccurateRip summary
Track 1 accurately ripped (confidence 27) [48C5F79A]
Track 2 accurately ripped (confidence 24) [F6EB3594]
Track 3 accurately ripped (confidence 24) [07CA4C3E]
Track 4 accurately ripped (confidence 26) [B5C8F68B]
Track 5 accurately ripped (confidence 24) [27D33FC1]
Track 6 accurately ripped (confidence 24) [E0CCFF99]
Track 7 accurately ripped (confidence 26) [ADF62499]
Track 8 accurately ripped (confidence 25) [BA87CEB2]
Track 9 accurately ripped (confidence 25) [EDC4F07B]
Track 10 accurately ripped (confidence 25) [44C2F113]
Track 11 accurately ripped (confidence 25) [BD8067C3]
Track 12 accurately ripped (confidence 25) [0B9A6D75]
Track 13 accurately ripped (confidence 25) [128EFCCB]
Track 14 accurately ripped (confidence 25) [F75DCF9E]
Track 15 accurately ripped (confidence 25) [D30A578B]
Track 16 accurately ripped (confidence 25) [5AB085E8]
Track 17 accurately ripped (confidence 25) [E9878A31]
Track 18 accurately ripped (confidence 25) [EF6BC62F]
Track 19 accurately ripped (confidence 25) [CB5A2170]
All tracks accurately ripped
End of status report
==== Log checksum 48CAC61ED7B4E3F155664F0E6810FB3551DF1B7EFD9246D1472B0725570876DC ====

1979-Overkill (2007, Japan, BMG, BVCM-37960) (Remastered)

Страна-производитель диска: Japan
Год издания диска: 2007
Издатель (лейбл): BMG Japan Inc.
Номер по каталогу: BVCM-37960
Аудио кодек: FLAC (*.flac)
Тип рипа: image+.cue
Битрейт аудио: lossless
Продолжительность: 1:00:36
Источник: Igor191965
Наличие сканов в содержимом раздачи: да (JPG 300dpi)
Треклист:
1. Overkill - 5:14
2. Stay Clean - 2:42
3. (I Won't) Pay Your Price - 2:55
4. I'll Be Your Sister - 2:52
5. Capricorn - 4:09
6. No Class - 2:40
7. Damage Case - 3:01
8. Tear Ya Down - 2:40
9. Metropolis - 3:36
10. Limb From Limb - 4:56
11. Louie Louie (Single A-Side) (Bonus Track) - 2:47
12. Louie Louie (Alternative Version) (Bonus Track) - 2:53
13. Louie Louie (Alternative Version) (Bonus Track) - 2:46
14. Tear Ya Down (Alternative Version) (Bonus Track) - 2:41
15. Tear Ya Down (Instrumental Version) (Bonus Track) - 2:39
16. Too Late, Too Late (B-Side 'Overkill' Single) (Bonus Track) - 3:25
17. Like A Nightmare (B-Side 'No Class' Single) (Bonus Track) - 4:14
18. Like A Nightmare (Alternative Version) (Bonus Track) - 4:26

Лог создания рипа

Exact Audio Copy V0.99 prebeta 4 from 23. January 2008
Отчёт EAC об извлечении, выполненном 18. апреля 2008, 18:53
Motorhead / Overkill (JVC K2 24-Bit Japanese BVCM-37960)
Дисковод: PLEXTOR DVDR PX-716A Adapter: 3 ID: 0
Режим чтения : Достоверность
Использование точного потока : Да
Отключение кэша аудио : Да
Использование указателей C2 : Нет
Коррекция смещения при чтении : 30
Способность читать области Lead-in и Lead-out : Да
Заполнение пропущенных сэмплов тишиной : Да
Удаление блоков с тишиной в начале и конце : Нет
При вычислениях CRC использовались нулевые сэмплы : Нет
Интерфейс : Установленный внешний ASPI-интерфейс
Выходной формат : Пользовательский кодировщик
Выбранный битрейт : 32 kBit/s
Качество : Высокий
Добавление ID3-тэга : Да
Утилита сжатия : C:\Program Files\Audio\Exact Audio Copy 099pb4\Flac\flac.exe
Дополнительные параметры : -6 -V -T "artist=%a" -T "title=%t" -T "album=%g" -T "date=%y" -T "tracknumber=%n" -T "genre=%m" -T "comment=EAC v0.99pb4 / FLAC 1.2.1 q6" %s
TOC извлечённого CD
Трек | Старт | Длительность | Начальный сектор | Конечный сектор
---------------------------------------------------------------------
1 | 0:00.00 | 5:13.38 | 0 | 23512
2 | 5:13.38 | 2:41.40 | 23513 | 35627
3 | 7:55.03 | 2:55.31 | 35628 | 48783
4 | 10:50.34 | 2:52.32 | 48784 | 61715
5 | 13:42.66 | 4:08.63 | 61716 | 80378
6 | 17:51.54 | 2:40.03 | 80379 | 92381
7 | 20:31.57 | 3:01.34 | 92382 | 105990
8 | 23:33.16 | 2:40.22 | 105991 | 118012
9 | 26:13.38 | 3:35.62 | 118013 | 134199
10 | 29:49.25 | 4:56.17 | 134200 | 156416
11 | 34:45.42 | 2:47.09 | 156417 | 168950
12 | 37:32.51 | 2:52.66 | 168951 | 181916
13 | 40:25.42 | 2:45.41 | 181917 | 194332
14 | 43:11.08 | 2:41.00 | 194333 | 206407
15 | 45:52.08 | 2:39.17 | 206408 | 218349
16 | 48:31.25 | 3:25.01 | 218350 | 233725
17 | 51:56.26 | 4:13.40 | 233726 | 252740
18 | 56:09.66 | 4:26.18 | 252741 | 272708
Характеристики диапазона извлечения и сообщения об ошибках
Выбранный диапазон
Имя файла F:\CDImage\Motorhead 79.1_Japanese\CDImage.wav
Пиковый уровень 100.0 %
Качество диапазона 100.0 %
CRC копии 4BD67B91
Копирование... OK
Ошибок не произошло
Конец отчёта

1979-Bomber

1979-Bomber (1985, Germany, Bronze, 251 013-217)

Страна-производитель диска: Germany
Год издания диска: 1985
Издатель (лейбл): Bronze/Ariola-Eurodisc GmbH
Номер по каталогу: 251 013-217
Аудио кодек: FLAC (*.flac)
Тип рипа: image+.cue
Битрейт аудио: lossless
Продолжительность: 0:36:57
Источник: vampiro
Наличие сканов в содержимом раздачи: да (JPG 300dpi)
Треклист:
1. Dead Men Tell No Tales - 3:06
2. Lawman - 3:56
3. Sweet Revenge - 4:14
4. Sharpshooter - 3:16
5. Poison - 2:53
6. Stone Dead Forever - 4:57
7. All The Aces - 3:26
8. Step Down - 3:43
9. Talking Head - 3:42
10. Bomber - 3:44

Лог создания рипа

EAC extraction logfile from 9. January 2009, 20:52 for CD
Motцrhead / Bomber
Used drive : HL-DT-STDVD-RAM GSA-H58N Adapter: 2 ID: 1
Read mode : Secure with NO C2, accurate stream, disable cache
Read offset correction : 102
Overread into Lead-In and Lead-Out : No
Used output format : C:\Archivos de programa\Exact Audio Copy\flac.exe (User Defined Encoder)
32 kBit/s
Additional command line options : -6 -V %s
Other options :
Fill up missing offset samples with silence : Yes
Delete leading and trailing silent blocks : No
Installed external ASPI interface
Range status and errors
Selected range
Filename D:\CD-ROM\Discos\Motorhead - [1979] - Bomber\CDImage.flac.wav
Peak level 90.0 %
Range quality 99.9 %
CRC 1C8FB3F0
Copy OK
No errors occured
End of status report

1979-Bomber (1987, UK, Legacy, LLMCD-3012)

Страна-производитель диска: UK
Год издания диска: 1987
Издатель (лейбл): Legacy Records Ltd.
Номер по каталогу: LLMCD-3012)
Аудио кодек: FLAC (*.flac)
Тип рипа: image+.cue
Битрейт аудио: lossless
Продолжительность: 0:36:58
Источник: V3nom
Наличие сканов в содержимом раздачи: да (JPG 300dpi)
Треклист:
1. Dead Men Tell No Tales - 3:06
2. Lawman - 3:56
3. Sweet Revenge - 4:14
4. Sharpshooter - 3:18
5. Poison - 2:54
6. Stone Dead Forever - 4:57
7. All The Aces - 3:25
8. Step Down - 3:43
9. Talking Head - 3:43
10. Bomber - 3:42

Лог создания рипа

Exact Audio Copy V0.99 prebeta 4 from 23. January 2008
EAC extraction logfile from 27. June 2008, 14:11
Motorhead / Bomber
Used drive : PLEXTOR DVDR PX-716A Adapter: 3 ID: 0
Read mode : Secure
Utilize accurate stream : Yes
Defeat audio cache : Yes
Make use of C2 pointers : No
Read offset correction : 30
Overread into Lead-In and Lead-Out : Yes
Fill up missing offset samples with silence : Yes
Delete leading and trailing silent blocks : No
Null samples used in CRC calculations : Yes
Used interface : Native Win32 interface for Win NT & 2000
Used output format : User Defined Encoder
Selected bitrate : 32 kBit/s
Quality : High
Add ID3 tag : No
Command line compressor : C:\Program Files\FLAC\flac.exe
Additional command line options : -8 -V -T "ARTIST=%a" -T "TITLE=%t" -T "ALBUM=%g" -T "DATE=%y" -T "TRACKNUMBER=%n" -T "GENRE=%m" -T "COMMENT=%e" %s -o %d
TOC of the extracted CD
Track | Start | Length | Start sector | End sector
---------------------------------------------------------
1 | 0:00.25 | 3:05.50 | 25 | 13949
2 | 3:06.00 | 3:56.27 | 13950 | 31676
3 | 7:02.27 | 4:14.28 | 31677 | 50754
4 | 11:16.55 | 3:18.32 | 50755 | 65636
5 | 14:35.12 | 2:54.13 | 65637 | 78699
6 | 17:29.25 | 4:56.47 | 78700 | 100946
7 | 22:25.72 | 3:25.33 | 100947 | 116354
8 | 25:51.30 | 3:42.47 | 116355 | 133051
9 | 29:34.02 | 3:42.65 | 133052 | 149766
10 | 33:16.67 | 3:41.68 | 149767 | 166409
Range status and errors
Selected range
Filename D:\Motorhead - Bomber.wav
Peak level 100.0 %
Range quality 99.9 %
Test CRC 9B1BDEF9
Copy CRC 9B1BDEF9
Copy OK
No errors occurred
AccurateRip summary
Track 1 not present in database
Track 2 not present in database
Track 3 not present in database
Track 4 not present in database
Track 5 not present in database
Track 6 not present in database
Track 7 not present in database
Track 8 not present in database
Track 9 not present in database
Track 10 accurately ripped (confidence 2) [BC081E60]
1 track(s) accurately ripped
9 track(s) not present in the AccurateRip database
Some tracks could not be verified as accurate
End of status report

1979-Bomber (1991, USA, Roadracer, RRD 9228)

Страна-производитель диска: USA
Год издания диска: 1991
Издатель (лейбл): Roadraced Records Revisited
Номер по каталогу: RRD 9228
Аудио кодек: FLAC (*.flac)
Тип рипа: image+.cue
Битрейт аудио: lossless
Продолжительность: 0:40:08
Источник: SHI (MMT)
Наличие сканов в содержимом раздачи: да (JPG 300dpi)
Треклист:
1. Dead Men Tell no Tales - 3:05
2. Lawman - 3:57
3. Sweet Revenge - 4:13
4. Sharpshooter - 3:18
5. Poison - 2:55
6. Stone Dead Forever - 4:56
7. All The Aces - 3:25
8. Step Down - 3:42
9. Talking Head - 3:43
10. Bomber - 3:41
11. Over The Top (Bonus Track) - 3:13

Лог создания рипа

Exact Audio Copy V1.0 beta 2 from 29. April 2011
EAC extraction logfile from 11. July 2011, 10:59
Motorhead / Bomber
Used drive : HL-DT-STDVDRAM GT20N Adapter: 0 ID: 0
Read mode : Secure
Utilize accurate stream : Yes
Defeat audio cache : Yes
Make use of C2 pointers : No
Read offset correction : 667
Overread into Lead-In and Lead-Out : No
Fill up missing offset samples with silence : Yes
Delete leading and trailing silent blocks : No
Null samples used in CRC calculations : Yes
Used interface : Installed external ASPI interface
Used output format : Internal WAV Routines
Sample format : 44.100 Hz; 16 Bit; Stereo
TOC of the extracted CD
Track | Start | Length | Start sector | End sector
---------------------------------------------------------
1 | 0:00.00 | 3:04.60 | 0 | 13859
2 | 3:04.60 | 3:56.62 | 13860 | 31621
3 | 7:01.47 | 4:13.28 | 31622 | 50624
4 | 11:15.00 | 3:18.00 | 50625 | 65474
5 | 14:33.00 | 2:55.12 | 65475 | 78611
6 | 17:28.12 | 4:56.15 | 78612 | 100826
7 | 22:24.27 | 3:25.18 | 100827 | 116219
8 | 25:49.45 | 3:42.17 | 116220 | 132886
9 | 29:31.62 | 3:42.55 | 132887 | 149591
10 | 33:14.42 | 3:40.50 | 149592 | 166141
11 | 36:55.17 | 3:13.08 | 166142 | 180624
Range status and errors
Selected range
Filename D:\EAC\Motorhead - Bomber\Motorhead - Bomber.wav
Peak level 88.2 %
Extraction speed 3.6 X
Range quality 99.9 %
Test CRC D53F5001
Copy CRC D53F5001
Copy OK
No errors occurred
AccurateRip summary
Track 1 not present in database
Track 2 not present in database
Track 3 not present in database
Track 4 not present in database
Track 5 not present in database
Track 6 not present in database
Track 7 not present in database
Track 8 not present in database
Track 9 not present in database
Track 10 not present in database
Track 11 not present in database
None of the tracks are present in the AccurateRip database
End of status report

1979-Bomber (1996, UK, Castle, ESM CD 311) (Remastered)

Страна-производитель диска: UK
Год издания диска: 1996
Издатель (лейбл): Castle Communication plc.
Номер по каталогу: ESM CD 311
Аудио кодек: FLAC (*.flac)
Тип рипа: image+.cue
Битрейт аудио: lossless
Продолжительность: 0:55:01
Источник: unclesandy
Наличие сканов в содержимом раздачи: да (JPG 300dpi)
Треклист:
1. Dead Men Tell No Tales - 3:07
2. Lawman - 4:03
3. Sweet Revenge - 4:11
4. Sharpshooter - 3:19
5. Poison - 2:54
6. Stone Dead Forever - 4:55
7. All The Aces - 3:25
8. Step Down - 3:41
9. Talking Head - 3:41
10. Bomber - 3:44
11. Over The Top (B-Side Of Bomber) (Bonus Track) - 3:22
12. Leaving Here (Live) (Bonus Track) - 3:02
13. Stone Dead Forever (Live) (Bonus Track) - 5:21
14. Dead Men Tell No Tales (Live) (Bonus Track) - 2:55
15. Too Late, Too Late (Live) (Bonus Track) - 3:22

Лог создания рипа

Exact Audio Copy V1.0 beta 3 from 29. August 2011
EAC extraction logfile from 15. November 2013, 20:55
Motorhead / Bomber (1996, UK, Castle, ESM CD 311)
Used drive : PIONEER DVD-RW DVR-219L Adapter: 1 ID: 0
Read mode : Secure
Utilize accurate stream : Yes
Defeat audio cache : Yes
Make use of C2 pointers : No
Read offset correction : 6
Overread into Lead-In and Lead-Out : No
Fill up missing offset samples with silence : Yes
Delete leading and trailing silent blocks : No
Null samples used in CRC calculations : Yes
Used interface : Native Win32 interface for Win NT & 2000
Used output format : Internal WAV Routines
Sample format : 44.100 Hz; 16 Bit; Stereo
TOC of the extracted CD
Track | Start | Length | Start sector | End sector
---------------------------------------------------------
1 | 0:00.00 | 3:07.17 | 0 | 14041
2 | 3:07.17 | 4:03.15 | 14042 | 32281
3 | 7:10.32 | 4:10.48 | 32282 | 51079
4 | 11:21.05 | 3:19.15 | 51080 | 66019
5 | 14:40.20 | 2:54.37 | 66020 | 79106
6 | 17:34.57 | 4:54.45 | 79107 | 101201
7 | 22:29.27 | 3:24.63 | 101202 | 116564
8 | 25:54.15 | 3:41.30 | 116565 | 133169
9 | 29:35.45 | 3:40.55 | 133170 | 149724
10 | 33:16.25 | 3:43.40 | 149725 | 166489
11 | 36:59.65 | 3:21.67 | 166490 | 181631
12 | 40:21.57 | 3:02.10 | 181632 | 195291
13 | 43:23.67 | 5:20.38 | 195292 | 219329
14 | 48:44.30 | 2:54.72 | 219330 | 232451
15 | 51:39.27 | 3:21.50 | 232452 | 247576
Range status and errors
Selected range
Filename D:\CDRip for Unclesandy\Motorhead - Bomber (1996, UK, Castle, ESM CD 311).wav
Peak level 99.2 %
Extraction speed 7.1 X
Range quality 100.0 %
Test CRC 6CD7DA99
Copy CRC 6CD7DA99
Copy OK
No errors occurred
AccurateRip summary
Track 1 accurately ripped (confidence 6) [386BBB7D] (AR v2)
Track 2 accurately ripped (confidence 6) [2A176AC3] (AR v2)
Track 3 accurately ripped (confidence 6) [16C65DB7] (AR v2)
Track 4 accurately ripped (confidence 6) [09486007] (AR v2)
Track 5 accurately ripped (confidence 6) [CD681319] (AR v2)
Track 6 accurately ripped (confidence 6) [23D27266] (AR v2)
Track 7 accurately ripped (confidence 6) [BEEF23AF] (AR v2)
Track 8 accurately ripped (confidence 6) [02873905] (AR v2)
Track 9 accurately ripped (confidence 6) [A6E34686] (AR v2)
Track 10 accurately ripped (confidence 6) [B1232C6E] (AR v2)
Track 11 accurately ripped (confidence 6) [2B865D7E] (AR v2)
Track 12 accurately ripped (confidence 6) [A981FF27] (AR v2)
Track 13 accurately ripped (confidence 6) [2925DC3A] (AR v2)
Track 14 accurately ripped (confidence 6) [D5C2BB76] (AR v2)
Track 15 accurately ripped (confidence 6) [5F022F69] (AR v2)
All tracks accurately ripped
End of status report
---- CUETools DB Plugin V2.1.4
[CTDB TOCID: yvWDr.Z.VgeLE6p9MeC.Y7rw0Zw-] found
Submit result: yvWDr.Z.VgeLE6p9MeC.Y7rw0Zw- has been confirmed
Track | CTDB Status
1 | (49/51) Accurately ripped
2 | (49/51) Accurately ripped
3 | (49/51) Accurately ripped
4 | (49/51) Accurately ripped
5 | (49/51) Accurately ripped
6 | (49/51) Accurately ripped
7 | (49/51) Accurately ripped
8 | (49/51) Accurately ripped
9 | (49/51) Accurately ripped
10 | (49/51) Accurately ripped
11 | (49/51) Accurately ripped
12 | (49/51) Accurately ripped
13 | (48/51) Accurately ripped
14 | (49/51) Accurately ripped
15 | (49/51) Accurately ripped
==== Log checksum 5BB6C9038C2B9E367E20E47F0F04DBAD62BEC66B055A35C5AD36359F366599B5 ====

1979-Bomber (2005, USA, Sanctuary, 06076-86402-2, 2CD) (Remastered)

Страна-производитель диска: USA
Год издания диска: 2005
Издатель (лейбл): Sanctuary Records Group Ltd.
Номер по каталогу: 06076-86402-2
Аудио кодек: FLAC (*.flac)
Тип рипа: image+.cue
Битрейт аудио: lossless
Продолжительность: 0:37:06 + 0:36:44
Источник: Deminbek
Наличие сканов в содержимом раздачи: да (JPG 300dpi)
CD1 Треклист:
1. Dead Men Tell No Tales - 3:05
2. Lawman - 3:56
3. Sweet Revenge - 4:14
4. Sharpshooter - 3:18
5. Poison - 2:56
6. Stone Dead Forever - 4:56
7. All The Aces - 3:25
8. Step Down - 3:42
9. Talking Head - 3:43
10. Bomber - 3:50
CD2 Треклист:
1. Over The Top (7" Single B-Side) - 3:21
2. Stone Dead Forever (Alternative Version) - 4:34
3. Sharpshooter (Alternative Version) - 3:17
4. Bomber (Alternative Version) - 3:35
5. Step Down (Alternative Version) - 3:29
6. Leaving Here (Live) - 3:02
7. Stone Dead Forever (Live) - 5:31
8. Dead Men Tell No Tales (Live) - 2:44
9. Too Late Too Late (Live) - 3:21
10. Step Down (Live) - 3:49

Лог создания рипа

Exact Audio Copy V1.0 beta 1 from 15. November 2010
EAC extraction logfile from 18. January 2011, 21:51
Motorhead / Bomber
Used drive : PIONEER DVD-RW DVR-112D Adapter: 1 ID: 0
Read mode : Secure
Utilize accurate stream : Yes
Defeat audio cache : Yes
Make use of C2 pointers : No
Read offset correction : 48
Overread into Lead-In and Lead-Out : No
Fill up missing offset samples with silence : Yes
Delete leading and trailing silent blocks : No
Null samples used in CRC calculations : Yes
Used interface : Installed external ASPI interface
Used output format : User Defined Encoder
Selected bitrate : 1024 kBit/s
Quality : High
Add ID3 tag : No
Command line compressor : C:\Program Files\Exact Audio Copy\FLAC\FLAC.EXE
Additional command line options : -8 -V %s
TOC of the extracted CD
Track | Start | Length | Start sector | End sector
---------------------------------------------------------
1 | 0:00.00 | 3:05.27 | 0 | 13901
2 | 3:05.27 | 3:56.23 | 13902 | 31624
3 | 7:01.50 | 4:14.21 | 31625 | 50695
4 | 11:15.71 | 3:18.14 | 50696 | 65559
5 | 14:34.10 | 2:55.46 | 65560 | 78730
6 | 17:29.56 | 4:56.31 | 78731 | 100961
7 | 22:26.12 | 3:25.21 | 100962 | 116357
8 | 25:51.33 | 3:42.35 | 116358 | 133042
9 | 29:33.68 | 3:42.55 | 133043 | 149747
10 | 33:16.48 | 3:49.48 | 149748 | 166970
Range status and errors
Selected range
Filename C:\CDRip by Deminbek\Motorhead - Bomber [Sanctuary 06076-86402-2].wav
Peak level 98.8 %
Extraction speed 0.6 X
Range quality 100.0 %
Test CRC CB2650E8
Copy CRC CB2650E8
Copy OK
No errors occurred
AccurateRip summary
Track 1 accurately ripped (confidence 13) [40F9FA7A]
Track 2 accurately ripped (confidence 13) [DDE9E683]
Track 3 accurately ripped (confidence 13) [129FA723]
Track 4 accurately ripped (confidence 13) [3F47404F]
Track 5 accurately ripped (confidence 13) [6355C7D1]
Track 6 accurately ripped (confidence 13) [102BFD49]
Track 7 accurately ripped (confidence 13) [6D498D0B]
Track 8 accurately ripped (confidence 13) [046FD481]
Track 9 accurately ripped (confidence 13) [1FAC2C08]
Track 10 accurately ripped (confidence 13) [B012242F]
All tracks accurately ripped
End of status report
==== Log checksum D356691F6FB03623CEC4426B0813D6B538A1F49774A0FDA4CA52A089727BD5E8 ====
=======================================================================================
Exact Audio Copy V1.0 beta 1 from 15. November 2010
EAC extraction logfile from 18. January 2011, 22:05
Motorhead / Bomber (Deluxe Edition, Disc 2)
Used drive : PIONEER DVD-RW DVR-112D Adapter: 1 ID: 0
Read mode : Secure
Utilize accurate stream : Yes
Defeat audio cache : Yes
Make use of C2 pointers : No
Read offset correction : 48
Overread into Lead-In and Lead-Out : No
Fill up missing offset samples with silence : Yes
Delete leading and trailing silent blocks : No
Null samples used in CRC calculations : Yes
Used interface : Installed external ASPI interface
Used output format : User Defined Encoder
Selected bitrate : 1024 kBit/s
Quality : High
Add ID3 tag : No
Command line compressor : C:\Program Files\Exact Audio Copy\FLAC\FLAC.EXE
Additional command line options : -8 -V %s
TOC of the extracted CD
Track | Start | Length | Start sector | End sector
---------------------------------------------------------
1 | 0:00.00 | 3:20.56 | 0 | 15055
2 | 3:20.56 | 4:34.23 | 15056 | 35628
3 | 7:55.04 | 3:16.64 | 35629 | 50392
4 | 11:11.68 | 3:35.23 | 50393 | 66540
5 | 14:47.16 | 3:29.06 | 66541 | 82221
6 | 18:16.22 | 3:02.23 | 82222 | 95894
7 | 21:18.45 | 5:31.06 | 95895 | 120725
8 | 26:49.51 | 2:44.12 | 120726 | 133037
9 | 29:33.63 | 3:20.51 | 133038 | 148088
10 | 32:54.39 | 3:49.13 | 148089 | 165276
Range status and errors
Selected range
Filename C:\CDRip by Deminbek\Motorhead - Bomber (Deluxe Edition, Disc 2).wav
Peak level 98.8 %
Extraction speed 0.6 X
Range quality 100.0 %
Test CRC 88661E52
Copy CRC 88661E52
Copy OK
No errors occurred
AccurateRip summary
Track 1 accurately ripped (confidence 9) [6D305961]
Track 2 accurately ripped (confidence 8) [F06EF392]
Track 3 accurately ripped (confidence 8) [54923376]
Track 4 accurately ripped (confidence 8) [59289443]
Track 5 accurately ripped (confidence 8) [CC2A7399]
Track 6 accurately ripped (confidence 8) [2F6F257E]
Track 7 accurately ripped (confidence 8) [18BC9954]
Track 8 accurately ripped (confidence 8) [FBB06850]
Track 9 accurately ripped (confidence 8) [0B7B1F11]
Track 10 accurately ripped (confidence 8) [E5A56C6F]
All tracks accurately ripped
End of status report
==== Log checksum 841474CEE490F84B6583C3D1416612F63ACE9BBA536C3F1D1C5D6D1175960705 ====

1979-Bomber (2007, Japan, BMG, BVCM-37961) (Remastered)

Страна-производитель диска: Japn
Год издания диска: 2007
Издатель (лейбл): BMG Japan Inc.
Номер по каталогу: BVCM-37961
Аудио кодек: FLAC (*.flac)
Тип рипа: image+.cue
Битрейт аудио: lossless
Продолжительность: 1:13:45
Источник: Igor191965
Наличие сканов в содержимом раздачи: да (JPG 300dpi)
Треклист:
1. Dead Men Tell No Tales - 3:06
2. Lawman - 3:56
3. Sweet Revenge - 4:14
4. Sharpshooter - 3:18
5. Poison - 2:56
6. Stone Dead Forever - 4:56
7. All The Aces - 3:25
8. Step Down - 3:42
9. Talking Head - 3:43
10. Bomber - 3:46
11. Over The Top (7" Single B-Side) (Bonus Track) - 3:20
12. Stone Dead Forever (Alternative Version) (Bonus Track) - 4:34
13. Sharpshooter (Alternative Version) (Bonus Track) - 3:17
14. Bomber (Alternative Version) (Bonus Track) - 3:35
15. Step Down (Alternative Version) (Bonus Track) - 3:29
16. Leaving Here (From Golden Years Live EP) (Bonus Track) - 3:02
17. Stone Dead Forever (From Golden Years Live EP) (Bonus Track) - 5:31
18. Dead Men Tell No Tales (From Golden Years Live EP) (Bonus Track) - 2:44
19. Too Late, Too Late (From Golden Years Live EP) (Bonus Track) - 3:21
20. Step Down (From Golden Years Live EP) (Bonus Track) - 3:49

Лог создания рипа

Exact Audio Copy V0.99 prebeta 4 from 23. January 2008
Отчёт EAC об извлечении, выполненном 21. апреля 2008, 12:59
Motorhead / Bomber (JVC K2 24-Bit Japanese BVCM-37961)
Дисковод: PLEXTOR DVDR PX-716A Adapter: 3 ID: 0
Режим чтения : Достоверность
Использование точного потока : Да
Отключение кэша аудио : Да
Использование указателей C2 : Нет
Коррекция смещения при чтении : 30
Способность читать области Lead-in и Lead-out : Да
Заполнение пропущенных сэмплов тишиной : Да
Удаление блоков с тишиной в начале и конце : Нет
При вычислениях CRC использовались нулевые сэмплы : Нет
Интерфейс : Установленный внешний ASPI-интерфейс
Выходной формат : Пользовательский кодировщик
Выбранный битрейт : 32 kBit/s
Качество : Высокий
Добавление ID3-тэга : Да
Утилита сжатия : C:\Program Files\Audio\Exact Audio Copy 099pb4\Flac\flac.exe
Дополнительные параметры : -6 -V -T "artist=%a" -T "title=%t" -T "album=%g" -T "date=%y" -T "tracknumber=%n" -T "genre=%m" -T "comment=EAC v0.99pb4 / FLAC 1.2.1 q6" %s
TOC извлечённого CD
Трек | Старт | Длительность | Начальный сектор | Конечный сектор
---------------------------------------------------------------------
1 | 0:00.00 | 3:05.39 | 0 | 13913
2 | 3:05.39 | 3:56.01 | 13914 | 31614
3 | 7:01.40 | 4:14.31 | 31615 | 50695
4 | 11:15.71 | 3:18.13 | 50696 | 65558
5 | 14:34.09 | 2:55.46 | 65559 | 78729
6 | 17:29.55 | 4:56.30 | 78730 | 100959
7 | 22:26.10 | 3:25.22 | 100960 | 116356
8 | 25:51.32 | 3:42.35 | 116357 | 133041
9 | 29:33.67 | 3:42.55 | 133042 | 149746
10 | 33:16.47 | 3:46.26 | 149747 | 166722
11 | 37:02.73 | 3:20.04 | 166723 | 181726
12 | 40:23.02 | 4:34.28 | 181727 | 202304
13 | 44:57.30 | 3:16.63 | 202305 | 217067
14 | 48:14.18 | 3:35.23 | 217068 | 233215
15 | 51:49.41 | 3:29.07 | 233216 | 248897
16 | 55:18.48 | 3:02.08 | 248898 | 262555
17 | 58:20.56 | 5:31.15 | 262556 | 287395
18 | 63:51.71 | 2:43.66 | 287396 | 299686
19 | 66:35.62 | 3:20.74 | 299687 | 314760
20 | 69:56.61 | 3:48.51 | 314761 | 331911
Характеристики диапазона извлечения и сообщения об ошибках
Выбранный диапазон
Имя файла F:\CDImage\Motorhead 79.2_Japanese\CDImage.wav
Пиковый уровень 100.0 %
Качество диапазона 100.0 %
CRC копии 9E1E0BF2
Копирование... OK
Ошибок не произошло
Конец отчёта

1979-On Parole

1979-On Parole (1990, UK, EMI, CD-FA 3251)

Страна-производитель диска: UK
Год издания диска: 1990
Издатель (лейбл): EMI Records Ltd.
Номер по каталогу: CD-FA 3251 (CDM 7 92067 2)
Аудио кодек: FLAC (*.flac)
Тип рипа: image+.cue
Битрейт аудио: lossless
Продолжительность: 37:44
Источник: SHI (MMT)
Наличие сканов в содержимом раздачи: да (JPG 300dpi)
Треклист:
1. Motorhead - 2:53
2. On Parole - 5:41
3. Vibrator - 2:57
4. Iron Horse / Born To Lose - 5:21
5. City Kids - 3:46
6. Fools - 5:43
7. The Watcher - 4:52
8. Leaving Here - 2:58
9. Lost Johnny - 3:32

Лог создания рипа

Exact Audio Copy V1.0 beta 2 from 29. April 2011
EAC extraction logfile from 19. July 2011, 12:42
Motorhead / On Parole
Used drive : HL-DT-STDVDRAM GT20N Adapter: 0 ID: 0
Read mode : Secure
Utilize accurate stream : Yes
Defeat audio cache : Yes
Make use of C2 pointers : No
Read offset correction : 667
Overread into Lead-In and Lead-Out : No
Fill up missing offset samples with silence : Yes
Delete leading and trailing silent blocks : No
Null samples used in CRC calculations : Yes
Used interface : Installed external ASPI interface
Used output format : Internal WAV Routines
Sample format : 44.100 Hz; 16 Bit; Stereo
TOC of the extracted CD
Track | Start | Length | Start sector | End sector
---------------------------------------------------------
1 | 0:00.33 | 2:53.27 | 33 | 13034
2 | 2:53.60 | 5:40.48 | 13035 | 38582
3 | 8:34.33 | 2:57.27 | 38583 | 51884
4 | 11:31.60 | 5:21.03 | 51885 | 75962
5 | 16:52.63 | 3:45.52 | 75963 | 92889
6 | 20:38.40 | 5:42.68 | 92890 | 118607
7 | 26:21.33 | 4:52.32 | 118608 | 140539
8 | 31:13.65 | 2:58.13 | 140540 | 153902
9 | 34:12.03 | 3:32.15 | 153903 | 169817
Range status and errors
Selected range
Filename D:\EAC\Motorhead - On Parole\Motorhead - On Parole.wav
Peak level 88.5 %
Extraction speed 3.6 X
Range quality 99.9 %
Test CRC 77F1CB7C
Copy CRC 77F1CB7C
Copy OK
No errors occurred
AccurateRip summary
Track 1 accurately ripped (confidence 7) [00715456] (AR v1)
Track 2 accurately ripped (confidence 6) [1C22FD41] (AR v1)
Track 3 accurately ripped (confidence 7) [783143B3] (AR v1)
Track 4 accurately ripped (confidence 7) [3B02D26D] (AR v1)
Track 5 accurately ripped (confidence 7) [94269563] (AR v1)
Track 6 accurately ripped (confidence 6) [27CFD69D] (AR v1)
Track 7 accurately ripped (confidence 7) [8AFCA771] (AR v1)
Track 8 accurately ripped (confidence 7) [DB467F47] (AR v1)
Track 9 accurately ripped (confidence 7) [6D103342] (AR v1)
All tracks accurately ripped
End of status report

1979-On Parole (1997, UK, EMI, 7243 8 54794 2 7) (Remastered)

Страна-производитель диска: UK
Год издания диска: 1997
Издатель (лейбл): EMI Records Ltd.
Номер по каталогу:
Аудио кодек: FLAC (*.flac)
Тип рипа: image+.cue
Битрейт аудио: lossless
Продолжительность: 7243 8 54794 2 7
Источник: unclesandy
Наличие сканов в содержимом раздачи: да (JPG 300dpi)
Треклист:
1. Motorhead - 2:50
2. On Parole - 5:38
3. Vibrator - 2:52
4. Iron Horse / Born To Lose - 5:15
5. City Kids - 3:43
6. The Watcher - 4:47
7. Leaving Here - 2:54
8. Lost Johnny - 3:30
9. Fools - 5:35
10. On Parole (Alternate Take) - 6:58
11. City Kids (Alternate Take) - 3:48
12. Motorhead (Alternate Take) - 2:48
13. Leaving Here (Alternate Take) - 3:01

Лог создания рипа

Exact Audio Copy V1.0 beta 3 from 29. August 2011
EAC extraction logfile from 15. November 2013, 20:15
Motorhead / On Parole (1997, UK, EMI, 7243 8 54794 2 7)
Used drive : PIONEER DVD-RW DVR-219L Adapter: 1 ID: 0
Read mode : Secure
Utilize accurate stream : Yes
Defeat audio cache : Yes
Make use of C2 pointers : No
Read offset correction : 6
Overread into Lead-In and Lead-Out : No
Fill up missing offset samples with silence : Yes
Delete leading and trailing silent blocks : No
Null samples used in CRC calculations : Yes
Used interface : Native Win32 interface for Win NT & 2000
Used output format : Internal WAV Routines
Sample format : 44.100 Hz; 16 Bit; Stereo
TOC of the extracted CD
Track | Start | Length | Start sector | End sector
---------------------------------------------------------
1 | 0:00.33 | 2:49.57 | 33 | 12764
2 | 2:50.15 | 5:37.68 | 12765 | 38107
3 | 8:28.08 | 2:52.30 | 38108 | 51037
4 | 11:20.38 | 5:14.50 | 51038 | 74637
5 | 16:35.13 | 3:43.07 | 74638 | 91369
6 | 20:18.20 | 4:46.45 | 91370 | 112864
7 | 25:04.65 | 2:53.70 | 112865 | 125909
8 | 27:58.60 | 3:30.08 | 125910 | 141667
9 | 31:28.68 | 5:35.22 | 141668 | 166814
10 | 37:04.15 | 6:57.53 | 166815 | 198142
11 | 44:01.68 | 3:47.60 | 198143 | 215227
12 | 47:49.53 | 2:48.02 | 215228 | 227829
13 | 50:37.55 | 3:01.23 | 227830 | 241427
Range status and errors
Selected range
Filename D:\CDRip for Unclesandy\Motorhead - On Parole (1997, UK, EMI, 7243 8 54794 2 7).wav
Peak level 99.2 %
Extraction speed 7.1 X
Range quality 100.0 %
Test CRC 6213C98D
Copy CRC 6213C98D
Copy OK
No errors occurred
AccurateRip summary
Track 1 accurately ripped (confidence 23) [4C49A66F] (AR v2)
Track 2 accurately ripped (confidence 23) [CD75F6DE] (AR v2)
Track 3 accurately ripped (confidence 23) [60FD22D6] (AR v2)
Track 4 accurately ripped (confidence 23) [122DFED2] (AR v2)
Track 5 accurately ripped (confidence 23) [72FB8962] (AR v2)
Track 6 accurately ripped (confidence 23) [2DFED14B] (AR v2)
Track 7 accurately ripped (confidence 23) [0586BE0B] (AR v2)
Track 8 accurately ripped (confidence 23) [BD389CA4] (AR v2)
Track 9 accurately ripped (confidence 23) [C21D0683] (AR v2)
Track 10 accurately ripped (confidence 23) [4BE2F428] (AR v2)
Track 11 accurately ripped (confidence 23) [4B859301] (AR v2)
Track 12 accurately ripped (confidence 23) [9BDAD80F] (AR v2)
Track 13 accurately ripped (confidence 22) [262BECA2] (AR v2)
All tracks accurately ripped
End of status report
---- CUETools DB Plugin V2.1.4
[CTDB TOCID: htXL5FQA3vJsd6DqF1eADFmlcEU-] found
Submit result: htXL5FQA3vJsd6DqF1eADFmlcEU- has been confirmed
Track | CTDB Status
1 | (2/2) Accurately ripped
2 | (2/2) Accurately ripped
3 | (2/2) Accurately ripped
4 | (2/2) Accurately ripped
5 | (2/2) Accurately ripped
6 | (2/2) Accurately ripped
7 | (2/2) Accurately ripped
8 | (2/2) Accurately ripped
9 | (2/2) Accurately ripped
10 | (2/2) Accurately ripped
11 | (2/2) Accurately ripped
12 | (2/2) Accurately ripped
13 | (2/2) Accurately ripped
==== Log checksum 8AFB514F4879EA242D3B8050C6A28FA3277FC89D795C9E80C7E063C80A16B491 ====

1980-Ace Of Spades

1980-Ace Of Spades (1987, UK, Legacy, LLMCD3013)

Страна-производитель диска: UK
Год издания диска: 1987
Издатель (лейбл): Legacy Records Ltd.
Номер по каталогу: LLMCD3013
Аудио кодек: FLAC (*.flac)
Тип рипа: image+.cue
Битрейт аудио: lossless
Продолжительность: 0:36:39
Источник: V3nom
Наличие сканов в содержимом раздачи: да (не полный комплект) (JPG 300dpi)
Треклист:
1. Ace Of Spades - 2:48
2. Love Me Like A Reptile - 3:24
3. Shoot You In The Back - 2:40
4. Live To Win - 3:38
5. Fast And Loose - 3:22
6. (We Are) The Road Crew - 3:12
7. Fire, Fire - 2:42
8. Jailbait - 3:33
9. Dance - 2:38
10. Bite The Bullet - 1:38
11. The Chase Is Better Than The Catch - 4:18
12. The Hammer - 2:46

Лог создания рипа

Exact Audio Copy V0.99 prebeta 4 from 23. January 2008
EAC extraction logfile from 27. June 2008, 15:25
Motorhead / Ace Of Spades
Used drive : PLEXTOR DVDR PX-716A Adapter: 3 ID: 0
Read mode : Secure
Utilize accurate stream : Yes
Defeat audio cache : Yes
Make use of C2 pointers : No
Read offset correction : 30
Overread into Lead-In and Lead-Out : Yes
Fill up missing offset samples with silence : Yes
Delete leading and trailing silent blocks : No
Null samples used in CRC calculations : Yes
Used interface : Native Win32 interface for Win NT & 2000
Used output format : User Defined Encoder
Selected bitrate : 32 kBit/s
Quality : High
Add ID3 tag : No
Command line compressor : C:\Program Files\FLAC\flac.exe
Additional command line options : -8 -V -T "ARTIST=%a" -T "TITLE=%t" -T "ALBUM=%g" -T "DATE=%y" -T "TRACKNUMBER=%n" -T "GENRE=%m" -T "COMMENT=%e" %s -o %d
TOC of the extracted CD
Track | Start | Length | Start sector | End sector
---------------------------------------------------------
1 | 0:00.65 | 2:48.27 | 65 | 12691
2 | 2:49.17 | 3:23.63 | 12692 | 27979
3 | 6:13.05 | 2:39.57 | 27980 | 39961
4 | 8:52.62 | 3:37.38 | 39962 | 56274
5 | 12:30.25 | 3:22.30 | 56275 | 71454
6 | 15:52.55 | 3:12.12 | 71455 | 85866
7 | 19:04.67 | 2:42.30 | 85867 | 98046
8 | 21:47.22 | 3:33.18 | 98047 | 114039
9 | 25:20.40 | 2:37.47 | 114040 | 125861
10 | 27:58.12 | 1:38.00 | 125862 | 133211
11 | 29:36.12 | 4:17.60 | 133212 | 152546
12 | 33:53.72 | 2:46.30 | 152547 | 165026
Range status and errors
Selected range
Filename D:\[FLAC] Motorhead - Ace Of Spades (LLMCD 3013) [UK]\Motorhead - Ace Of Spades.wav
Peak level 100.0 %
Range quality 99.9 %
Copy CRC C9488E1E
Copy OK
No errors occurred
AccurateRip summary
Track 1 accurately ripped (confidence 5) [0DEE05ED]
Track 2 accurately ripped (confidence 5) [6C1909DD]
Track 3 accurately ripped (confidence 4) [0846E30F]
Track 4 accurately ripped (confidence 4) [7FC0E962]
Track 5 accurately ripped (confidence 4) [6CE371E5]
Track 6 accurately ripped (confidence 5) [5901AA66]
Track 7 accurately ripped (confidence 5) [27854742]
Track 8 accurately ripped (confidence 4) [B21331B0]
Track 9 accurately ripped (confidence 4) [D17F48F9]
Track 10 accurately ripped (confidence 4) [72AF8D92]
Track 11 accurately ripped (confidence 4) [06C71E06]
Track 12 accurately ripped (confidence 5) [E86769A8]
All tracks accurately ripped
End of status report

1980-Ace Of Spades (1989, Germany, Bronze, 252 876)

Страна-производитель диска: Germany
Год издания диска: 1989
Издатель (лейбл): Bronze/BMG Ariola Munchen GmbH
Номер по каталогу: 252 876
Аудио кодек: FLAC (*.flac)
Тип рипа: image+.cue
Битрейт аудио: lossless
Продолжительность: 0:36:21
Источник: havefun6699
Наличие сканов в содержимом раздачи: да (не полный комплект) (JPG 300dpi)
Треклист:
1. Ace Of Spades - 2:46
2. Love Me Like A Reptile - 3:21
3. Shoot You In The Back - 2:38
4. Live To Win - 3:36
5. Fast And Loose - 3:21
6. (We Are) The Road Crew - 3:11
7. Fire Fire - 2:42
8. Jailbait - 3:31
9. Dance - 2:36
10. Bite The Bullet - 1:37
11. The Chase Is Better Than The Catch - 4:15
12. The Hammer - 2:46

Лог создания рипа

Exact Audio Copy V1.0 beta 2 from 29. April 2011
Отчёт EAC об извлечении, выполненном 11. декабря 2012, 12:57
Motorhead / Ace Of Spades
Дисковод: MATSHITADVD-RAM UJ8B1AS Adapter: 0 ID: 1
Режим чтения : Достоверность
Использование точного потока : Да
Отключение кэша аудио : Да
Использование указателей C2 : Нет
Коррекция смещения при чтении : 6
Способность читать области Lead-in и Lead-out : Нет
Заполнение пропущенных сэмплов тишиной : Да
Удаление блоков с тишиной в начале и конце : Нет
При вычислениях CRC использовались нулевые сэмплы : Да
Интерфейс : Встроенный Win32-интерфейс для Win NT/2000
Выходной формат : Пользовательский кодировщик
Выбранный битрейт : 768 kBit/s
Качество : Высокий
Добавление ID3-тега : Нет
Утилита сжатия : C:\Program Files (x86)\Exact Audio Copy\FLAC\FLAC.EXE
Дополнительные параметры : -6 -V -T "ARTIST=%artist%" -T "TITLE=%title%" -T "ALBUM=%albumtitle%" -T "DATE=%year%" -T "TRACKNUMBER=%tracknr%" -T "GENRE=%genre%" -T "COMMENT=%comment%" -T "BAND=%albuminterpret%" -T "COMPOSER=%composer%" %haslyrics%--tag-from-
TOC извлечённого CD
Трек | Старт | Длительность | Начальный сектор | Конечный сектор
---------------------------------------------------------------------
1 | 0:00.33 | 2:46.22 | 33 | 12504
2 | 2:46.55 | 3:21.35 | 12505 | 27614
3 | 6:08.15 | 2:38.03 | 27615 | 39467
4 | 8:46.18 | 3:35.40 | 39468 | 55632
5 | 12:21.58 | 3:20.57 | 55633 | 70689
6 | 15:42.40 | 3:11.25 | 70690 | 85039
7 | 18:53.65 | 2:42.28 | 85040 | 97217
8 | 21:36.18 | 3:30.70 | 97218 | 113037
9 | 25:07.13 | 2:36.07 | 113038 | 124744
10 | 27:43.20 | 1:37.33 | 124745 | 132052
11 | 29:20.53 | 4:14.60 | 132053 | 151162
12 | 33:35.38 | 2:45.42 | 151163 | 163579
Характеристики диапазона извлечения и сообщения об ошибках
Выбранный диапазон
Имя файла D:\Gh@nz\Motorhead - Ace of Spades 252 876\Motorhead - Ace Of Spades.wav
Пиковый уровень 100.0 %
Скорость извлечения 1.8 X
Качество диапазона 100.0 %
CRC копии A8115350
Копирование... OK
Ошибок не произошло
AccurateRip: сводка
Трек 1 : извлечено точно (доверие 9) [B708339F] (AR v1)
Трек 2 : извлечено точно (доверие 9) [5F46BCCA] (AR v1)
Трек 3 : извлечено точно (доверие 10) [EF78AD8B] (AR v1)
Трек 4 : извлечено точно (доверие 8) [3B6AC021] (AR v1)
Трек 5 : извлечено точно (доверие 9) [FDCAEB1A] (AR v1)
Трек 6 : извлечено точно (доверие 10) [9AEBFD16] (AR v1)
Трек 7 : извлечено точно (доверие 9) [35B5710E] (AR v1)
Трек 8 : извлечено точно (доверие 9) [E7130234] (AR v1)
Трек 9 : извлечено точно (доверие 10) [C6805F1F] (AR v1)
Трек 10 : извлечено точно (доверие 10) [08B83D49] (AR v1)
Трек 11 : извлечено точно (доверие 10) [575C074E] (AR v1)
Трек 12 : извлечено точно (доверие 10) [87E4E368] (AR v1)
Все треки извлечены точно
Конец отчёта
==== Контрольная сумма отчёта 7BA923460C74BD7D882714A451FD13509094F98A158D2E50259E7790C57595B2 ====

1980-Ace Of Spades (1989, Japan, Teichiku, 18DN-56)

Страна-производитель диска: Japan
Год издания диска: 1989
Издатель (лейбл): Techiku Records Co., Ltd
Номер по каталогу: 18DN-56
Аудио кодек: FLAC (*.flac)
Тип рипа: image+.cue
Битрейт аудио: lossless
Продолжительность: 0:36:40
Источник: SHI (MMT)
Наличие сканов в содержимом раздачи: да (PNG 300dpi)
Треклист:
1. Ace Of Spades - 2:48
2. Love Me Like A Reptile - 3:24
3. Shoot You In The Back - 2:40
4. Live To Win - 3:38
5. Fast And Loose - 3:22
6. (We Are) The Road Crew - 3:12
7. Fire, Fire - 2:42
8. Jailbait - 3:33
9. Dance - 2:38
10. Bite The Bullet - 1:38
11. The Chase Is Better Than The Catch - 4:18
12. The Hammer - 2:47

Лог создания рипа

Exact Audio Copy V1.0 beta 2 from 29. April 2011
EAC extraction logfile from 21. July 2011, 14:58
Motorhead / Ace Of Spades
Used drive : HL-DT-STDVDRAM GT20N Adapter: 0 ID: 0
Read mode : Secure
Utilize accurate stream : Yes
Defeat audio cache : Yes
Make use of C2 pointers : No
Read offset correction : 667
Overread into Lead-In and Lead-Out : No
Fill up missing offset samples with silence : Yes
Delete leading and trailing silent blocks : No
Null samples used in CRC calculations : Yes
Used interface : Installed external ASPI interface
Used output format : Internal WAV Routines
Sample format : 44.100 Hz; 16 Bit; Stereo
TOC of the extracted CD
Track | Start | Length | Start sector | End sector
---------------------------------------------------------
1 | 0:00.00 | 2:48.12 | 0 | 12611
2 | 2:48.12 | 3:23.55 | 12612 | 27891
3 | 6:11.67 | 2:39.60 | 27892 | 39876
4 | 8:51.52 | 3:37.45 | 39877 | 56196
5 | 12:29.22 | 3:22.23 | 56197 | 71369
6 | 15:51.45 | 3:12.25 | 71370 | 85794
7 | 19:03.70 | 2:42.30 | 85795 | 97974
8 | 21:46.25 | 3:33.00 | 97975 | 113949
9 | 25:19.25 | 2:37.50 | 113950 | 125774
10 | 27:57.00 | 1:38.05 | 125775 | 133129
11 | 29:35.05 | 4:17.40 | 133130 | 152444
12 | 33:52.45 | 2:47.30 | 152445 | 164999
Range status and errors
Selected range
Filename D:\EAC\Motorhead - Ace Of Spades\Motorhead - Ace Of Spades.wav
Peak level 100.0 %
Extraction speed 3.7 X
Range quality 100.0 %
Test CRC 5FE3239C
Copy CRC 5FE3239C
Copy OK
No errors occurred
AccurateRip summary
Track 1 accurately ripped (confidence 3) [4CD0BBEE] (AR v1)
Track 2 accurately ripped (confidence 3) [E3D100D9] (AR v1)
Track 3 accurately ripped (confidence 3) [55AFB4E1] (AR v1)
Track 4 accurately ripped (confidence 3) [C6A12D38] (AR v1)
Track 5 accurately ripped (confidence 3) [4329C698] (AR v1)
Track 6 accurately ripped (confidence 3) [81DFAD6D] (AR v1)
Track 7 accurately ripped (confidence 3) [86E568FB] (AR v1)
Track 8 accurately ripped (confidence 3) [3F8E21D4] (AR v1)
Track 9 accurately ripped (confidence 3) [70984489] (AR v1)
Track 10 accurately ripped (confidence 3) [297251BF] (AR v1)
Track 11 accurately ripped (confidence 3) [101535FE] (AR v1)
Track 12 accurately ripped (confidence 3) [F7F48935] (AR v1)
All tracks accurately ripped
End of status report

1980-Ace Of Spades (1991, France, Castle, CLACD 240)

Страна-производитель диска: France
Год издания диска: 1991
Издатель (лейбл): Castle Communication plc.
Номер по каталогу: CLACD 240
Аудио кодек: FLAC (*.flac)
Тип рипа: image+.cue
Битрейт аудио: lossless
Продолжительность: 0:36:35
Источник: edenika (NetLab)
Наличие сканов в содержимом раздачи: да (JPG 300dpi)
Треклист:
1. Ace of Spades - 2:49
2. Love Me Like a Reptile - 3:24
3. Shoot You in the Back - 2:40
4. Live to Win - 3:38
5. Fast and Loose - 3:22
6. (We Are) The Road Crew - 3:10
7. Fire, Fire - 2:40
8. Jailbait - 3:33
9. Dance - 2:37
10. Bite the Bullet - 1:38
11. The Chase Is Better Than the Catch - 4:17
12. The Hammer - 2:47

Лог создания рипа

Exact Audio Copy V1.0 beta 3 from 29. August 2011
EAC extraction logfile from 3. July 2012, 20:30
Motorhead / Ace of Spades
Used drive : HL-DT-STDVDRAM GH22NS50 Adapter: 1 ID: 1
Read mode : Secure
Utilize accurate stream : Yes
Defeat audio cache : Yes
Make use of C2 pointers : No
Read offset correction : 667
Overread into Lead-In and Lead-Out : No
Fill up missing offset samples with silence : Yes
Delete leading and trailing silent blocks : No
Null samples used in CRC calculations : Yes
Used interface : Native Win32 interface for Win NT & 2000
Used output format : Internal WAV Routines
Sample format : 44.100 Hz; 16 Bit; Stereo
TOC of the extracted CD
Track | Start | Length | Start sector | End sector
---------------------------------------------------------
1 | 0:00.33 | 2:49.20 | 33 | 12727
2 | 2:49.53 | 3:23.67 | 12728 | 28019
3 | 6:13.45 | 2:39.55 | 28020 | 39999
4 | 8:53.25 | 3:37.50 | 40000 | 56324
5 | 12:31.00 | 3:22.18 | 56325 | 71492
6 | 15:53.18 | 3:09.67 | 71493 | 85734
7 | 19:03.10 | 2:40.33 | 85735 | 97767
8 | 21:43.43 | 3:32.62 | 97768 | 113729
9 | 25:16.30 | 2:36.60 | 113730 | 125489
10 | 27:53.15 | 1:37.70 | 125490 | 132834
11 | 29:31.10 | 4:17.35 | 132835 | 152144
12 | 33:48.45 | 2:46.68 | 152145 | 164662
Range status and errors
Selected range
Filename C:\Music CD\Motorhead - Ace of Spades.wav
Peak level 95.3 %
Extraction speed 1.5 X
Range quality 99.9 %
Test CRC EDAC9BEF
Copy CRC EDAC9BEF
Copy OK
No errors occurred
AccurateRip summary
Track 1 accurately ripped (confidence 4) [4C9FE3E3] (AR v2)
Track 2 accurately ripped (confidence 4) [6C194AEF] (AR v2)
Track 3 accurately ripped (confidence 4) [6E2382BD] (AR v2)
Track 4 accurately ripped (confidence 4) [A4CFDB4A] (AR v2)
Track 5 accurately ripped (confidence 4) [D175E4B5] (AR v2)
Track 6 accurately ripped (confidence 4) [E02E9C2C] (AR v2)
Track 7 accurately ripped (confidence 4) [50EFB7C5] (AR v2)
Track 8 accurately ripped (confidence 4) [4D8A8211] (AR v2)
Track 9 accurately ripped (confidence 4) [2ED3A634] (AR v2)
Track 10 accurately ripped (confidence 4) [AE49FA1F] (AR v2)
Track 11 accurately ripped (confidence 4) [DDD39B5A] (AR v2)
Track 12 accurately ripped (confidence 4) [AAF5C7FF] (AR v2)
All tracks accurately ripped
End of status report
==== Log checksum 72330BCD66B52066380A748FC902CFA6F8489D779F27AE22FE0C98AFC1B08667 ====

1980-Ace Of Spades (1991, USA, Roadracer, RRD 9227)

Страна-производитель диска: USA
Год издания диска: 1991
Издатель (лейбл): Roadraced Records Revisited
Номер по каталогу: RRD 9227
Аудио кодек: FLAC (*.flac)
Тип рипа: image+.cue
Битрейт аудио: lossless
Продолжительность: 0:39:35
Источник: SHI (MMT)
Наличие сканов в содержимом раздачи: да (JPG 300dpi)
Треклист:
1. Ace Of Spades - 2:48
2. Love Me Like A Reptile - 3:24
3. Shoot You In The Back - 2:40
4. Live To Win - 3:38
5. Fast And Loose - 3:22
6. (We Are) The Road Crew - 3:12
7. Fire, Fire - 2:43
8. Jailbait - 3:33
9. Dance - 2:38
10. Bite The Bullet - 1:38
11. The Chase Is Better Than The Catch - 4:18
12. The Hammer - 2:47
13. Dirty Love (Bonus Track) - 2:55

Лог создания рипа

Exact Audio Copy V1.0 beta 2 from 29. April 2011
EAC extraction logfile from 31. August 2011, 10:40
Motorhead / Ace Of Spades
Used drive : HL-DT-STDVDRAM GT20N Adapter: 0 ID: 0
Read mode : Secure
Utilize accurate stream : Yes
Defeat audio cache : Yes
Make use of C2 pointers : No
Read offset correction : 667
Overread into Lead-In and Lead-Out : No
Fill up missing offset samples with silence : Yes
Delete leading and trailing silent blocks : No
Null samples used in CRC calculations : Yes
Used interface : Installed external ASPI interface
Used output format : Internal WAV Routines
Sample format : 44.100 Hz; 16 Bit; Stereo
TOC of the extracted CD
Track | Start | Length | Start sector | End sector
---------------------------------------------------------
1 | 0:00.00 | 2:47.50 | 0 | 12574
2 | 2:47.50 | 3:23.62 | 12575 | 27861
3 | 6:11.37 | 2:39.55 | 27862 | 39841
4 | 8:51.17 | 3:37.43 | 39842 | 56159
5 | 12:28.60 | 3:22.27 | 56160 | 71336
6 | 15:51.12 | 3:12.08 | 71337 | 85744
7 | 19:03.20 | 2:42.45 | 85745 | 97939
8 | 21:45.65 | 3:33.07 | 97940 | 113921
9 | 25:18.72 | 2:37.50 | 113922 | 125746
10 | 27:56.47 | 1:38.08 | 125747 | 133104
11 | 29:34.55 | 4:17.42 | 133105 | 152421
12 | 33:52.22 | 2:47.15 | 152422 | 164961
13 | 36:39.37 | 2:55.25 | 164962 | 178111
Range status and errors
Selected range
Filename D:\Motorhead - Ace Of Spades\Motorhead - Ace Of Spades.wav
Peak level 100.0 %
Extraction speed 3.6 X
Range quality 99.9 %
Test CRC 2DAFD286
Copy CRC 2DAFD286
Copy OK
No errors occurred
AccurateRip summary
Track 1 accurately ripped (confidence 4) [7B33F095] (AR v1)
Track 2 accurately ripped (confidence 4) [50F7D769] (AR v1)
Track 3 accurately ripped (confidence 4) [8F2720B9] (AR v1)
Track 4 accurately ripped (confidence 4) [5E31F0B2] (AR v1)
Track 5 accurately ripped (confidence 4) [A07A6D0A] (AR v1)
Track 6 accurately ripped (confidence 4) [173C9679] (AR v1)
Track 7 accurately ripped (confidence 5) [82C9BBD5] (AR v1)
Track 8 accurately ripped (confidence 4) [758F98B7] (AR v1)
Track 9 accurately ripped (confidence 4) [AA258DCB] (AR v1)
Track 10 accurately ripped (confidence 5) [C72F5073] (AR v1)
Track 11 accurately ripped (confidence 4) [DD22E565] (AR v1)
Track 12 accurately ripped (confidence 4) [401017DF] (AR v1)
Track 13 accurately ripped (confidence 5) [12FE7245] (AR v1)
All tracks accurately ripped
End of status report

1980-Ace Of Spades (1996, UK, Castle, ESM CD 312) (Remastered)

Страна-производитель диска: UK
Год издания диска: 1996
Издатель (лейбл): Castle Communication plc.
Номер по каталогу: ESM CD 312
Аудио кодек: FLAC (*.flac)
Тип рипа: image+.cue
Битрейт аудио: lossless
Продолжительность: 0:45:43
Источник: unclesandy
Наличие сканов в содержимом раздачи: да (JPG 300dpi)
Треклист:
1. Ace Of Spades - 2:50
2. Love Me Like A Reptile - 3:23
3. Shoot You In The Back - 2:40
4. Live To Win - 3:38
5. Fast And Loose - 3:23
6. (We Are) The Road Crew - 3:13
7. Fire Fire - 2:45
8. Jailbait - 3:34
9. Dance - 2:38
10. Bite The Bullet - 1:38
11. The Chase Is Better Than The Catch - 4:18
12. The Hammer - 2:48
13. Dirty Love (Bonus Track) - 2:56
14. Please Don't Touch (Bonus Track) - 2:50
15. Emergency (Bonus Track) - 3:00

Лог создания рипа

Exact Audio Copy V1.0 beta 3 from 29. August 2011
EAC extraction logfile from 15. November 2013, 19:51
Motorhead / Ace Of Spades (1996, UK, Castle, ESM CD 312)
Used drive : PIONEER DVD-RW DVR-219L Adapter: 1 ID: 0
Read mode : Secure
Utilize accurate stream : Yes
Defeat audio cache : Yes
Make use of C2 pointers : No
Read offset correction : 6
Overread into Lead-In and Lead-Out : No
Fill up missing offset samples with silence : Yes
Delete leading and trailing silent blocks : No
Null samples used in CRC calculations : Yes
Used interface : Native Win32 interface for Win NT & 2000
Used output format : Internal WAV Routines
Sample format : 44.100 Hz; 16 Bit; Stereo
TOC of the extracted CD
Track | Start | Length | Start sector | End sector
---------------------------------------------------------
1 | 0:00.00 | 2:49.65 | 0 | 12739
2 | 2:49.65 | 3:23.37 | 12740 | 28001
3 | 6:13.27 | 2:39.73 | 28002 | 39999
4 | 8:53.25 | 3:37.42 | 40000 | 56316
5 | 12:30.67 | 3:23.20 | 56317 | 71561
6 | 15:54.12 | 3:12.40 | 71562 | 86001
7 | 19:06.52 | 2:44.45 | 86002 | 98346
8 | 21:51.22 | 3:33.63 | 98347 | 114384
9 | 25:25.10 | 2:38.27 | 114385 | 126261
10 | 28:03.37 | 1:38.03 | 126262 | 133614
11 | 29:41.40 | 4:18.25 | 133615 | 152989
12 | 33:59.65 | 2:48.00 | 152990 | 165589
13 | 36:47.65 | 2:56.30 | 165590 | 178819
14 | 39:44.20 | 2:49.65 | 178820 | 191559
15 | 42:34.10 | 3:00.27 | 191560 | 205086
Range status and errors
Selected range
Filename D:\CDRip for Unclesandy\Motorhead - Ace Of Spades (1996, UK, Castle, ESM CD 312).wav
Peak level 100.0 %
Extraction speed 7.0 X
Range quality 100.0 %
Test CRC 1AECCC6B
Copy CRC 1AECCC6B
Copy OK
No errors occurred
AccurateRip summary
Track 1 accurately ripped (confidence 10) [8B86F9EC] (AR v2)
Track 2 accurately ripped (confidence 10) [BEBC2896] (AR v2)
Track 3 accurately ripped (confidence 10) [E43E18A8] (AR v2)
Track 4 accurately ripped (confidence 10) [433864D5] (AR v2)
Track 5 accurately ripped (confidence 10) [C9F9447D] (AR v2)
Track 6 accurately ripped (confidence 10) [F42102A8] (AR v2)
Track 7 accurately ripped (confidence 10) [C34A42D6] (AR v2)
Track 8 accurately ripped (confidence 10) [E8A9CC14] (AR v2)
Track 9 accurately ripped (confidence 10) [5F46B2BF] (AR v2)
Track 10 accurately ripped (confidence 10) [445B311F] (AR v2)
Track 11 accurately ripped (confidence 10) [DE667978] (AR v2)
Track 12 accurately ripped (confidence 10) [23D0EB28] (AR v2)
Track 13 accurately ripped (confidence 10) [A896CD0B] (AR v2)
Track 14 accurately ripped (confidence 10) [F0B69B82] (AR v2)
Track 15 accurately ripped (confidence 10) [EDD09DCD] (AR v2)
All tracks accurately ripped
End of status report
---- CUETools DB Plugin V2.1.4
[CTDB TOCID: 0tUU_olEhxPGisNwu9IL8J_X62k-] found
Submit result: 0tUU_olEhxPGisNwu9IL8J_X62k- has been confirmed
Track | CTDB Status
1 | ( 96/100) Accurately ripped
2 | ( 96/100) Accurately ripped
3 | (100/100) Accurately ripped
4 | (100/100) Accurately ripped
5 | (100/100) Accurately ripped
6 | (100/100) Accurately ripped
7 | (100/100) Accurately ripped
8 | ( 95/100) Accurately ripped
9 | (100/100) Accurately ripped
10 | (100/100) Accurately ripped
11 | ( 99/100) Accurately ripped
12 | (100/100) Accurately ripped
13 | (100/100) Accurately ripped
14 | (100/100) Accurately ripped
15 | (100/100) Accurately ripped
==== Log checksum C6D3C83A829F1AB967312FF475777D5582A8DF9C6E906368194B548B5A0B1976 ====

1980-Ace Of Spades (2007, Japan, BMG, BVCM-37962) (Remastered)

Страна-производитель диска: Japan
Год издания диска: 2007
Издатель (лейбл): BMG Japan Inc.
Номер по каталогу: BVCM-37962
Аудио кодек: FLAC (*.flac)
Тип рипа: image+.cue
Битрейт аудио: lossless
Продолжительность: 1:14:20
Источник: Igor191965
Наличие сканов в содержимом раздачи: да (JPG 300dpi)
Треклист:
1. Ace Of Spades - 2:48
2. Love Me Like A Reptile - 3:22
3. Shoot You In The Back - 2:39
4. Live To Win - 3:36
5. Fast And Loose - 3:21
6. (We Are) The Road Crew - 3:11
7. Fire, Fire - 2:43
8. Jailbait - 3:32
9. Dance - 2:37
10. Bite The Bullet - 1:38
11. The Chase Is Better Than The Catch - 4:17
12. The Hammer - 2:48
13. Dirty Love (B-Side 'Ace Of Spades' Single) (Bonus Track) - 2:55
14. Ace Of Spades (Alternative Version) (Bonus Track) - 3:04
15. Love Me Like A Reptile (Alternative Version) (Bonus Track) - 4:16
16. Love Me Like A Reptile (Alternative Version) (Bonus Track) - 3:32
17. Shoot You In The Back (Alternative Version) (Bonus Track) - 3:11
18. Fast And Loose (Alternative Version) (Bonus Track) - 3:07
19. (We Are) The Road Crew (Alternative Version) (Bonus Track) - 3:24
20. Fire, Fire (Alternative Version) (Bonus Track) - 2:41
21. Jailbait (Alternative Version) (Bonus Track) - 3:33
22. The Hammer (Alternative Version) (Bonus Track) - 3:12
23. Dirty Love (Alternative Version) (Bonus Track) - 1:02
24. Dirty Love (Alternative Version) (Bonus Track) - 3:51

Лог создания рипа

Exact Audio Copy V0.99 prebeta 4 from 23. January 2008
Отчёт EAC об извлечении, выполненном 23. апреля 2008, 17:28
Motorhead / Ace Of Spades (JVC K2 24-Bit Japanese BVCM-37962)
Дисковод: PLEXTOR DVDR PX-716A Adapter: 3 ID: 0
Режим чтения : Достоверность
Использование точного потока : Да
Отключение кэша аудио : Да
Использование указателей C2 : Нет
Коррекция смещения при чтении : 30
Способность читать области Lead-in и Lead-out : Да
Заполнение пропущенных сэмплов тишиной : Да
Удаление блоков с тишиной в начале и конце : Нет
При вычислениях CRC использовались нулевые сэмплы : Нет
Интерфейс : Установленный внешний ASPI-интерфейс
Выходной формат : Пользовательский кодировщик
Выбранный битрейт : 32 kBit/s
Качество : Высокий
Добавление ID3-тэга : Да
Утилита сжатия : C:\Program Files\Audio\Exact Audio Copy 099pb4\Flac\flac.exe
Дополнительные параметры : -6 -V -T "artist=%a" -T "title=%t" -T "album=%g" -T "date=%y" -T "tracknumber=%n" -T "genre=%m" -T "comment=EAC v0.99pb4 / FLAC 1.2.1 q6" %s
TOC извлечённого CD
Трек | Старт | Длительность | Начальный сектор | Конечный сектор
---------------------------------------------------------------------
1 | 0:00.00 | 2:48.23 | 0 | 12622
2 | 2:48.23 | 3:21.50 | 12623 | 27747
3 | 6:09.73 | 2:38.55 | 27748 | 39652
4 | 8:48.53 | 3:36.04 | 39653 | 55856
5 | 12:24.57 | 3:21.18 | 55857 | 70949
6 | 15:46.00 | 3:11.05 | 70950 | 85279
7 | 18:57.05 | 2:43.17 | 85280 | 97521
8 | 21:40.22 | 3:32.35 | 97522 | 113456
9 | 25:12.57 | 2:36.47 | 113457 | 125203
10 | 27:49.29 | 1:38.03 | 125204 | 132556
11 | 29:27.32 | 4:17.04 | 132557 | 151835
12 | 33:44.36 | 2:47.52 | 151836 | 164412
13 | 36:32.13 | 2:54.67 | 164413 | 177529
14 | 39:27.05 | 3:03.42 | 177530 | 191296
15 | 42:30.47 | 4:16.24 | 191297 | 210520
16 | 46:46.71 | 3:31.49 | 210521 | 226394
17 | 50:18.45 | 3:11.14 | 226395 | 240733
18 | 53:29.59 | 3:06.45 | 240734 | 254728
19 | 56:36.29 | 3:24.05 | 254729 | 270033
20 | 60:00.34 | 2:41.01 | 270034 | 282109
21 | 62:41.35 | 3:33.17 | 282110 | 298101
22 | 66:14.52 | 3:11.73 | 298102 | 312499
23 | 69:26.50 | 1:02.23 | 312500 | 317172
24 | 70:28.73 | 3:51.09 | 317173 | 334506
Характеристики диапазона извлечения и сообщения об ошибках
Выбранный диапазон
Имя файла F:\CDImage\Motorhead 80_Japanese\CDImage.wav
Пиковый уровень 100.0 %
Качество диапазона 100.0 %
CRC копии C92D7646
Копирование... OK
Ошибок не произошло
Конец отчёта

1980-Ace Of Spades (2008, EU, Sanctuary, 0602517855687, 2CD) (Remastered)

Страна-производитель диска: EU
Год издания диска: 2008
Издатель (лейбл): Sanctuary Records Group Ltd.
Номер по каталогу: 0602517855687
Аудио кодек: FLAC (*.flac)
Тип рипа: image+.cue
Битрейт аудио: lossless
Продолжительность: 0:36:31 + 0:51:46
Источник: Necromandus (AvaxHome)
Наличие сканов в содержимом раздачи: да (JPG 300dpi)
CD1 Треклист:
1. Ace Of Spades - 2:48
2. Love Me Like A Reptile - 3:22
3. Shoot You In The Back - 2:39
4. Live To Win - 3:36
5. Fast And Loose - 3:21
6. (We Are) The Road Crew - 3:11
7. Fire Fire - 2:43
8. Jailbait - 3:32
9. Dance - 2:37
10. Bite The Bullet - 1:38
11. The Chase Is Better Than The Catch - 4:17
12. The Hammer - 2:46
CD1 Треклист:
1. Dirty Love - 2:56
2. Ace Of Spades (Alternative Version) - 3:04
3. Love Me Like A Reptile (Alternative Version) - 4:16
4. Love Me Like A Reptile (Alternative Version) - 3:32
5. Shoot You In The Back (Alternative Version) - 3:11
6. Fast And Loose (Alternative Version) - 3:07
7. (We Are) The Road Crew (Alternative Version) - 3:24
8. Fire Fire (Alternative Version) - 2:41
9. Jailbait (Alternative Version) - 3:33
10. The Hammer (Alternative Version) - 3:12
11. Dirty Love (Alternative Version) - 1:02
12. Dirty Love (Alternative Version) - 3:52
13. Fast And Loose (BBC Session) - 4:18
14. Live To Win (BBC Session) - 3:34
15. Bite The Bullet / The Chase Is Better Than The Catch (BBC Session) - 6:05

Лог создания рипа

Exact Audio Copy V1.0 beta 3 from 29. August 2011
EAC extraction logfile from 2. November 2013, 12:13
Motorhead / Ace Of Spades (2008, 0602517855687, CD1)
Used drive : PIONEER DVD-RW DVR-219L Adapter: 1 ID: 0
Read mode : Secure
Utilize accurate stream : Yes
Defeat audio cache : Yes
Make use of C2 pointers : No
Read offset correction : 6
Overread into Lead-In and Lead-Out : No
Fill up missing offset samples with silence : Yes
Delete leading and trailing silent blocks : No
Null samples used in CRC calculations : Yes
Used interface : Native Win32 interface for Win NT & 2000
Used output format : Internal WAV Routines
Sample format : 44.100 Hz; 16 Bit; Stereo
TOC of the extracted CD
Track | Start | Length | Start sector | End sector
---------------------------------------------------------
1 | 0:00.00 | 2:48.23 | 0 | 12622
2 | 2:48.23 | 3:21.51 | 12623 | 27748
3 | 6:09.74 | 2:38.56 | 27749 | 39654
4 | 8:48.55 | 3:36.04 | 39655 | 55858
5 | 12:24.59 | 3:21.18 | 55859 | 70951
6 | 15:46.02 | 3:11.05 | 70952 | 85281
7 | 18:57.07 | 2:43.16 | 85282 | 97522
8 | 21:40.23 | 3:32.35 | 97523 | 113457
9 | 25:12.58 | 2:36.48 | 113458 | 125205
10 | 27:49.31 | 1:38.01 | 125206 | 132556
11 | 29:27.32 | 4:17.06 | 132557 | 151837
12 | 33:44.38 | 2:46.00 | 151838 | 164287
Range status and errors
Selected range
Filename D:\.www.AvaxHome.ru\Motorhead - Ace Of Spades (2008, 0602517855687, CD1).wav
Peak level 87.2 %
Extraction speed 6.5 X
Range quality 100.0 %
Test CRC A23D82BE
Copy CRC A23D82BE
Copy OK
No errors occurred
AccurateRip summary
Track 1 accurately ripped (confidence 15) [E45B2556] (AR v2)
Track 2 accurately ripped (confidence 15) [59A35A17] (AR v2)
Track 3 accurately ripped (confidence 15) [3E25697C] (AR v2)
Track 4 accurately ripped (confidence 15) [11808AAF] (AR v2)
Track 5 accurately ripped (confidence 15) [511190BB] (AR v2)
Track 6 accurately ripped (confidence 15) [4A94C33D] (AR v2)
Track 7 accurately ripped (confidence 15) [E42AB501] (AR v2)
Track 8 accurately ripped (confidence 14) [7C459B8D] (AR v2)
Track 9 accurately ripped (confidence 14) [14EB5337] (AR v2)
Track 10 accurately ripped (confidence 14) [112E330C] (AR v2)
Track 11 accurately ripped (confidence 14) [71B838F0] (AR v2)
Track 12 accurately ripped (confidence 14) [A264E938] (AR v2)
All tracks accurately ripped
End of status report
---- CUETools DB Plugin V2.1.4
[CTDB TOCID: 3M9uaNTp4r0ENs1I3j47PG88FiM-] found
Submit result: 3M9uaNTp4r0ENs1I3j47PG88FiM- has been confirmed
Track | CTDB Status
1 | (14/15) Accurately ripped
2 | (14/15) Accurately ripped
3 | (15/15) Accurately ripped
4 | (15/15) Accurately ripped
5 | (15/15) Accurately ripped
6 | (15/15) Accurately ripped
7 | (15/15) Accurately ripped
8 | (14/15) Accurately ripped
9 | (15/15) Accurately ripped
10 | (15/15) Accurately ripped
11 | (15/15) Accurately ripped
12 | (15/15) Accurately ripped
==== Log checksum D11B01722A6F1A4607D97B541E2813838AD90F7F0B04D4F3B4635D379DF93879 ====
=======================================================================================
Exact Audio Copy V1.0 beta 3 from 29. August 2011
EAC extraction logfile from 2. November 2013, 12:40
Motorhead / Ace Of Spades (2008, 0602517855687, CD2)
Used drive : PIONEER DVD-RW DVR-219L Adapter: 1 ID: 0
Read mode : Secure
Utilize accurate stream : Yes
Defeat audio cache : Yes
Make use of C2 pointers : No
Read offset correction : 6
Overread into Lead-In and Lead-Out : No
Fill up missing offset samples with silence : Yes
Delete leading and trailing silent blocks : No
Null samples used in CRC calculations : Yes
Used interface : Native Win32 interface for Win NT & 2000
Used output format : Internal WAV Routines
Sample format : 44.100 Hz; 16 Bit; Stereo
TOC of the extracted CD
Track | Start | Length | Start sector | End sector
---------------------------------------------------------
1 | 0:00.00 | 2:55.43 | 0 | 13167
2 | 2:55.43 | 3:03.42 | 13168 | 26934
3 | 5:59.10 | 4:16.24 | 26935 | 46158
4 | 10:15.34 | 3:31.49 | 46159 | 62032
5 | 13:47.08 | 3:11.14 | 62033 | 76371
6 | 16:58.22 | 3:06.46 | 76372 | 90367
7 | 20:04.68 | 3:24.03 | 90368 | 105670
8 | 23:28.71 | 2:41.02 | 105671 | 117747
9 | 26:09.73 | 3:33.18 | 117748 | 133740
10 | 29:43.16 | 3:11.72 | 133741 | 148137
11 | 32:55.13 | 1:02.23 | 148138 | 152810
12 | 33:57.36 | 3:51.54 | 152811 | 170189
13 | 37:49.15 | 4:18.29 | 170190 | 189568
14 | 42:07.44 | 3:33.57 | 189569 | 205600
15 | 45:41.26 | 6:05.03 | 205601 | 232978
Range status and errors
Selected range
Filename D:\.www.AvaxHome.ru\Motorhead - Ace Of Spades (2008, 0602517855687, CD2).wav
Peak level 99.7 %
Extraction speed 7.1 X
Range quality 100.0 %
Test CRC 64AEA9EA
Copy CRC 64AEA9EA
Copy OK
No errors occurred
AccurateRip summary
Track 1 accurately ripped (confidence 12) [2F7B13DD] (AR v2)
Track 2 accurately ripped (confidence 10) [34D5A1D9] (AR v2)
Track 3 accurately ripped (confidence 10) [F7A0893A] (AR v2)
Track 4 accurately ripped (confidence 10) [67EE86F8] (AR v2)
Track 5 accurately ripped (confidence 10) [97E29E07] (AR v2)
Track 6 accurately ripped (confidence 10) [63202890] (AR v2)
Track 7 accurately ripped (confidence 10) [CB223FE5] (AR v2)
Track 8 accurately ripped (confidence 10) [21349218] (AR v2)
Track 9 accurately ripped (confidence 10) [DD63354D] (AR v2)
Track 10 accurately ripped (confidence 10) [8974DAF6] (AR v2)
Track 11 accurately ripped (confidence 10) [64032038] (AR v2)
Track 12 accurately ripped (confidence 10) [6AD64F5C] (AR v2)
Track 13 accurately ripped (confidence 10) [53AD135F] (AR v2)
Track 14 accurately ripped (confidence 10) [B152C000] (AR v2)
Track 15 accurately ripped (confidence 10) [858721B1] (AR v2)
All tracks accurately ripped
End of status report
---- CUETools DB Plugin V2.1.4
[CTDB TOCID: RYeewGXePyaMHw5mvTEQMYJlApM-] found
Submit result: RYeewGXePyaMHw5mvTEQMYJlApM- has been confirmed
Track | CTDB Status
1 | (11/11) Accurately ripped
2 | (11/11) Accurately ripped
3 | (11/11) Accurately ripped
4 | (10/11) Accurately ripped, or (1/11) differs in 1448 samples @02:13:54-02:13:55
5 | (11/11) Accurately ripped
6 | (11/11) Accurately ripped
7 | (10/11) Accurately ripped
8 | (11/11) Accurately ripped
9 | (10/11) Accurately ripped
10 | (11/11) Accurately ripped
11 | (11/11) Accurately ripped
12 | (11/11) Accurately ripped
13 | (10/11) Accurately ripped
14 | (11/11) Accurately ripped
15 | (10/11) Accurately ripped
==== Log checksum C9AE7F76A711DF0ABBA36C66240226BCB3871BBA653A3DBF626F6C41BC8F679D ====

To download the file disable ad blocking, and reload the page.

disable adblock How to disable ad blocking?

Download by magnet link 60.9 GB Download Torrent

Login using:

Similar topics

(Heavy Metal) Motorgang - Hellride XXX - 2007, MP3 , 320 kbps
 88 MB   0 | 0   31-May-18 13:56   2


   
Current time is: 23-Oct 07:04 :: All times are UTC ± 0