Seven Seraphim / Believe In Angels
Жанр: Neoclassical Progressive Metal
Носитель: CD
Страна-производитель диска (релиза): Austria
Год издания: 2003
Издатель (лейбл): Scarlet Records
Номер по каталогу: SC 068-2
Страна исполнителя (группы): U.S.A.
Аудиокодек: FLAC (*.flac)
Тип рипа: image+.cue
Битрейт аудио: lossless
Продолжительность: 38:21
Источник (релизер): My CD
Наличие сканов в содержимом раздачи: да
Треклист:
01. Atmosphere Collide 00:34
02. Anastasia 04:20
03. Lady Jade 04:02
04. Song Blaque 05:20
05. Dance In The Red 06:03
06. The Discordant 02:55
07. The Rain Keeps Falling (Thru Rose Coloured Glass) 05:06
08. Cyanide By Moonlight 01:18
09. The Hand That Feeds 06:42
10. A Prayer For The Innocents 01:57

Лог создания рипа

Exact Audio Copy V1.1 from 23. June 2015
EAC extraction logfile from 24. April 2017, 11:51
Seven Seraphim / Believe In Angels
Used drive : HP DVD Writer 1170d Adapter: 1 ID: 1
Read mode : Secure
Utilize accurate stream : Yes
Defeat audio cache : Yes
Make use of C2 pointers : No
Read offset correction : 6
Overread into Lead-In and Lead-Out : No
Fill up missing offset samples with silence : Yes
Delete leading and trailing silent blocks : No
Null samples used in CRC calculations : Yes
Used interface : Native Win32 interface for Win NT & 2000
Used output format : User Defined Encoder
Selected bitrate : 1024 kBit/s
Quality : High
Add ID3 tag : No
Command line compressor : C:\Program Files (x86)\Exact Audio Copy\Flac\flac.exe
Additional command line options : -V -8 -T "Date=%year%" -T "Genre=%genre%" %source%
TOC of the extracted CD
Track | Start | Length | Start sector | End sector
---------------------------------------------------------
1 | 0:00.00 | 0:34.40 | 0 | 2589
2 | 0:34.40 | 4:20.35 | 2590 | 22124
3 | 4:55.00 | 4:02.50 | 22125 | 40324
4 | 8:57.50 | 5:20.72 | 40325 | 64396
5 | 14:18.47 | 6:03.30 | 64397 | 91651
6 | 20:22.02 | 2:55.60 | 91652 | 104836
7 | 23:17.62 | 5:06.18 | 104837 | 127804
8 | 28:24.05 | 1:18.02 | 127805 | 133656
9 | 29:42.07 | 6:42.13 | 133657 | 163819
10 | 36:24.20 | 1:57.37 | 163820 | 172631
Range status and errors
Selected range
Filename C:\EAC\Ungern666\Seven Seraphim - Believe In Angels.wav
Peak level 98.7 %
Extraction speed 6.3 X
Range quality 99.9 %
Test CRC 115AD276
Copy CRC 115AD276
Copy OK
No errors occurred
AccurateRip summary
Track 1 accurately ripped (confidence 3) [ED57FC5F] (AR v1)
Track 2 accurately ripped (confidence 3) [D431EB03] (AR v1)
Track 3 accurately ripped (confidence 3) [C842E828] (AR v1)
Track 4 accurately ripped (confidence 3) [E58FB9BA] (AR v1)
Track 5 accurately ripped (confidence 3) [92C50E6F] (AR v1)
Track 6 accurately ripped (confidence 3) [24635EAA] (AR v1)
Track 7 accurately ripped (confidence 3) [ABB61F65] (AR v1)
Track 8 accurately ripped (confidence 3) [E1C0BE95] (AR v1)
Track 9 accurately ripped (confidence 3) [66ADA67A] (AR v1)
Track 10 accurately ripped (confidence 3) [48E62FDB] (AR v1)
All tracks accurately ripped
End of status report
---- CUETools DB Plugin V2.1.6
[CTDB TOCID: 7q_V80fHJcBB_VieJG7bBCeVIsI-] found
Submit result: 7q_V80fHJcBB_VieJG7bBCeVIsI- has been confirmed
Track | CTDB Status
1 | (1/1) Accurately ripped
2 | (1/1) Accurately ripped
3 | (1/1) Accurately ripped
4 | (1/1) Accurately ripped
5 | (1/1) Accurately ripped
6 | (1/1) Accurately ripped
7 | (1/1) Accurately ripped
8 | (1/1) Accurately ripped
9 | (1/1) Accurately ripped
10 | (1/1) Accurately ripped
==== Log checksum D6DFF00B29EDA0224F890863362396E11D71B0B5724AD3537292190CB966036B ====

Об исполнителе (группе)

http://www.metal-archives.com/bands/Seven_Seraphim/17482
-Материал предназначен для ознакомления!

To download the file disable ad blocking, and reload the page.

disable adblock How to disable ad blocking?

Download by magnet link 325 MB Download Torrent

Login using:

Similar topics



   
Current time is: 16-Oct 07:39 :: All times are UTC ± 0