-Dreamland - Дискография (4CD)- Жанр: Power Metal
Носитель: CD
Год издания: 2005-2009
Издатель (лейбл): Avalon/Marquee Inc./Dockyard 1 Records/Dockyard 2 Records
Страна-производитель диска: Japan/Germany
Страна исполнителя: Sweden (Gothenburg)
Аудиокодек: FLAC (*.flac)
Тип рипа: image+.cue
Битрейт аудио: lossless
Продолжительность: 03:06:33
Источник (релизер): Собственные CD
Наличие сканов: Да (Complete 600 DPI)
Доп. информация: Encyclopaedia Metallum
-

2005 - [CD] Future's Calling (Japanese Edition) (Avalon/Marquee Inc. MICP-10556) [00:53:41]

01. The Chance
02. Hearts Like Lions
03. A New Way
04. Breaking the Chains
05. Destiny
06. Die Slowly
07. Fade Away
08. All for One (Stryper Cover)
09. Dreamland
10. Future's Calling
11. Blank Mind
12. A New Dimension
13. Repeating Supremacy (Outro)
14. Masquerade (Bonus Track)
Jake E. - Vocals
Mats Rendlert - Bass
Johan Eriksson - Guitars
Marc Shield - Drums
Eric Rauti - Guitars

Bonus Video: "Fade Away"

Размер: 101 МБ
Тип: MPEG Video
Продолжительность: 00:05:04
----- Видео -----
Ширина кадра: 480
Высота кадра: 576
Скорость потока: 2376 кбит в секунду
Частoта кадров: 25 кадров в секунду
----- Аудио -----
Битрейт: 224 кбит в сек.
Каналы: 2 (стерео)
Частота дискретизации: 44.1 кГц

Скриншоты

Лог создания рипа

Exact Audio Copy V1.3 from 2. September 2016
EAC extraction logfile from 23. April 2017, 16:23
Dreamland / Future's Calling (Japan)
Used drive : ATAPI iHAS122 W Adapter: 2 ID: 0
Read mode : Secure
Utilize accurate stream : Yes
Defeat audio cache : Yes
Make use of C2 pointers : No
Read offset correction : 48
Overread into Lead-In and Lead-Out : No
Fill up missing offset samples with silence : Yes
Delete leading and trailing silent blocks : No
Null samples used in CRC calculations : Yes
Used interface : Installed external ASPI interface
Used output format : User Defined Encoder
Selected bitrate : 1024 kBit/s
Quality : High
Add ID3 tag : No
Command line compressor : C:\Program Files\FLAC\flac.exe
Additional command line options : -V -8 -T "Date=%year%" -T "Genre=%genre%" -T"COMMENT=Ripped by Ilijan - ilko" -8 -V %source%
TOC of the extracted CD
Track | Start | Length | Start sector | End sector
---------------------------------------------------------
1 | 0:00.00 | 1:03.41 | 0 | 4765
2 | 1:03.41 | 4:51.08 | 4766 | 26598
3 | 5:54.49 | 4:25.27 | 26599 | 46500
4 | 10:20.01 | 5:01.59 | 46501 | 69134
5 | 15:21.60 | 4:40.18 | 69135 | 90152
6 | 20:02.03 | 4:35.24 | 90153 | 110801
7 | 24:37.27 | 5:03.16 | 110802 | 133542
8 | 29:40.43 | 4:17.66 | 133543 | 152883
9 | 33:58.34 | 4:39.13 | 152884 | 173821
10 | 38:37.47 | 4:12.02 | 173822 | 192723
11 | 42:49.49 | 1:18.08 | 192724 | 198581
12 | 44:07.57 | 4:24.41 | 198582 | 218422
13 | 48:32.23 | 0:56.09 | 218423 | 222631
14 | 49:28.32 | 4:13.32 | 222632 | 241638
15 | 56:13.64 | 11:31.18 | 253039 | 304881
Range status and errors
Selected range
Filename D:\ilko\Dreamland - Future's Calling (Japan).wav
Peak level 97.7 %
Extraction speed 3.4 X
Range quality 100.0 %
Test CRC 491BD1E7
Copy CRC 491BD1E7
Copy OK
No errors occurred
AccurateRip summary
Track 1 not present in database
Track 2 not present in database
Track 3 not present in database
Track 4 not present in database
Track 5 not present in database
Track 6 not present in database
Track 7 not present in database
Track 8 not present in database
Track 9 not present in database
Track 10 not present in database
Track 11 not present in database
Track 12 not present in database
Track 13 not present in database
Track 14 not present in database
None of the tracks are present in the AccurateRip database
End of status report
---- CUETools DB Plugin V2.1.6
[CTDB TOCID: UW_2c4hi6nmmQqcG0fL4gw0YeZQ-] disk not present in database
Submit result: UW_2c4hi6nmmQqcG0fL4gw0YeZQ- has been uploaded
==== Log checksum 585665ED94BFE87C3B20FDBECCDEAF71EB14458BF05977A033F2F74588912B64 ====
-

2007 - [CD] Eye For An Eye (Original Recording) (Dockyard 1 Records DY100282) [00:43:17]

01. Eye for an Eye
02. Carousel of Pain
03. Reverse Deny
04. Secret Signs
05. Chosen Ones
06. Spread Your Wings
07. Shadows of the Night
08. Heavenly Designed
09. Children of Tomorrow
10. Forever and Ever
11. Revolution in Paradise
Jake E. - Vocals
Mats Rendlert - Bass
Johan Eriksson - Guitars
Jesse Lindskog - Drums
Eric Rauti - Guitars

Лог создания рипа

Exact Audio Copy V1.3 from 2. September 2016
EAC extraction logfile from 23. April 2017, 15:48
Dreamland / Eye for an Eye
Used drive : ATAPI iHAS122 W Adapter: 2 ID: 0
Read mode : Secure
Utilize accurate stream : Yes
Defeat audio cache : Yes
Make use of C2 pointers : No
Read offset correction : 48
Overread into Lead-In and Lead-Out : No
Fill up missing offset samples with silence : Yes
Delete leading and trailing silent blocks : No
Null samples used in CRC calculations : Yes
Used interface : Installed external ASPI interface
Used output format : User Defined Encoder
Selected bitrate : 1024 kBit/s
Quality : High
Add ID3 tag : No
Command line compressor : C:\Program Files\FLAC\flac.exe
Additional command line options : -V -8 -T "Date=%year%" -T "Genre=%genre%" -T"COMMENT=Ripped by Ilijan - ilko" -8 -V %source%
TOC of the extracted CD
Track | Start | Length | Start sector | End sector
---------------------------------------------------------
1 | 0:00.00 | 3:15.66 | 0 | 14690
2 | 3:15.66 | 3:33.23 | 14691 | 30688
3 | 6:49.14 | 3:47.17 | 30689 | 47730
4 | 10:36.31 | 4:15.56 | 47731 | 66911
5 | 14:52.12 | 4:09.25 | 66912 | 85611
6 | 19:01.37 | 3:39.36 | 85612 | 102072
7 | 22:40.73 | 3:59.02 | 102073 | 119999
8 | 26:40.00 | 3:15.11 | 120000 | 134635
9 | 29:55.11 | 4:02.21 | 134636 | 152806
10 | 33:57.32 | 3:52.42 | 152807 | 170248
11 | 37:49.74 | 5:27.72 | 170249 | 194845
Range status and errors
Selected range
Filename D:\ilko\Dreamland - Eye for an Eye.wav
Peak level 97.7 %
Extraction speed 3.6 X
Range quality 100.0 %
Test CRC 9114BD99
Copy CRC 9114BD99
Copy OK
No errors occurred
AccurateRip summary
Track 1 accurately ripped (confidence 8) [49B470BC] (AR v2)
Track 2 accurately ripped (confidence 8) [911448A5] (AR v2)
Track 3 accurately ripped (confidence 8) [EEF8AF4F] (AR v2)
Track 4 accurately ripped (confidence 8) [288F6A5E] (AR v2)
Track 5 accurately ripped (confidence 8) [A37168D9] (AR v2)
Track 6 accurately ripped (confidence 8) [4C39E417] (AR v2)
Track 7 accurately ripped (confidence 8) [4FFEA451] (AR v2)
Track 8 accurately ripped (confidence 8) [DFF73CFB] (AR v2)
Track 9 accurately ripped (confidence 8) [1E9AB788] (AR v2)
Track 10 accurately ripped (confidence 8) [7351B75D] (AR v2)
Track 11 accurately ripped (confidence 8) [CA51BF40] (AR v2)
All tracks accurately ripped
End of status report
---- CUETools DB Plugin V2.1.6
[CTDB TOCID: euzO8MKy3HDh7FfMt0bs_gEpsq4-] found
Submit result: euzO8MKy3HDh7FfMt0bs_gEpsq4- has been confirmed
Track | CTDB Status
1 | (5/5) Accurately ripped
2 | (5/5) Accurately ripped
3 | (5/5) Accurately ripped
4 | (5/5) Accurately ripped
5 | (5/5) Accurately ripped
6 | (5/5) Accurately ripped
7 | (5/5) Accurately ripped
8 | (5/5) Accurately ripped
9 | (5/5) Accurately ripped
10 | (5/5) Accurately ripped
11 | (5/5) Accurately ripped
==== Log checksum 7CBD8F51A8541B9D9C587F30689FF907882DBDDC0240F498466FB4ACCD41A93D ====
-

2007 - [CD] Eye For An Eye (Japanese Edition) (Avalon/Marquee Inc. MICP-10639) [00:46:17]

01. Eye for an Eye
02. Carousel of Pain
03. Reverse Deny
04. Secret Signs
05. Chosen Ones
06. Spread Your Wings
07. Shadows of the Night
08. Heavenly Designed
09. Children of Tomorrow
10. Forever and Ever
11. Revolution in Paradise
12. Love Is Meant to Last Forever (Europe Cover)(Bonus Track)
Jake E. - Vocals
Mats Rendlert - Bass
Johan Eriksson - Guitars
Jesse Lindskog - Drums
Eric Rauti - Guitars

Лог создания рипа

Exact Audio Copy V1.3 from 2. September 2016
EAC extraction logfile from 23. April 2017, 17:02
Dreamland / Eye For An Eye (Japan)
Used drive : ATAPI iHAS122 W Adapter: 2 ID: 0
Read mode : Secure
Utilize accurate stream : Yes
Defeat audio cache : Yes
Make use of C2 pointers : No
Read offset correction : 48
Overread into Lead-In and Lead-Out : No
Fill up missing offset samples with silence : Yes
Delete leading and trailing silent blocks : No
Null samples used in CRC calculations : Yes
Used interface : Installed external ASPI interface
Used output format : User Defined Encoder
Selected bitrate : 1024 kBit/s
Quality : High
Add ID3 tag : No
Command line compressor : C:\Program Files\FLAC\flac.exe
Additional command line options : -V -8 -T "Date=%year%" -T "Genre=%genre%" -T"COMMENT=Ripped by Ilijan - ilko" -8 -V %source%
TOC of the extracted CD
Track | Start | Length | Start sector | End sector
---------------------------------------------------------
1 | 0:00.00 | 3:15.66 | 0 | 14690
2 | 3:15.66 | 3:33.23 | 14691 | 30688
3 | 6:49.14 | 3:47.17 | 30689 | 47730
4 | 10:36.31 | 4:15.56 | 47731 | 66911
5 | 14:52.12 | 4:09.25 | 66912 | 85611
6 | 19:01.37 | 3:39.36 | 85612 | 102072
7 | 22:40.73 | 3:59.02 | 102073 | 119999
8 | 26:40.00 | 3:15.11 | 120000 | 134635
9 | 29:55.11 | 4:02.21 | 134636 | 152806
10 | 33:57.32 | 3:52.42 | 152807 | 170248
11 | 37:49.74 | 5:26.39 | 170249 | 194737
12 | 43:16.38 | 3:01.05 | 194738 | 208317
Range status and errors
Selected range
Filename D:\ilko\Dreamland - Eye For An Eye (Japan).wav
Peak level 97.7 %
Extraction speed 3.0 X
Range quality 100.0 %
Test CRC 37F2F22E
Copy CRC 37F2F22E
Copy OK
No errors occurred
AccurateRip summary
Track 1 accurately ripped (confidence 2) [AEA384D2] (AR v2)
Track 2 accurately ripped (confidence 2) [B713165B] (AR v2)
Track 3 accurately ripped (confidence 2) [6EF882CF] (AR v2)
Track 4 accurately ripped (confidence 2) [5C686008] (AR v2)
Track 5 accurately ripped (confidence 2) [100A8490] (AR v2)
Track 6 accurately ripped (confidence 2) [EC2399B1] (AR v2)
Track 7 accurately ripped (confidence 2) [4B2821FF] (AR v2)
Track 8 accurately ripped (confidence 2) [9008FEBB] (AR v2)
Track 9 accurately ripped (confidence 2) [17DC42D2] (AR v2)
Track 10 accurately ripped (confidence 2) [1171A291] (AR v2)
Track 11 accurately ripped (confidence 2) [256F67D2] (AR v2)
Track 12 accurately ripped (confidence 2) [F52110F5] (AR v2)
All tracks accurately ripped
End of status report
---- CUETools DB Plugin V2.1.6
[CTDB TOCID: D.fMRHpoNIyh_ZCYXIWrkdIihpU-] found
Submit result: D.fMRHpoNIyh_ZCYXIWrkdIihpU- has been confirmed
Track | CTDB Status
1 | (3/3) Accurately ripped
2 | (3/3) Accurately ripped
3 | (3/3) Accurately ripped
4 | (3/3) Accurately ripped
5 | (3/3) Accurately ripped
6 | (3/3) Accurately ripped
7 | (3/3) Accurately ripped
8 | (3/3) Accurately ripped
9 | (3/3) Accurately ripped
10 | (3/3) Accurately ripped
11 | (3/3) Accurately ripped
12 | (3/3) Accurately ripped
==== Log checksum 8CD8516CE5CCD0D9D7C8977E04C2A7B2F1BF44EB3E1E82D1A779694E7EF861C8 ====
-

2009 - [CD] Exit 49 (Original Recording) (Dockyard 2 Records DY 200852) [00:43:58]

01. A Touch of Evil
02. Set the Heavens on Fire
03. The Warning
04. So Weak So Feeble
05. The Curse
06. Worlds Apart
07. My Sweet Revenge
08. Exit 49
09. Nordic Rage
10. Song for You
11. Shortest Straw
12. Time to Exhale
Jake E. - Vocals
Mats Rendlert - Bass
Nils Olsson - Guitars
Alexx - Drums
Eric Rauti - Guitars

Лог создания рипа

Exact Audio Copy V1.3 from 2. September 2016
EAC extraction logfile from 23. April 2017, 15:21
Dreamland / Exit 49
Used drive : ATAPI iHAS122 W Adapter: 2 ID: 0
Read mode : Secure
Utilize accurate stream : Yes
Defeat audio cache : Yes
Make use of C2 pointers : No
Read offset correction : 48
Overread into Lead-In and Lead-Out : No
Fill up missing offset samples with silence : Yes
Delete leading and trailing silent blocks : No
Null samples used in CRC calculations : Yes
Used interface : Installed external ASPI interface
Used output format : User Defined Encoder
Selected bitrate : 1024 kBit/s
Quality : High
Add ID3 tag : No
Command line compressor : C:\Program Files\FLAC\flac.exe
Additional command line options : -V -8 -T "Date=%year%" -T "Genre=%genre%" -T"COMMENT=Ripped by Ilijan - ilko" -8 -V %source%
TOC of the extracted CD
Track | Start | Length | Start sector | End sector
---------------------------------------------------------
1 | 0:00.00 | 4:14.01 | 0 | 19050
2 | 4:14.01 | 3:35.55 | 19051 | 35230
3 | 7:49.56 | 3:03.22 | 35231 | 48977
4 | 10:53.03 | 4:35.29 | 48978 | 69631
5 | 15:28.32 | 3:40.38 | 69632 | 86169
6 | 19:08.70 | 3:24.70 | 86170 | 101539
7 | 22:33.65 | 3:08.06 | 101540 | 115645
8 | 25:41.71 | 4:09.57 | 115646 | 134377
9 | 29:51.53 | 4:14.47 | 134378 | 153474
10 | 34:06.25 | 4:21.34 | 153475 | 173083
11 | 38:27.59 | 3:48.26 | 173084 | 190209
12 | 42:16.10 | 1:42.02 | 190210 | 197861
Range status and errors
Selected range
Filename D:\ilko\Dreamland - Exit 49.wav
Peak level 97.9 %
Extraction speed 3.0 X
Range quality 100.0 %
Test CRC 7FC26BB4
Copy CRC 7FC26BB4
Copy OK
No errors occurred
AccurateRip summary
Track 1 accurately ripped (confidence 4) [8B135FAF] (AR v2)
Track 2 accurately ripped (confidence 4) [DDD48A26] (AR v2)
Track 3 accurately ripped (confidence 4) [DC4A9115] (AR v2)
Track 4 accurately ripped (confidence 4) [9A1D6E5A] (AR v2)
Track 5 accurately ripped (confidence 4) [0E1F3676] (AR v2)
Track 6 accurately ripped (confidence 4) [1669AE03] (AR v2)
Track 7 accurately ripped (confidence 4) [34146487] (AR v2)
Track 8 accurately ripped (confidence 4) [9DFAE06D] (AR v2)
Track 9 accurately ripped (confidence 4) [CD779AFD] (AR v2)
Track 10 accurately ripped (confidence 4) [C6A2EE55] (AR v2)
Track 11 accurately ripped (confidence 4) [05A51282] (AR v2)
Track 12 accurately ripped (confidence 4) [4A801F4E] (AR v2)
All tracks accurately ripped
End of status report
---- CUETools DB Plugin V2.1.6
[CTDB TOCID: 4uHjWnn_OWmBcJqLHOEjRBge4i4-] found
Submit result: 4uHjWnn_OWmBcJqLHOEjRBge4i4- has been confirmed
Track | CTDB Status
1 | (3/3) Accurately ripped
2 | (3/3) Accurately ripped
3 | (3/3) Accurately ripped
4 | (3/3) Accurately ripped
5 | (3/3) Accurately ripped
6 | (3/3) Accurately ripped
7 | (3/3) Accurately ripped
8 | (3/3) Accurately ripped
9 | (3/3) Accurately ripped
10 | (3/3) Accurately ripped
11 | (3/3) Accurately ripped
12 | (3/3) Accurately ripped
==== Log checksum 299493D6D4B2724947D890A21B706D8FE061998B830886B2C03F596DBA5AEA62 ====
-

To download the file disable ad blocking, and reload the page.

disable adblock How to disable ad blocking?

Download by magnet link 1.68 GB Download Torrent

Login using:

Similar topics



   
Current time is: 16-Oct 08:21 :: All times are UTC ± 0