-Requiem - Дискография (Japanese Editions) (3CD)- Жанр: Power Metal
Носитель: CD
Год издания: 2002-2005
Издатель (лейбл): Soundholic Co., Ltd.
Страна-производитель диска: Japan
Страна исполнителя: Finland (Haapajärvi)
Аудиокодек: FLAC (*.flac)
Тип рипа: image+.cue
Битрейт аудио: lossless
Продолжительность: 02:23:05
Источник (релизер): Собственные CD
Наличие сканов: Да (Complete 600 DPI)
Доп. информация: Encyclopaedia Metallum
-

2002 - [CD] The Arrival (Japanese Edition) (Soundholic Co., Ltd. TKCS-85040) [00:50:24]

01. Arrival
02. Revival
03. Broken Alliance
04. Whispers
05. The Invisible Touch
06. Forgotten Path
07. Halls of Eternity
08. Liquid Hours
09. Masquerade
10. Tomorrow's Dream (Bonus Track)
Jouni Nikula - Vocals
Henrik Klingenberg - Keyboards
Pasi Kauppinen - Bass
Arto Räisälä - Guitars
Teemu Hänninen - Guitars
Jari Huttunen - Drums

Лог создания рипа

Exact Audio Copy V1.3 from 2. September 2016
EAC extraction logfile from 23. April 2017, 12:23
Requiem / The Arrival (Japan)
Used drive : ATAPI iHAS122 W Adapter: 2 ID: 0
Read mode : Secure
Utilize accurate stream : Yes
Defeat audio cache : Yes
Make use of C2 pointers : No
Read offset correction : 48
Overread into Lead-In and Lead-Out : No
Fill up missing offset samples with silence : Yes
Delete leading and trailing silent blocks : No
Null samples used in CRC calculations : Yes
Used interface : Installed external ASPI interface
Used output format : User Defined Encoder
Selected bitrate : 1024 kBit/s
Quality : High
Add ID3 tag : No
Command line compressor : C:\Program Files\FLAC\flac.exe
Additional command line options : -V -8 -T "Date=%year%" -T "Genre=%genre%" -T"COMMENT=Ripped by Ilijan - ilko" -8 -V %source%
TOC of the extracted CD
Track | Start | Length | Start sector | End sector
---------------------------------------------------------
1 | 0:00.00 | 1:00.67 | 0 | 4566
2 | 1:00.67 | 4:26.00 | 4567 | 24516
3 | 5:26.67 | 4:16.40 | 24517 | 43756
4 | 9:43.32 | 4:45.63 | 43757 | 65194
5 | 14:29.20 | 4:25.05 | 65195 | 85074
6 | 18:54.25 | 7:43.57 | 85075 | 119856
7 | 26:38.07 | 5:30.05 | 119857 | 144611
8 | 32:08.12 | 6:11.60 | 144612 | 172496
9 | 38:19.72 | 8:27.25 | 172497 | 210546
10 | 46:47.22 | 3:36.53 | 210547 | 226799
Range status and errors
Selected range
Filename D:\ilko\Requiem - The Arrival (Japan).wav
Peak level 99.6 %
Extraction speed 4.0 X
Range quality 100.0 %
Test CRC B1291A79
Copy CRC B1291A79
Copy OK
No errors occurred
AccurateRip summary
Track 1 accurately ripped (confidence 2) [9B113382] (AR v2)
Track 2 accurately ripped (confidence 2) [CE1109A0] (AR v2)
Track 3 accurately ripped (confidence 2) [A9252027] (AR v2)
Track 4 accurately ripped (confidence 2) [39491C38] (AR v2)
Track 5 accurately ripped (confidence 2) [390BB102] (AR v2)
Track 6 accurately ripped (confidence 2) [88E585A6] (AR v2)
Track 7 accurately ripped (confidence 2) [2A5AF11D] (AR v2)
Track 8 accurately ripped (confidence 2) [EEA47CE0] (AR v2)
Track 9 accurately ripped (confidence 2) [327167AA] (AR v2)
Track 10 accurately ripped (confidence 2) [935C5860] (AR v2)
All tracks accurately ripped
End of status report
---- CUETools DB Plugin V2.1.6
[CTDB TOCID: UEOxpE_jntxSQUsrSt.ucKxTQG8-] found
Submit result: UEOxpE_jntxSQUsrSt.ucKxTQG8- has been confirmed
Track | CTDB Status
1 | (4/4) Accurately ripped
2 | (4/4) Accurately ripped
3 | (4/4) Accurately ripped
4 | (4/4) Accurately ripped
5 | (4/4) Accurately ripped
6 | (4/4) Accurately ripped
7 | (4/4) Accurately ripped
8 | (4/4) Accurately ripped
9 | (4/4) Accurately ripped
10 | (3/4) Accurately ripped
==== Log checksum 99B0C261BEE97E0A2DB7A6CAFE3D7DE3ECB6AC13440B761ECF3A27A4BB559C2C ====
-

2003 - [CD] Mask Of Damnation (Japanese Edition) (Soundholic Co., Ltd. TKCS-85082) [00:45:40]

01. Blinded
02. The Dying Ember
03. Mask of Damnation
04. Divine Illusion
05. Ethereal Journey
06. Shrine of the Ocean
07. Dagger
08. The Rival's Spell
09. The Accordance (Bonus Track)
Jouni Nikula - Vocals
Henrik Klingenberg - Keyboards
Pasi Kauppinen - Bass
Arto Räisälä - Guitars
Teemu Hänninen - Guitars
Jari Huttunen - Drums

Лог создания рипа

Exact Audio Copy V1.3 from 2. September 2016
EAC extraction logfile from 23. April 2017, 12:50
Requiem / Mask Of Damnation (Japan)
Used drive : ATAPI iHAS122 W Adapter: 2 ID: 0
Read mode : Secure
Utilize accurate stream : Yes
Defeat audio cache : Yes
Make use of C2 pointers : No
Read offset correction : 48
Overread into Lead-In and Lead-Out : No
Fill up missing offset samples with silence : Yes
Delete leading and trailing silent blocks : No
Null samples used in CRC calculations : Yes
Used interface : Installed external ASPI interface
Used output format : User Defined Encoder
Selected bitrate : 1024 kBit/s
Quality : High
Add ID3 tag : No
Command line compressor : C:\Program Files\FLAC\flac.exe
Additional command line options : -V -8 -T "Date=%year%" -T "Genre=%genre%" -T"COMMENT=Ripped by Ilijan - ilko" -8 -V %source%
TOC of the extracted CD
Track | Start | Length | Start sector | End sector
---------------------------------------------------------
1 | 0:00.00 | 5:25.71 | 0 | 24445
2 | 5:25.71 | 4:02.56 | 24446 | 42651
3 | 9:28.52 | 5:53.64 | 42652 | 69190
4 | 15:22.41 | 5:28.58 | 69191 | 93848
5 | 20:51.24 | 5:29.44 | 93849 | 118567
6 | 26:20.68 | 6:15.30 | 118568 | 146722
7 | 32:36.23 | 5:24.00 | 146723 | 171022
8 | 38:00.23 | 4:00.26 | 171023 | 189048
9 | 42:00.49 | 3:39.40 | 189049 | 205513
Range status and errors
Selected range
Filename D:\ilko\Requiem - Mask Of Damnation (Japan).wav
Peak level 94.6 %
Extraction speed 3.9 X
Range quality 100.0 %
Test CRC E966F054
Copy CRC E966F054
Copy OK
No errors occurred
AccurateRip summary
Track 1 accurately ripped (confidence 3) [B4D7DA93] (AR v2)
Track 2 accurately ripped (confidence 3) [EA0688C9] (AR v2)
Track 3 accurately ripped (confidence 3) [7010902A] (AR v2)
Track 4 accurately ripped (confidence 3) [250EE92F] (AR v2)
Track 5 accurately ripped (confidence 3) [689D5FD3] (AR v2)
Track 6 accurately ripped (confidence 3) [9A2AD8E0] (AR v2)
Track 7 accurately ripped (confidence 3) [67A1C32B] (AR v2)
Track 8 accurately ripped (confidence 3) [896A2A7F] (AR v2)
Track 9 accurately ripped (confidence 3) [F8839A83] (AR v2)
All tracks accurately ripped
End of status report
---- CUETools DB Plugin V2.1.6
[CTDB TOCID: vIGr5fJBp3GokQpC8OJvSgXkNaY-] found
Submit result: vIGr5fJBp3GokQpC8OJvSgXkNaY- has been confirmed
Track | CTDB Status
1 | (5/5) Accurately ripped
2 | (5/5) Accurately ripped
3 | (5/5) Accurately ripped
4 | (5/5) Accurately ripped
5 | (5/5) Accurately ripped
6 | (5/5) Accurately ripped
7 | (5/5) Accurately ripped
8 | (5/5) Accurately ripped
9 | (5/5) Accurately ripped
==== Log checksum 7E4B4AD94B348B799C60C2FB427BA4BB6C653A6CF597228E3F77076D2C4781B0 ====
-

2005 - [CD] Requiem Forever (Japanese Edition) (Soundholic Co., Ltd. TKCS-85134) [00:47:01]

01. Possessed by Power
02. Hold On
03. Shadowhunt
04. Violate
05. Painting the Wind
06. Invincible Enemy
07. Vindictive Heart
08. The Tower
09. Nightfall-Omnicida
10. Sleepless Nights
11. Gods of War
12. Light no More (Bonus Track)
Jouni Nikula - Vocals
Pasi Kauppinen - Bass
Arto Räisälä - Guitars
Jukka Hänninen - Keyboards
Jari Huttunen - Drums

Лог создания рипа

Exact Audio Copy V1.3 from 2. September 2016
EAC extraction logfile from 23. April 2017, 13:20
Requiem / Requiem Forever (Japan)
Used drive : ATAPI iHAS122 W Adapter: 2 ID: 0
Read mode : Secure
Utilize accurate stream : Yes
Defeat audio cache : Yes
Make use of C2 pointers : No
Read offset correction : 48
Overread into Lead-In and Lead-Out : No
Fill up missing offset samples with silence : Yes
Delete leading and trailing silent blocks : No
Null samples used in CRC calculations : Yes
Used interface : Installed external ASPI interface
Used output format : User Defined Encoder
Selected bitrate : 1024 kBit/s
Quality : High
Add ID3 tag : No
Command line compressor : C:\Program Files\FLAC\flac.exe
Additional command line options : -V -8 -T "Date=%year%" -T "Genre=%genre%" -T"COMMENT=Ripped by Ilijan - ilko" -8 -V %source%
TOC of the extracted CD
Track | Start | Length | Start sector | End sector
---------------------------------------------------------
1 | 0:00.00 | 3:17.72 | 0 | 14846
2 | 3:17.72 | 3:28.43 | 14847 | 30489
3 | 6:46.40 | 4:24.00 | 30490 | 50289
4 | 11:10.40 | 3:18.41 | 50290 | 65180
5 | 14:29.06 | 3:56.12 | 65181 | 82892
6 | 18:25.18 | 3:59.64 | 82893 | 100881
7 | 22:25.07 | 4:03.45 | 100882 | 119151
8 | 26:28.52 | 5:09.44 | 119152 | 142370
9 | 31:38.21 | 3:28.59 | 142371 | 158029
10 | 35:07.05 | 4:24.25 | 158030 | 177854
11 | 39:31.30 | 4:21.32 | 177855 | 197461
12 | 43:52.62 | 3:08.45 | 197462 | 211606
Range status and errors
Selected range
Filename D:\ilko\Requiem - Requiem Forever (Japan).wav
Peak level 100.0 %
Extraction speed 3.8 X
Range quality 100.0 %
Test CRC E5B7C74B
Copy CRC E5B7C74B
Copy OK
No errors occurred
AccurateRip summary
Track 1 accurately ripped (confidence 1) [8C1DEA70] (AR v2)
Track 2 accurately ripped (confidence 1) [C916E407] (AR v2)
Track 3 accurately ripped (confidence 1) [DEE8875C] (AR v2)
Track 4 accurately ripped (confidence 1) [DCCF251B] (AR v2)
Track 5 accurately ripped (confidence 1) [7623DDF2] (AR v2)
Track 6 accurately ripped (confidence 1) [235A732F] (AR v2)
Track 7 accurately ripped (confidence 1) [B50E09E9] (AR v2)
Track 8 accurately ripped (confidence 1) [144660D3] (AR v2)
Track 9 accurately ripped (confidence 1) [4D751266] (AR v2)
Track 10 accurately ripped (confidence 1) [E4A53DCC] (AR v2)
Track 11 accurately ripped (confidence 1) [1E6E1105] (AR v2)
Track 12 accurately ripped (confidence 1) [BC725A12] (AR v2)
All tracks accurately ripped
End of status report
---- CUETools DB Plugin V2.1.6
[CTDB TOCID: pLfP3fDcU6XrMk.xno2zaQqrXbI-] found
Submit result: pLfP3fDcU6XrMk.xno2zaQqrXbI- has been confirmed
Track | CTDB Status
1 | (2/2) Accurately ripped
2 | (2/2) Accurately ripped
3 | (2/2) Accurately ripped
4 | (2/2) Accurately ripped
5 | (2/2) Accurately ripped
6 | (2/2) Accurately ripped
7 | (2/2) Accurately ripped
8 | (2/2) Accurately ripped
9 | (2/2) Accurately ripped
10 | (2/2) Accurately ripped
11 | (2/2) Accurately ripped
12 | (2/2) Accurately ripped
==== Log checksum C978F681B57A84358051735F6FBFC01579F06F7B3FE38825548236C2584D976B ====
-

To download the file disable ad blocking, and reload the page.

disable adblock How to disable ad blocking?

Download by magnet link 1.24 GB Download Torrent

Login using:

Загрузка...

Similar topics



   
Current time is: 13-Dec 08:02 :: All times are UTC + 3