-Golden Resurrection - Дискография (3CD)- Жанр: Melodic Neoclassical Power Metal
Носитель: CD
Год издания: 2010-2012
Издатель (лейбл): King Record Co., Ltd./Liljegren Records
Страна-производитель диска: Japan/Sweden
Страна исполнителя: Sweden (Kungsör/Örebro/Eskilstuna/Sandslätt)
Аудиокодек: FLAC (*.flac)
Тип рипа: image+.cue
Битрейт аудио: lossless
Продолжительность: 02:19:05
Источник (релизер): Собственные CD
Наличие сканов: Да (Complete 600 DPI)
Доп. информация: Encyclopaedia Metallum
-

2010 - [CD] Glory To My King (Japanese Edition) (King Record Co., Ltd. KICP-1498) [00:42:27]

01. See My Commands
02. Best for Me
03. Glory to My King
04. Never Look Back
05. The Final Day
06. Proud to Wear the Holy Cross
07. Golden Flames
08. God's Grand Hotel
09. Metal Praise (Bonus Track)
10. My Creation
Christian Liljegren - Vocals
Stefan Käck - Bass
Tommy Johansson - Guitars, Keyboards
Olov Andersson - Keyboards
Rickard Gustavsson - Drums

Лог создания рипа

Exact Audio Copy V1.3 from 2. September 2016
EAC extraction logfile from 23. April 2017, 13:47
Golden Resurrection / Glory To My King (Japan)
Used drive : MATSHITADVD-RAM UJ8G6 Adapter: 1 ID: 0
Read mode : Secure
Utilize accurate stream : Yes
Defeat audio cache : Yes
Make use of C2 pointers : No
Read offset correction : 103
Overread into Lead-In and Lead-Out : No
Fill up missing offset samples with silence : Yes
Delete leading and trailing silent blocks : No
Null samples used in CRC calculations : Yes
Used interface : Native Win32 interface for Win NT & 2000
Used output format : User Defined Encoder
Selected bitrate : 1024 kBit/s
Quality : High
Add ID3 tag : No
Command line compressor : C:\Program Files (x86)\Exact Audio Copy\FLAC\FLAC.EXE
Additional command line options : -V -8 -T "Date=%year%" -T"Genre=%genre%" -T"COMMENT=Ripped by Ilijan - ilko" -8 -V %source%
TOC of the extracted CD
Track | Start | Length | Start sector | End sector
---------------------------------------------------------
1 | 0:00.00 | 3:56.02 | 0 | 17701
2 | 3:56.02 | 4:11.53 | 17702 | 36579
3 | 8:07.55 | 4:08.43 | 36580 | 55222
4 | 12:16.23 | 3:58.01 | 55223 | 73073
5 | 16:14.24 | 5:41.39 | 73074 | 98687
6 | 21:55.63 | 6:18.36 | 98688 | 127073
7 | 28:14.24 | 4:47.36 | 127074 | 148634
8 | 33:01.60 | 4:24.16 | 148635 | 168450
9 | 37:26.01 | 4:15.66 | 168451 | 187641
10 | 41:41.67 | 0:45.70 | 187642 | 191086
Range status and errors
Selected range
Filename D:\ilko\Golden Resurrection - Glory To My King (Japan).wav
Peak level 99.9 %
Extraction speed 2.3 X
Range quality 100.0 %
Test CRC E8B88501
Copy CRC E8B88501
Copy OK
No errors occurred
AccurateRip summary
Track 1 accurately ripped (confidence 4) [09E66952] (AR v2)
Track 2 accurately ripped (confidence 4) [E0B10BC4] (AR v2)
Track 3 accurately ripped (confidence 4) [9EC6949B] (AR v2)
Track 4 accurately ripped (confidence 4) [49179FAA] (AR v2)
Track 5 accurately ripped (confidence 4) [E1282466] (AR v2)
Track 6 accurately ripped (confidence 4) [C4A11737] (AR v2)
Track 7 accurately ripped (confidence 4) [26E835AF] (AR v2)
Track 8 accurately ripped (confidence 4) [131FF7E5] (AR v2)
Track 9 accurately ripped (confidence 4) [AFFFB0F3] (AR v2)
Track 10 accurately ripped (confidence 4) [D565737C] (AR v2)
All tracks accurately ripped
End of status report
---- CUETools DB Plugin V2.1.6
[CTDB TOCID: cwgY0KTjQtbwjYQRak8sr9kkmYk-] found
Submit result: cwgY0KTjQtbwjYQRak8sr9kkmYk- has been confirmed
Track | CTDB Status
1 | (8/8) Accurately ripped
2 | (8/8) Accurately ripped
3 | (8/8) Accurately ripped
4 | (8/8) Accurately ripped
5 | (8/8) Accurately ripped
6 | (8/8) Accurately ripped
7 | (8/8) Accurately ripped
8 | (8/8) Accurately ripped
9 | (8/8) Accurately ripped
10 | (8/8) Accurately ripped
==== Log checksum 3395DF8C39558922C5E374B627AD29F1A592AAD93AE2A5DDFF922413B3D95DF0 ====
-

2011 - [CD] Man With A Mission (Original Recording) (Liljegren Records LRCD008) [00:42:40]

01. The Light Overture
02. Man with a Mission
03. Identity in Christ
04. Golden Times
05. Finally Free
06. Generation of the Brave
07. Standing on the Rock
08. Metal Opus 1 in C# Minor
09. Are You Ready for the Power
10. Flaming Youth
Christian Liljegren - Vocals
Stefan Käck - Bass
Tommy Johansson - Guitars, Keyboards
Kenneth Lillqvist - Keyboards
Rickard Gustavsson - Drums

Лог создания рипа

Exact Audio Copy V1.3 from 2. September 2016
EAC extraction logfile from 23. April 2017, 13:05
Golden Resurrection / Man With a Mission
Used drive : MATSHITADVD-RAM UJ8G6 Adapter: 1 ID: 0
Read mode : Secure
Utilize accurate stream : Yes
Defeat audio cache : Yes
Make use of C2 pointers : No
Read offset correction : 103
Overread into Lead-In and Lead-Out : No
Fill up missing offset samples with silence : Yes
Delete leading and trailing silent blocks : No
Null samples used in CRC calculations : Yes
Used interface : Native Win32 interface for Win NT & 2000
Used output format : User Defined Encoder
Selected bitrate : 1024 kBit/s
Quality : High
Add ID3 tag : No
Command line compressor : C:\Program Files (x86)\Exact Audio Copy\FLAC\FLAC.EXE
Additional command line options : -V -8 -T "Date=%year%" -T"Genre=%genre%" -T"COMMENT=Ripped by Ilijan - ilko" -8 -V %source%
TOC of the extracted CD
Track | Start | Length | Start sector | End sector
---------------------------------------------------------
1 | 0:00.00 | 1:21.65 | 0 | 6139
2 | 1:21.65 | 4:59.42 | 6140 | 28606
3 | 6:21.32 | 4:47.10 | 28607 | 50141
4 | 11:08.42 | 4:37.41 | 50142 | 70957
5 | 15:46.08 | 4:19.08 | 70958 | 90390
6 | 20:05.16 | 4:48.57 | 90391 | 112047
7 | 24:53.73 | 4:46.23 | 112048 | 133520
8 | 29:40.21 | 4:21.55 | 133521 | 153150
9 | 34:02.01 | 4:13.31 | 153151 | 172156
10 | 38:15.32 | 4:24.43 | 172157 | 191999
Range status and errors
Selected range
Filename D:\ilko\Golden Resurrection - Man With a Mission.wav
Peak level 99.9 %
Extraction speed 3.8 X
Range quality 100.0 %
Test CRC 1DA37AD6
Copy CRC 1DA37AD6
Copy OK
No errors occurred
AccurateRip summary
Track 1 accurately ripped (confidence 3) [A3A7DD09] (AR v2)
Track 2 accurately ripped (confidence 3) [E834BEC5] (AR v2)
Track 3 accurately ripped (confidence 3) [8A5E5071] (AR v2)
Track 4 accurately ripped (confidence 3) [7B6F7F25] (AR v2)
Track 5 accurately ripped (confidence 3) [EB1C0647] (AR v2)
Track 6 accurately ripped (confidence 3) [5939BE69] (AR v2)
Track 7 accurately ripped (confidence 3) [1C703C49] (AR v2)
Track 8 accurately ripped (confidence 3) [A125572F] (AR v2)
Track 9 accurately ripped (confidence 3) [26C4AB97] (AR v2)
Track 10 accurately ripped (confidence 3) [2A40FA40] (AR v2)
All tracks accurately ripped
End of status report
---- CUETools DB Plugin V2.1.6
[CTDB TOCID: gQiLrF3zvizruWGXF46IdiXn3BQ-] found
Submit result: gQiLrF3zvizruWGXF46IdiXn3BQ- has been confirmed
Track | CTDB Status
1 | (3/3) Accurately ripped
2 | (3/3) Accurately ripped
3 | (3/3) Accurately ripped
4 | (3/3) Accurately ripped
5 | (3/3) Accurately ripped
6 | (3/3) Accurately ripped
7 | (3/3) Accurately ripped
8 | (3/3) Accurately ripped
9 | (3/3) Accurately ripped
10 | (3/3) Accurately ripped
==== Log checksum 33995E05C6BC7E0EEB4308E1DA812EBC275C8958E34BEB75F25FA9FF4EAA0E1A ====
-

2012 - [CD] One Voice For The Kingdom (Japanese Edition) (King Record Co., Ltd. KICP-1642) [00:54:38]

01. The Temple Will Remain
02. Spirit War
03. One Voice for the Kingdom
04. Night Light
05. Golden Resurrection
06. Can't Slow Down
07. Heavenly Metal
08. God's Mercy
09. Born for the Strangers
10. Moore Lord
11. Special Message to Japan (Bonus Track)
12. Eternal Freedom (Bonus Track)
Christian Liljegren - Vocals
Stefan Käck - Bass
Tommy Johansson - Guitars, Keyboards
Svenne Jansson - Keyboards
Alfred Fridhagen - Drums

Лог создания рипа

Exact Audio Copy V1.3 from 2. September 2016
EAC extraction logfile from 23. April 2017, 15:20
Golden Resurrection / One Voice for the Kingdom (Japan)
Used drive : MATSHITADVD-RAM UJ8G6 Adapter: 1 ID: 0
Read mode : Secure
Utilize accurate stream : Yes
Defeat audio cache : Yes
Make use of C2 pointers : No
Read offset correction : 103
Overread into Lead-In and Lead-Out : No
Fill up missing offset samples with silence : Yes
Delete leading and trailing silent blocks : No
Null samples used in CRC calculations : Yes
Used interface : Native Win32 interface for Win NT & 2000
Used output format : User Defined Encoder
Selected bitrate : 1024 kBit/s
Quality : High
Add ID3 tag : No
Command line compressor : C:\Program Files (x86)\Exact Audio Copy\FLAC\FLAC.EXE
Additional command line options : -V -8 -T "Date=%year%" -T"Genre=%genre%" -T"COMMENT=Ripped by Ilijan - ilko" -8 -V %source%
TOC of the extracted CD
Track | Start | Length | Start sector | End sector
---------------------------------------------------------
1 | 0:00.00 | 4:54.70 | 0 | 22119
2 | 4:54.70 | 5:04.49 | 22120 | 44968
3 | 9:59.44 | 3:55.04 | 44969 | 62597
4 | 13:54.48 | 5:08.12 | 62598 | 85709
5 | 19:02.60 | 5:07.73 | 85710 | 108807
6 | 24:10.58 | 4:47.69 | 108808 | 130401
7 | 28:58.52 | 4:00.05 | 130402 | 148406
8 | 32:58.57 | 4:00.00 | 148407 | 166406
9 | 36:58.57 | 5:55.38 | 166407 | 193069
10 | 42:54.20 | 5:44.32 | 193070 | 218901
11 | 48:38.52 | 1:08.10 | 218902 | 224011
12 | 49:46.62 | 4:51.47 | 224012 | 245883
Range status and errors
Selected range
Filename D:\ilko\Golden Resurrection - One Voice for the Kingdom (Japan).wav
Peak level 99.7 %
Extraction speed 4.0 X
Range quality 100.0 %
Test CRC 2C48D409
Copy CRC 2C48D409
Copy OK
No errors occurred
AccurateRip summary
Track 1 accurately ripped (confidence 6) [2ABF5CB0] (AR v2)
Track 2 accurately ripped (confidence 6) [7AEAEDA8] (AR v2)
Track 3 accurately ripped (confidence 6) [E6D55CFE] (AR v2)
Track 4 accurately ripped (confidence 6) [2239380E] (AR v2)
Track 5 accurately ripped (confidence 6) [1BC4082F] (AR v2)
Track 6 accurately ripped (confidence 6) [C162520B] (AR v2)
Track 7 accurately ripped (confidence 6) [E51D6AB9] (AR v2)
Track 8 accurately ripped (confidence 6) [4B8F27A6] (AR v2)
Track 9 accurately ripped (confidence 6) [AEEC27BB] (AR v2)
Track 10 accurately ripped (confidence 6) [4547B0F9] (AR v2)
Track 11 accurately ripped (confidence 6) [781C5F0F] (AR v2)
Track 12 accurately ripped (confidence 6) [D0086AAD] (AR v2)
All tracks accurately ripped
End of status report
---- CUETools DB Plugin V2.1.6
[CTDB TOCID: qveSpVXJFeUqf9L2loeRObJdk8g-] found
Submit result: qveSpVXJFeUqf9L2loeRObJdk8g- has been confirmed
Track | CTDB Status
1 | (3/3) Accurately ripped
2 | (3/3) Accurately ripped
3 | (3/3) Accurately ripped
4 | (3/3) Accurately ripped
5 | (3/3) Accurately ripped
6 | (3/3) Accurately ripped
7 | (3/3) Accurately ripped
8 | (3/3) Accurately ripped
9 | (3/3) Accurately ripped
10 | (3/3) Accurately ripped
11 | (3/3) Accurately ripped
12 | (3/3) Accurately ripped
==== Log checksum 35D796BF3DE39E0800C912EB8973CDACBB726E02CA80BB50876FFD13F4464A61 ====
-

To download the file disable ad blocking, and reload the page.

disable adblock How to disable ad blocking?

Download by magnet link 1.25 GB Download Torrent

Login using:

Similar topics



   
Current time is: 23-Oct 07:15 :: All times are UTC ± 0