Jag Panzer / 16CD

Жанр: Heavy Metal
Носитель: CD
Страна-производитель диска (релиза): USA, Germany
Год издания: 1983-2011
Издатель (лейбл): Century Media
Страна исполнителя (группы): USA
Аудиокодек: FLAC (*.flac)
Тип рипа: image+.cue
Битрейт аудио: lossless
Источник (релизер): deminbek, spiralarch, inotuh, VARVAAR, ilko,
SHI и Carcass (MeTaLMaDNeSS.TeaM)
Наличие сканов в содержимом раздачи: да

1983 - Tyrants [1992, Mausoleum, 904 003.9, Germany]

01. Battle Zones (3:38)
02. Death Row (2:54)
03. Metal Melts The Ice (4:10)
04. Iron Shadows (5:53)
05. Tower Of Darkness (2:18)

Лог создания рипа

EAC extraction logfile from 16. June 2007, 19:48 for CD
Jag Panzer / Tyrants
Used drive : LITE-ON DVDRW SHM-165P6S Adapter: 1 ID: 1
Read mode : Secure with NO C2, accurate stream, disable cache
Read offset correction : 6
Overread into Lead-In and Lead-Out : No
Used output format : Internal WAV Routines
44.100 Hz; 16 Bit; Stereo
Other options :
Fill up missing offset samples with silence : Yes
Delete leading and trailing silent blocks : No
Native Win32 interface for Win NT & 2000
Range status and errors
Selected range
Filename J:\Jag Panzer - Tyrants.wav
Peak level 100.0 %
Range quality 100.0 %
CRC E3BED19B
Copy OK
No errors occured
End of status report

1983 - Tyrants [2013, High Roller Rec., HRR 290 CD, Germany]

01. Battle Zones (3:39)
02. Death Row (2:56)
03. Metal Melts The Ice (4:42)
04. Iron Shadows (5:21)
05. Tower Of Darkness (Bonus Track, Previously Unreleased) (2:26)
06. The Oracle (Bonus Track, Previously Unreleased) (2:29)
07. Under The Knife (Bonus Track, Previously Unreleased) (2:43)
08. The Crucifix (Bonus Track, Unreleased Demo Version) (6:21)
09. Battle Zones (Bonus Track, Unreleased Demo Version) (3:27)
10. Rockin Roll Suicide (Bonus Track, Previously Unreleased) (3:32)
11. On The Rocks (Bonus Track, Previously Unreleased) (7:33)
12. Sit On My Face (Bonus Track, Previously Unreleased) (0:16)

Лог создания рипа

Exact Audio Copy V1.0 beta 3 from 29. August 2011
EAC extraction logfile from 15. October 2014, 18:55
Jag Panzer / Tyrants [HRR 290 CD, Remastered 2013]
Used drive : TSSTcorpCDDVDW SH-222BB Adapter: 1 ID: 0
Read mode : Secure
Utilize accurate stream : Yes
Defeat audio cache : Yes
Make use of C2 pointers : No
Read offset correction : 6
Overread into Lead-In and Lead-Out : No
Fill up missing offset samples with silence : Yes
Delete leading and trailing silent blocks : No
Null samples used in CRC calculations : Yes
Used interface : Native Win32 interface for Win NT & 2000
Used output format : User Defined Encoder
Selected bitrate : 1024 kBit/s
Quality : High
Add ID3 tag : No
Command line compressor : C:\Program Files\Exact Audio Copy\FLAC\FLAC.EXE
Additional command line options : -V -8 -T "Date=%year%" -T "Genre=%genre%" %source%
TOC of the extracted CD
Track | Start | Length | Start sector | End sector
---------------------------------------------------------
1 | 0:00.00 | 3:38.38 | 0 | 16387
2 | 3:38.38 | 2:56.10 | 16388 | 29597
3 | 6:34.48 | 4:41.59 | 29598 | 50731
4 | 11:16.32 | 5:20.58 | 50732 | 74789
5 | 16:37.15 | 2:26.24 | 74790 | 85763
6 | 19:03.39 | 2:29.19 | 85764 | 96957
7 | 21:32.58 | 2:43.18 | 96958 | 109200
8 | 24:16.01 | 6:21.06 | 109201 | 137781
9 | 30:37.07 | 3:26.53 | 137782 | 153284
10 | 34:03.60 | 3:31.53 | 153285 | 169162
11 | 37:35.38 | 7:33.20 | 169163 | 203157
12 | 45:08.58 | 0:15.68 | 203158 | 204350
Range status and errors
Selected range
Filename C:\Users\inotuh\Desktop\Jag Panzer - Tyrants [HRR 290 CD, Remastered 2013].wav
Peak level 97.0 %
Extraction speed 6.8 X
Range quality 100.0 %
Test CRC 995E7C3A
Copy CRC 995E7C3A
Copy OK
No errors occurred
AccurateRip summary
Track 1 accurately ripped (confidence 1) [7EFFCF66] (AR v2)
Track 2 accurately ripped (confidence 1) [0788D2ED] (AR v2)
Track 3 accurately ripped (confidence 1) [2148649A] (AR v2)
Track 4 accurately ripped (confidence 1) [E95B449A] (AR v2)
Track 5 accurately ripped (confidence 1) [3A9D575E] (AR v2)
Track 6 accurately ripped (confidence 1) [1685164B] (AR v2)
Track 7 accurately ripped (confidence 1) [6C7E01D2] (AR v2)
Track 8 accurately ripped (confidence 1) [CDFC3943] (AR v2)
Track 9 accurately ripped (confidence 1) [E382ECFE] (AR v2)
Track 10 accurately ripped (confidence 1) [4B0CD602] (AR v2)
Track 11 accurately ripped (confidence 1) [5B4EDFC4] (AR v2)
Track 12 accurately ripped (confidence 1) [E339AD71] (AR v2)
All tracks accurately ripped
End of status report
---- CUETools DB Plugin V2.1.5
[CTDB TOCID: cGh8M4qTjwD7_Em.MjOOuCyQG0A-] found
Submit result: cGh8M4qTjwD7_Em.MjOOuCyQG0A- has been confirmed
Track | CTDB Status
1 | (5/5) Accurately ripped
2 | (5/5) Accurately ripped
3 | (5/5) Accurately ripped
4 | (5/5) Accurately ripped
5 | (5/5) Accurately ripped
6 | (5/5) Accurately ripped
7 | (5/5) Accurately ripped
8 | (5/5) Accurately ripped
9 | (5/5) Accurately ripped
10 | (5/5) Accurately ripped
11 | (5/5) Accurately ripped
12 | (5/5) Accurately ripped
==== Log checksum 9C106924D702CC89DB474E9BC98B5DD68325BE5BD8A0778A8014C4BA8B382F20 ====

1984 - Ample Destruction [1990, MetalCore, CORE 6 CD, France]

01. Licensed To Kill (3:03)
02. Warfare (5:13)
03. Symphony Of Terror (4:26)
04. Harder Than Steel (4:55)
05. Generally Hostile (3:20)
06. The Watching (4:09)
07. Reign Of The Tyrants (3:37)
08. Cardiac Arrest (3:15)
09. The Crucifix (7:29)
10. Instrumental (0:58)
11. Black Sunday (2:50)
12. Eyes Of The Night (6:08)
13. Fallen Angel (3:18)

Лог создания рипа

EAC extraction logfile from 16. June 2007, 14:08 for CD
Jag Panzer / Ample Destruction
Used drive : LITE-ON DVDRW SHM-165P6S Adapter: 1 ID: 1
Read mode : Secure with NO C2, accurate stream, disable cache
Read offset correction : 6
Overread into Lead-In and Lead-Out : No
Used output format : Internal WAV Routines
44.100 Hz; 16 Bit; Stereo
Other options :
Fill up missing offset samples with silence : Yes
Delete leading and trailing silent blocks : No
Native Win32 interface for Win NT & 2000
Range status and errors
Selected range
Filename J:\Jag Panzer - Ample Destruction.wav
Peak level 100.0 %
Range quality 100.0 %
CRC 00634509
Copy OK
No errors occured
End of status report

1984 - Ample Destruction [2001, No Poser Rec., NP-015, USA]

01. Licensed to Kill (3:01)
02. Warfare (5:14)
03. Symphony of Terror (4:24)
04. Harder Than Steel (4:55)
05. Generally Hostile (3:18)
06. The Watching (4:08)
07. Reign of the Tyrants (4:32)
08. Cardiac Arrest (3:14)
09. The Crucifix (7:28)
10. Battle Zones (3:38)
11. Death Row (2:56)
12. When the Metal Melts the Ice (4:08)
13. Iron Shadows (5:53)

Лог создания рипа

Exact Audio Copy V1.0 beta 6 from 9. April 2015
EAC extraction logfile from 19. April 2017, 19:50
Jag Panzer / Ample Destruction+ep
Used drive : Optiarc DVD RW AD-7243S Adapter: 1 ID: 0
Read mode : Secure
Utilize accurate stream : Yes
Defeat audio cache : Yes
Make use of C2 pointers : No
Read offset correction : 48
Overread into Lead-In and Lead-Out : No
Fill up missing offset samples with silence : Yes
Delete leading and trailing silent blocks : No
Null samples used in CRC calculations : Yes
Used interface : Installed external ASPI interface
Used output format : User Defined Encoder
Selected bitrate : 768 kBit/s
Quality : High
Add ID3 tag : No
Command line compressor : D:\Flac\flac-1.3.1-win\win64\flac.exe
Additional command line options : -V -8 -T "Date=%year%" -T "Genre=%genre%" %source%
TOC of the extracted CD
Track | Start | Length | Start sector | End sector
---------------------------------------------------------
1 | 0:00.02 | 3:00.74 | 2 | 13575
2 | 3:01.01 | 5:13.53 | 13576 | 37103
3 | 8:14.54 | 4:23.57 | 37104 | 56885
4 | 12:38.36 | 4:55.09 | 56886 | 79019
5 | 17:33.45 | 3:18.31 | 79020 | 93900
6 | 20:52.01 | 4:08.03 | 93901 | 112503
7 | 25:00.04 | 4:31.68 | 112504 | 132896
8 | 29:31.72 | 3:13.70 | 132897 | 147441
9 | 32:45.67 | 7:28.28 | 147442 | 181069
10 | 40:14.20 | 3:37.44 | 181070 | 197388
11 | 43:51.64 | 2:55.72 | 197389 | 210585
12 | 46:47.61 | 4:07.42 | 210586 | 229152
13 | 50:55.28 | 5:53.26 | 229153 | 255653
Range status and errors
Selected range
Filename D:\Мои релизы\Jag Panzer[2001][1984]Ample destruction+[1983]EP(NP-015)\Jag Panzer - Ample
Destruction+ep.wav
Peak level 100.0 %
Extraction speed 3.9 X
Range quality 100.0 %
Test CRC 4B7C56BF
Copy CRC 4B7C56BF
Copy OK
No errors occurred
AccurateRip summary
Track 1 accurately ripped (confidence 2) [B39FC470] (AR v2)
Track 2 accurately ripped (confidence 2) [6648E220] (AR v2)
Track 3 accurately ripped (confidence 2) [0502B96F] (AR v2)
Track 4 accurately ripped (confidence 2) [1E2EC697] (AR v2)
Track 5 accurately ripped (confidence 2) [F436E2BF] (AR v2)
Track 6 accurately ripped (confidence 2) [EA8C4BEC] (AR v2)
Track 7 accurately ripped (confidence 2) [F9508745] (AR v2)
Track 8 accurately ripped (confidence 2) [BFB018A4] (AR v2)
Track 9 accurately ripped (confidence 2) [B5AFA88B] (AR v2)
Track 10 accurately ripped (confidence 2) [8247C2D3] (AR v2)
Track 11 accurately ripped (confidence 2) [D59DEDD1] (AR v2)
Track 12 accurately ripped (confidence 2) [EBD85EEE] (AR v2)
Track 13 accurately ripped (confidence 2) [4AA0FB1D] (AR v2)
All tracks accurately ripped
End of status report
==== Log checksum 13C4CCD59FC3D7DBD853B199F2EEE0D3AC5C6BA89BD53C9E29583EA188554AD3 ====

1986 - Shadow Thief [1992, Reborn Classics, RC 1002, Germany]

01. In-A-Gadda-Da-Vida (5:19)
02. Shadow Thief (5:24)
03. Lying Deceiver (5:09)
04. Out Of Sight, Out Of Mind (5:00)
05. Fallen Angel (3:19)
06. Viper (4:54)
07. Take This Pain (4:01)
08. Lustful And Free (4:56)
09. Death (4:51)
10. Sleep Of Despair (7:27)
11. Inner Ascendance (4:20)
12. Life (7:01)
13. Nihilism's Spell (5:45)
14. Technocricide (5:06)

Лог создания рипа

Exact Audio Copy V1.3 from 2. September 2016
EAC extraction logfile from 9. April 2017, 21:34
Jag Panzer / Shadow Thief / Inner Ascendance
Used drive : ASUS DRW-24B3ST Adapter: 1 ID: 0
Read mode : Secure
Utilize accurate stream : Yes
Defeat audio cache : Yes
Make use of C2 pointers : No
Read offset correction : 6
Overread into Lead-In and Lead-Out : No
Fill up missing offset samples with silence : Yes
Delete leading and trailing silent blocks : No
Null samples used in CRC calculations : Yes
Used interface : Installed external ASPI interface
Used output format : User Defined Encoder
Selected bitrate : 1024 kBit/s
Quality : High
Add ID3 tag : No
Command line compressor : C:\Program Files (x86)\Exact Audio Copy\FLAC\FLAC.EXE
Additional command line options : -V -8 -T "Date=%year%" -T "Genre=%genre%" %source%
TOC of the extracted CD
Track | Start | Length | Start sector | End sector
---------------------------------------------------------
1 | 0:00.00 | 5:19.14 | 0 | 23938
2 | 5:19.14 | 5:24.28 | 23939 | 48266
3 | 10:43.42 | 5:08.67 | 48267 | 71433
4 | 15:52.34 | 4:59.71 | 71434 | 93929
5 | 20:52.30 | 3:19.28 | 93930 | 108882
6 | 24:11.58 | 4:53.65 | 108883 | 130922
7 | 29:05.48 | 4:01.25 | 130923 | 149022
8 | 33:06.73 | 4:55.68 | 149023 | 171215
9 | 38:02.66 | 4:51.35 | 171216 | 193075
10 | 42:54.26 | 7:27.15 | 193076 | 226615
11 | 50:21.41 | 4:20.08 | 226616 | 246123
12 | 54:41.49 | 7:00.40 | 246124 | 277663
13 | 61:42.14 | 5:45.30 | 277664 | 303568
14 | 67:27.44 | 5:05.47 | 303569 | 326490
Range status and errors
Selected range
Filename C:\CD Rip By deminbek\Jag Panzer - Shadow Thief , Inner Ascendance.wav
Peak level 95.9 %
Extraction speed 6.3 X
Range quality 99.9 %
Test CRC ECD68806
Copy CRC ECD68806
Copy OK
No errors occurred
AccurateRip summary
Track 1 accurately ripped (confidence 3) [D4517F9B] (AR v1)
Track 2 accurately ripped (confidence 3) [2CA6AB51] (AR v1)
Track 3 accurately ripped (confidence 3) [C33D0809] (AR v1)
Track 4 accurately ripped (confidence 3) [A56BEDC3] (AR v1)
Track 5 accurately ripped (confidence 3) [12625493] (AR v1)
Track 6 accurately ripped (confidence 3) [8E4BFE12] (AR v1)
Track 7 accurately ripped (confidence 3) [43C40C12] (AR v1)
Track 8 accurately ripped (confidence 3) [A45D8BB2] (AR v1)
Track 9 accurately ripped (confidence 3) [1DD29F84] (AR v1)
Track 10 accurately ripped (confidence 3) [CFD1129A] (AR v1)
Track 11 accurately ripped (confidence 3) [86663F94] (AR v1)
Track 12 accurately ripped (confidence 3) [8AC95494] (AR v1)
Track 13 accurately ripped (confidence 3) [0E9EDADF] (AR v1)
Track 14 accurately ripped (confidence 3) [B9879800] (AR v1)
All tracks accurately ripped
End of status report
---- CUETools DB Plugin V2.1.6
[CTDB TOCID: Z2_bIst4QQAHO62ivOIffHwYM8M-] found
Submit result: Z2_bIst4QQAHO62ivOIffHwYM8M- has been confirmed
Track | CTDB Status
1 | (1/1) Accurately ripped
2 | (1/1) Accurately ripped
3 | (1/1) Accurately ripped
4 | (1/1) Accurately ripped
5 | (1/1) Accurately ripped
6 | (1/1) Accurately ripped
7 | (1/1) Accurately ripped
8 | (1/1) Accurately ripped
9 | (1/1) Accurately ripped
10 | (1/1) Accurately ripped
11 | (1/1) Accurately ripped
12 | (1/1) Accurately ripped
13 | (1/1) Accurately ripped
14 | (1/1) Accurately ripped
==== Log checksum 7CC061F36DC74EF7FF64E296F68068DB6BF0B47EA38F88CADAB3A738246560A8 ====

1986 - Shadow Thief [2013, High Roller Rec., HRR 292 CD, Germany]

01. Lustfull And Free (4:51)
02. Fallen Angel (3:17)
03. Out Of Sight, Out Of Mind (4:59)
04. Take This Pain Away (3:59)
05. In-A-Gadda-Da-Vida (Iron Butterfly cover) (5:18)
06. Shadow Thief (5:21)
07. Lying Deceiver (5:20)
08. Viper (4:50)
09. Eyes Of The Night (6:05)

Лог создания рипа

Exact Audio Copy V1.0 beta 3 from 29. August 2011
EAC extraction logfile from 15. October 2014, 18:21
Jag Panzer / Shadow Thief [HRR 292 CD, Remastered 2013]
Used drive : TSSTcorpCDDVDW SH-222BB Adapter: 1 ID: 0
Read mode : Secure
Utilize accurate stream : Yes
Defeat audio cache : Yes
Make use of C2 pointers : No
Read offset correction : 6
Overread into Lead-In and Lead-Out : No
Fill up missing offset samples with silence : Yes
Delete leading and trailing silent blocks : No
Null samples used in CRC calculations : Yes
Used interface : Native Win32 interface for Win NT & 2000
Used output format : User Defined Encoder
Selected bitrate : 1024 kBit/s
Quality : High
Add ID3 tag : No
Command line compressor : C:\Program Files\Exact Audio Copy\FLAC\FLAC.EXE
Additional command line options : -V -8 -T "Date=%year%" -T "Genre=%genre%" %source%
TOC of the extracted CD
Track | Start | Length | Start sector | End sector
---------------------------------------------------------
1 | 0:00.00 | 4:50.60 | 0 | 21809
2 | 4:50.60 | 3:16.63 | 21810 | 36572
3 | 8:07.48 | 4:58.41 | 36573 | 58963
4 | 13:06.14 | 3:58.44 | 58964 | 76857
5 | 17:04.58 | 5:17.70 | 76858 | 100702
6 | 22:22.53 | 5:21.37 | 100703 | 124814
7 | 27:44.15 | 5:19.45 | 124815 | 148784
8 | 33:03.60 | 4:49.60 | 148785 | 170519
9 | 37:53.45 | 6:05.15 | 170520 | 197909
Range status and errors
Selected range
Filename C:\Users\inotuh\Desktop\Jag Panzer - Shadow Thief [HRR 292 CD, Remastered 2013].wav
Peak level 97.0 %
Extraction speed 6.7 X
Range quality 100.0 %
Test CRC CB361C1A
Copy CRC CB361C1A
Copy OK
No errors occurred
AccurateRip summary
Track 1 accurately ripped (confidence 1) [7EBEB154] (AR v2)
Track 2 accurately ripped (confidence 1) [3E6D60ED] (AR v2)
Track 3 accurately ripped (confidence 1) [9C1E28BB] (AR v2)
Track 4 accurately ripped (confidence 1) [450F486B] (AR v2)
Track 5 accurately ripped (confidence 1) [B26831B8] (AR v2)
Track 6 accurately ripped (confidence 1) [3760DAD5] (AR v2)
Track 7 accurately ripped (confidence 1) [8A927798] (AR v2)
Track 8 accurately ripped (confidence 1) [EC8FA6B4] (AR v2)
Track 9 accurately ripped (confidence 1) [C08C491D] (AR v2)
All tracks accurately ripped
End of status report
---- CUETools DB Plugin V2.1.5
[CTDB TOCID: vJyyJrG6szuD.ip5QkQM_P12OMw-] found
Submit result: vJyyJrG6szuD.ip5QkQM_P12OMw- has been confirmed
Track | CTDB Status
1 | (4/4) Accurately ripped
2 | (4/4) Accurately ripped
3 | (4/4) Accurately ripped
4 | (4/4) Accurately ripped
5 | (4/4) Accurately ripped
6 | (4/4) Accurately ripped
7 | (4/4) Accurately ripped
8 | (4/4) Accurately ripped
9 | (4/4) Accurately ripped
==== Log checksum E5015551689D7053482F00F9F368B85A69B7DE3EFE73DCDF47A4212636AD6918 ====

1987 - Chain Of Command [1991, Reborn Classics, RC 1001, Germany]

01. Prelude (0:23)
02. Chain Of Command (5:06)
03. Shadow Thief (5:26)
04. She Waits (4:56)
05. Ride Through The Storm (5:23)
06. In-A-Gadda-Da-Vida (4:44)
07. Never Surrender (4:50)
08. Burning Heart (3:47)
09. Sworn To Silence (3:13)
10. Dream Theme (4:35)
11. Gavotte In D (1:09)
12. Another Won (5:36)
13. Your Majesty (3:52)
14. A Vision (11:33)
15. Two Far (5:32)
16. March Of The Tyrant (5:40)

Лог создания рипа

EAC extraction logfile from 30. August 2008, 17:43 for CD
Jag Panzer / Chain Of Command
Used drive : PLEXTOR DVDR PX-800A Adapter: 1 ID: 0
Read mode : Secure with NO C2, accurate stream, disable cache
Read offset correction : 48
Overread into Lead-In and Lead-Out : No
Used output format : Internal WAV Routines
44.100 Hz; 16 Bit; Stereo
Other options :
Fill up missing offset samples with silence : Yes
Delete leading and trailing silent blocks : No
Installed external ASPI interface
Range status and errors
Selected range
Filename J:\MMT\Jag Panzer - Chain Of Command.wav
Peak level 100.0 %
Range quality 100.0 %
CRC F2E2C785
Copy OK
No errors occured
End of status report

1987 - Chain Of Command [2004, Century Media, 77569-2, Germany]

01. Prelude + Chain Of Command (5:31)
02. Shadow Thief (5:27)
03. She Waits (4:55)
04. Ride Through The Storm (5:23)
05. In A Gadda Da Vida (4:45)
06. Never Surrender (4:48)
07. Burning Heart (3:46)
08. Sworn To Silence (3:14)
09. Dream Theme (4:36)
10. Gavotte In D (1:08)
11. When The Walls Come Down (bonus) (4:47)

Лог создания рипа

Exact Audio Copy V1.0 beta 1 from 15. November 2010
EAC extraction logfile from 13. September 2011, 17:01
Jag Panzer / Chain Of Command (2004)
Used drive : Optiarc DVD RW AD-7240S Adapter: 2 ID: 0
Read mode : Secure
Utilize accurate stream : Yes
Defeat audio cache : Yes
Make use of C2 pointers : No
Read offset correction : 48
Overread into Lead-In and Lead-Out : No
Fill up missing offset samples with silence : Yes
Delete leading and trailing silent blocks : No
Null samples used in CRC calculations : Yes
Used interface : Native Win32 interface for Win NT & 2000
Used output format : Internal WAV Routines
Sample format : 44.100 Hz; 16 Bit; Stereo
TOC of the extracted CD
Track | Start | Length | Start sector | End sector
---------------------------------------------------------
1 | 0:00.00 | 5:30.68 | 0 | 24817
2 | 5:30.68 | 5:26.50 | 24818 | 49317
3 | 10:57.43 | 4:54.66 | 49318 | 71433
4 | 15:52.34 | 5:23.13 | 71434 | 95671
5 | 21:15.47 | 4:44.56 | 95672 | 117027
6 | 26:00.28 | 4:48.28 | 117028 | 138655
7 | 30:48.56 | 3:45.66 | 138656 | 155596
8 | 34:34.47 | 3:13.45 | 155597 | 170116
9 | 37:48.17 | 4:36.37 | 170117 | 190853
10 | 42:24.54 | 1:07.45 | 190854 | 195923
11 | 43:32.24 | 4:47.20 | 195924 | 217468
Range status and errors
Selected range
Filename D:\spiralarch\Jag Panzer - Chain Of Command (2004).wav
Peak level 96.5 %
Extraction speed 0.3 X
Range quality 99.9 %
Copy CRC AD9E381B
Copy OK
No errors occurred
AccurateRip summary
Track 1 accurately ripped (confidence 9) [1AFE6D36]
Track 2 accurately ripped (confidence 9) [78D2A06B]
Track 3 accurately ripped (confidence 9) [2FBA82B1]
Track 4 accurately ripped (confidence 9) [4ABB67E2]
Track 5 accurately ripped (confidence 9) [5CECA222]
Track 6 accurately ripped (confidence 8) [18E45E42]
Track 7 accurately ripped (confidence 9) [5C12FDF2]
Track 8 accurately ripped (confidence 9) [83BDDA23]
Track 9 accurately ripped (confidence 8) [48C413BC]
Track 10 accurately ripped (confidence 9) [0F581A24]
Track 11 accurately ripped (confidence 9) [A990AF77]
All tracks accurately ripped
End of status report
==== Log checksum 2DCD3B88AD899765A2BC0213ABACFB948F8175BD7FDCC5E0024FCCECFECA33EE ====

1994 - Dissident Alliance [Rising Sun Productions, 084-62292, Germany]

01. Jeffrey - Behind The Gate (7:21)
02. The Clown (3:11)
03. Forsaken Child (5:29)
04. Edge Of Blindness (3:59)
05. Eve Of Penance (7:13)
06. Last Dying Breath (5:13)
07. Psycho Next Door (4:04)
08. Spirit Suicide (5:44)
09. GMV 407 (4:32)
10. The Church (5:01)
11. Whisper God (4:18)

Лог создания рипа

Exact Audio Copy V1.0 beta 1 from 15. November 2010
EAC extraction logfile from 19. September 2011, 15:44
Jag Panzer / Dissident Alliance
Used drive : Optiarc DVD RW AD-7240S Adapter: 2 ID: 0
Read mode : Secure
Utilize accurate stream : Yes
Defeat audio cache : Yes
Make use of C2 pointers : No
Read offset correction : 48
Overread into Lead-In and Lead-Out : No
Fill up missing offset samples with silence : Yes
Delete leading and trailing silent blocks : No
Null samples used in CRC calculations : Yes
Used interface : Native Win32 interface for Win NT & 2000
Used output format : Internal WAV Routines
Sample format : 44.100 Hz; 16 Bit; Stereo
TOC of the extracted CD
Track | Start | Length | Start sector | End sector
---------------------------------------------------------
1 | 0:00.00 | 7:20.45 | 0 | 33044
2 | 7:20.45 | 3:10.55 | 33045 | 47349
3 | 10:31.25 | 5:29.12 | 47350 | 72036
4 | 16:00.37 | 3:59.23 | 72037 | 89984
5 | 19:59.60 | 7:13.27 | 89985 | 122486
6 | 27:13.12 | 5:12.38 | 122487 | 145924
7 | 32:25.50 | 4:03.60 | 145925 | 164209
8 | 36:29.35 | 5:43.65 | 164210 | 189999
9 | 42:13.25 | 4:32.00 | 190000 | 210399
10 | 46:45.25 | 5:00.62 | 210400 | 232961
11 | 51:46.12 | 4:17.63 | 232962 | 252299
Range status and errors
Selected range
Filename D:\spiralarch\Jag Panzer - Dissident Alliance.wav
Peak level 100.0 %
Extraction speed 0.3 X
Range quality 100.0 %
Copy CRC 62E8CBC0
Copy OK
No errors occurred
AccurateRip summary
Track 1 cannot be verified as accurate (confidence 8) [51D3CC28], AccurateRip returned [36E89828]
Track 2 cannot be verified as accurate (confidence 8) [ED691FD0], AccurateRip returned [5B23B206]
Track 3 cannot be verified as accurate (confidence 8) [00EC494C], AccurateRip returned [044F2322]
Track 4 cannot be verified as accurate (confidence 8) [814639BA], AccurateRip returned [A1C29BBA]
Track 5 cannot be verified as accurate (confidence 8) [EEBD90FD], AccurateRip returned [F6D3217D]
Track 6 cannot be verified as accurate (confidence 8) [4E16F0A3], AccurateRip returned [7A659837]
Track 7 cannot be verified as accurate (confidence 8) [64281290], AccurateRip returned [A89CE40C]
Track 8 cannot be verified as accurate (confidence 8) [FDF36155], AccurateRip returned [3B869F55]
Track 9 cannot be verified as accurate (confidence 8) [E0B9CBB1], AccurateRip returned [C08B0331]
Track 10 cannot be verified as accurate (confidence 8) [B0EF6FFB], AccurateRip returned [5D5C2F7B]
Track 11 cannot be verified as accurate (confidence 8) [168707D0], AccurateRip returned [C2FE7950]
No tracks could be verified as accurate
You may have a different pressing from the one(s) in the database
End of status report
==== Log checksum 87AF682AF09405A3927289C3AFDC9F7C1BFC2A5473E478835F637CDCB9F007DF ====

1997 - The Fourth Judgement [1997, Century Media, 77172-2, Germany]

01. Black (4:54)
02. Call Of The Wild (3:17)
03. Despair (4:21)
04. Future Shock (3:54)
05. Recompense (4:46)
06. Ready To Strike (2:33)
07. Tyranny (3:15)
08. Shadow Thief (5:33)
09. Sonet Of Sorrow (2:21)
10. Judgement Day (6:47)

Лог создания рипа

EAC extraction logfile from 1. October 2005, 17:59 for CD
Jag Panzer / Fourth Judgement
Used drive : JLMS XJ-HD166S Adapter: 0 ID: 3
Read mode : Secure with NO C2, accurate stream, disable cache
Read offset correction : 12
Overread into Lead-In and Lead-Out : No
Used output format : C:\Program Files\eac\MAC.exe (Monkey's Audio Lossless Encoder)
Extra High Lossless Compression
Other options :
Fill up missing offset samples with silence : Yes
Delete leading and trailing silent blocks : No
Installed external ASPI interface
Range status and errors
Selected range
Filename ...\CDImage.wav
Peak level 96.3 %
Range quality 100.0 %
CRC 943B74D7
Copy OK
No errors occured
End of status report

1997 - The Fourth Judgement [2007, Century Media, 77671-2, Germany]

01. Black (4:58)
02. Call Of The Wild (3:19)
03. Despair (4:23)
04. Future Shock (3:56)
05. Recompense (4:48)
06. Ready To Strike (2:35)
07. Tyranny (3:17)
08. Shadow Thief (5:35)
09. Sonet Of Sorrow (2:23)
10. Judgement Day (6:49)
11. Future Shock (demo) (3:56)
12. Ready To Strike (demo) (2:37)
13. Black (demo) (4:34)

Лог создания рипа

Exact Audio Copy V1.0 beta 1 from 15. November 2010
EAC extraction logfile from 19. September 2011, 16:39
Jag Panzer / The Fourth Judgement (2007)
Used drive : Optiarc DVD RW AD-7240S Adapter: 2 ID: 0
Read mode : Secure
Utilize accurate stream : Yes
Defeat audio cache : Yes
Make use of C2 pointers : No
Read offset correction : 48
Overread into Lead-In and Lead-Out : No
Fill up missing offset samples with silence : Yes
Delete leading and trailing silent blocks : No
Null samples used in CRC calculations : Yes
Used interface : Native Win32 interface for Win NT & 2000
Used output format : Internal WAV Routines
Sample format : 44.100 Hz; 16 Bit; Stereo
TOC of the extracted CD
Track | Start | Length | Start sector | End sector
---------------------------------------------------------
1 | 0:00.00 | 4:57.47 | 0 | 22321
2 | 4:57.47 | 3:19.23 | 22322 | 37269
3 | 8:16.70 | 4:22.72 | 37270 | 56991
4 | 12:39.67 | 3:55.39 | 56992 | 74655
5 | 16:35.31 | 4:47.53 | 74656 | 96233
6 | 21:23.09 | 2:34.73 | 96234 | 107856
7 | 23:58.07 | 3:17.12 | 107857 | 122643
8 | 27:15.19 | 5:35.32 | 122644 | 147800
9 | 32:50.51 | 2:23.06 | 147801 | 158531
10 | 35:13.57 | 6:49.12 | 158532 | 189218
11 | 42:02.69 | 3:56.15 | 189219 | 206933
12 | 45:59.09 | 2:36.56 | 206934 | 218689
13 | 48:35.65 | 4:34.29 | 218690 | 239268
Range status and errors
Selected range
Filename D:\spiralarch\Jag Panzer - The Fourth Judgement (2007).wav
Peak level 100.0 %
Extraction speed 0.3 X
Range quality 100.0 %
Copy CRC B063148A
Copy OK
No errors occurred
AccurateRip summary
Track 1 cannot be verified as accurate (confidence 4) [94A7F9B7], AccurateRip returned [16EB1049]
Track 2 cannot be verified as accurate (confidence 4) [B42A5068], AccurateRip returned [049AE6EE]
Track 3 cannot be verified as accurate (confidence 4) [ADBC7E3E], AccurateRip returned [E2BDD148]
Track 4 cannot be verified as accurate (confidence 4) [E249A315], AccurateRip returned [E361A163]
Track 5 cannot be verified as accurate (confidence 4) [DCD187A3], AccurateRip returned [36B4835F]
Track 6 cannot be verified as accurate (confidence 4) [A5401CA4], AccurateRip returned [25895B8C]
Track 7 cannot be verified as accurate (confidence 4) [DC42346E], AccurateRip returned [BFC394B6]
Track 8 cannot be verified as accurate (confidence 4) [0993E8E5], AccurateRip returned [C63CC971]
Track 9 cannot be verified as accurate (confidence 4) [AD2EA1EE], AccurateRip returned [8A5D1D88]
Track 10 cannot be verified as accurate (confidence 4) [8EFF2156], AccurateRip returned [73E4D5D4]
Track 11 cannot be verified as accurate (confidence 4) [2F06AF65], AccurateRip returned [D8219949]
Track 12 cannot be verified as accurate (confidence 4) [94A2FA39], AccurateRip returned [C60D60A7]
Track 13 cannot be verified as accurate (confidence 4) [78630972], AccurateRip returned [80BEBB7A]
No tracks could be verified as accurate
You may have a different pressing from the one(s) in the database
End of status report
==== Log checksum E810F824709A476C663572DAC378267342440CCC533F02502E0F99C8C2A537A4 ====

1998 - The Age Of Mastery [Century Media, 7925-2, USA]

01. Iron Eagle (5:39)
02. Lustfull And Free (4:49)
03. Twilight Years (4:36)
04. Sworn To Silence (3:24)
05. False Messiah (Jack Starr Cover) (5:12)
06. The Age Of Mastery (4:30)
07. Viper (4:38)
08. Displacement (4:28)
09. Chain Of Command (5:50)
10. Take This Pain Away (4:46)
11. Burning Heart (3:54)
12. The Moors (5:39)

Лог создания рипа

Exact Audio Copy V1.3 from 2. September 2016
EAC extraction logfile from 9. April 2017, 22:02
Jag Panzer / The Age Of Mastery [Century Media, 7925-2, USA]
Used drive : ASUS DRW-24B3ST Adapter: 1 ID: 0
Read mode : Secure
Utilize accurate stream : Yes
Defeat audio cache : Yes
Make use of C2 pointers : No
Read offset correction : 6
Overread into Lead-In and Lead-Out : No
Fill up missing offset samples with silence : Yes
Delete leading and trailing silent blocks : No
Null samples used in CRC calculations : Yes
Used interface : Installed external ASPI interface
Used output format : User Defined Encoder
Selected bitrate : 1024 kBit/s
Quality : High
Add ID3 tag : No
Command line compressor : C:\Program Files (x86)\Exact Audio Copy\FLAC\FLAC.EXE
Additional command line options : -V -8 -T "Date=%year%" -T "Genre=%genre%" %source%
TOC of the extracted CD
Track | Start | Length | Start sector | End sector
---------------------------------------------------------
1 | 0:00.00 | 5:39.25 | 0 | 25449
2 | 5:39.25 | 4:49.35 | 25450 | 47159
3 | 10:28.60 | 4:36.30 | 47160 | 67889
4 | 15:05.15 | 3:23.70 | 67890 | 83184
5 | 18:29.10 | 5:12.25 | 83185 | 106609
6 | 23:41.35 | 4:30.35 | 106610 | 126894
7 | 28:11.70 | 4:38.32 | 126895 | 147776
8 | 32:50.27 | 4:28.35 | 147777 | 167911
9 | 37:18.62 | 5:49.50 | 167912 | 194136
10 | 43:08.37 | 4:45.65 | 194137 | 215576
11 | 47:54.27 | 3:53.58 | 215577 | 233109
12 | 51:48.10 | 5:38.52 | 233110 | 258511
Range status and errors
Selected range
Filename C:\CD Rip By deminbek\Jag Panzer - The Age Of Mastery [Century Media, 7925-2, USA].wav
Peak level 99.2 %
Extraction speed 5.6 X
Range quality 99.9 %
Test CRC 311DBB93
Copy CRC 311DBB93
Copy OK
No errors occurred
AccurateRip summary
Track 1 accurately ripped (confidence 3) [7481CAC3] (AR v2)
Track 2 accurately ripped (confidence 12) [576AF7F7] (AR v2)
Track 3 accurately ripped (confidence 12) [9848709F] (AR v2)
Track 4 accurately ripped (confidence 12) [A60FCBE2] (AR v2)
Track 5 accurately ripped (confidence 12) [95DDD908] (AR v2)
Track 6 accurately ripped (confidence 11) [90574FBD] (AR v2)
Track 7 accurately ripped (confidence 12) [9367CDAB] (AR v2)
Track 8 accurately ripped (confidence 12) [944FBD84] (AR v2)
Track 9 accurately ripped (confidence 12) [A7EDBF8A] (AR v2)
Track 10 accurately ripped (confidence 12) [85191111] (AR v2)
Track 11 accurately ripped (confidence 13) [57A544F3] (AR v2)
Track 12 accurately ripped (confidence 3) [A121E601] (AR v2)
All tracks accurately ripped
End of status report
---- CUETools DB Plugin V2.1.6
[CTDB TOCID: wsSExA.wzLNDVYTLC2rwQxZR22E-] found
Submit result: wsSExA.wzLNDVYTLC2rwQxZR22E- has been confirmed
Track | CTDB Status
1 | ( 4/27) Accurately ripped, or (20/27) differs in 485 samples @00:00:26
2 | (27/27) Accurately ripped
3 | (27/27) Accurately ripped
4 | (27/27) Accurately ripped
5 | (27/27) Accurately ripped
6 | (27/27) Accurately ripped
7 | (27/27) Accurately ripped
8 | (27/27) Accurately ripped
9 | (27/27) Accurately ripped
10 | (27/27) Accurately ripped
11 | (27/27) Accurately ripped
12 | (27/27) Accurately ripped
If you are sure that your rip contains errors, you can use CUETools to repair it.
==== Log checksum 4AFFFB66572F3671BF02AF6B79ED50EB61F677103CEC78B3047A8A665B1A96A7 ====

2000 - Thane To The Throne [Century Media, 7993-2, USA]

01. Thane Of Cawdor (4:51)
02. King At A Price (3:49)
03. Bloody Crime (5:35)
04. The Premonitions (0:28)
05. Treachery's Stain (4:11)
06. Spectres Of The Past (3:46)
07. Banquo's Final Rest (0:22)
08. Three Voices Of Fate (5:13)
09. Hell To Pay (4:32)
10. The Prophecies (Fugue In D Minor) (1:43)
11. Insanity's Mind (5:25)
12. Requiem For Lady Macbeth (0:24)
13. Face Of Fear (3:21)
14. Fall Of Dunsinane (5:17)
15. Fate's Triumph (4:38)
16. The Downward Fall (2:49)
17. Tragedy Of Macbeth (8:19)

Лог создания рипа

Exact Audio Copy V1.3 from 2. September 2016
EAC extraction logfile from 10. April 2017, 16:24
Jag Panzer / Thane To The Throne [Century Media, 7993-2, USA]
Used drive : ASUS DRW-24B3ST Adapter: 1 ID: 0
Read mode : Secure
Utilize accurate stream : Yes
Defeat audio cache : Yes
Make use of C2 pointers : No
Read offset correction : 6
Overread into Lead-In and Lead-Out : No
Fill up missing offset samples with silence : Yes
Delete leading and trailing silent blocks : No
Null samples used in CRC calculations : Yes
Used interface : Installed external ASPI interface
Used output format : User Defined Encoder
Selected bitrate : 1024 kBit/s
Quality : High
Add ID3 tag : No
Command line compressor : C:\Program Files (x86)\Exact Audio Copy\FLAC\FLAC.EXE
Additional command line options : -V -8 -T "Date=%year%" -T "Genre=%genre%" %source%
TOC of the extracted CD
Track | Start | Length | Start sector | End sector
---------------------------------------------------------
1 | 0:00.00 | 4:50.50 | 0 | 21799
2 | 4:50.50 | 3:49.32 | 21800 | 39006
3 | 8:40.07 | 5:34.65 | 39007 | 64121
4 | 14:14.72 | 0:27.40 | 64122 | 66186
5 | 14:42.37 | 4:11.13 | 66187 | 85024
6 | 18:53.50 | 3:46.27 | 85025 | 102001
7 | 22:40.02 | 0:21.48 | 102002 | 103624
8 | 23:01.50 | 5:13.30 | 103625 | 127129
9 | 28:15.05 | 4:31.47 | 127130 | 147501
10 | 32:46.52 | 1:43.28 | 147502 | 155254
11 | 34:30.05 | 5:25.32 | 155255 | 179661
12 | 39:55.37 | 0:23.72 | 179662 | 181458
13 | 40:19.34 | 3:20.53 | 181459 | 196511
14 | 43:40.12 | 5:17.33 | 196512 | 220319
15 | 48:57.45 | 4:37.64 | 220320 | 241158
16 | 53:35.34 | 2:49.06 | 241159 | 253839
17 | 56:24.40 | 8:19.07 | 253840 | 291271
Range status and errors
Selected range
Filename C:\CD Rip By deminbek\Jag Panzer - Thane To The Throne [Century Media, 7993-2, USA].wav
Peak level 100.0 %
Extraction speed 6.3 X
Range quality 100.0 %
Test CRC FBF17946
Copy CRC FBF17946
Copy OK
No errors occurred
AccurateRip summary
Track 1 accurately ripped (confidence 13) [025E073F] (AR v2)
Track 2 accurately ripped (confidence 13) [11830E6D] (AR v2)
Track 3 accurately ripped (confidence 13) [8CD4FD34] (AR v2)
Track 4 accurately ripped (confidence 13) [F4A4BEBD] (AR v2)
Track 5 accurately ripped (confidence 13) [4BE6D996] (AR v2)
Track 6 accurately ripped (confidence 13) [D8F13384] (AR v2)
Track 7 accurately ripped (confidence 13) [E64FBDA3] (AR v2)
Track 8 accurately ripped (confidence 13) [81E19CD5] (AR v2)
Track 9 accurately ripped (confidence 13) [0CB52DFF] (AR v2)
Track 10 accurately ripped (confidence 13) [5F5B0D7C] (AR v2)
Track 11 accurately ripped (confidence 13) [A78A59E9] (AR v2)
Track 12 accurately ripped (confidence 13) [52F6FDFC] (AR v2)
Track 13 accurately ripped (confidence 13) [C9121F5D] (AR v2)
Track 14 accurately ripped (confidence 13) [DBFDF514] (AR v2)
Track 15 accurately ripped (confidence 13) [FEDAE8E5] (AR v2)
Track 16 accurately ripped (confidence 13) [F33B0C86] (AR v2)
Track 17 accurately ripped (confidence 13) [237D79B4] (AR v2)
All tracks accurately ripped
End of status report
---- CUETools DB Plugin V2.1.6
[CTDB TOCID: 5qETx.foDBr915WbM.QFruhoU1Y-] found
Submit result: 5qETx.foDBr915WbM.QFruhoU1Y- has been confirmed
Track | CTDB Status
1 | (34/44) Accurately ripped
2 | (34/44) Accurately ripped
3 | (34/44) Accurately ripped
4 | (34/44) Accurately ripped
5 | (34/44) Accurately ripped
6 | (34/44) Accurately ripped
7 | (34/44) Accurately ripped
8 | (34/44) Accurately ripped
9 | (34/44) Accurately ripped
10 | (34/44) Accurately ripped
11 | (34/44) Accurately ripped
12 | (34/44) Accurately ripped
13 | (34/44) Accurately ripped
14 | (34/44) Accurately ripped
15 | (34/44) Accurately ripped
16 | (34/44) Accurately ripped
17 | (34/44) Accurately ripped
==== Log checksum 785F8CA5F0F0060ED9220905BCD6F25134F9F26BF28A8977FE7E52871D5C6F14 ====

2001 - Mechanized Warfare [Century Media, 77369-2, Germany]

01. Take to the Sky (5:29)
02. Frozen in Fear (3:42)
03. Unworthy (6:10)
04. The Silent (5:16)
05. The Scarlet Letter (3:54)
06. Choir of Tears (6:11)
07. Cold Is the Blade (And the Heart That Wields It) (5:55)
08. Hidden in My Eyes (4:26)
09. Power Surge (6:14)
10. All Things Renewed (7:01)

Лог создания рипа

Exact Audio Copy V1.3 from 2. September 2016
EAC extraction logfile from 23. April 2017, 11:01
Jag Panzer / Mechanized Warfare
Used drive : ATAPI iHAS122 W Adapter: 2 ID: 0
Read mode : Secure
Utilize accurate stream : Yes
Defeat audio cache : Yes
Make use of C2 pointers : No
Read offset correction : 48
Overread into Lead-In and Lead-Out : No
Fill up missing offset samples with silence : Yes
Delete leading and trailing silent blocks : No
Null samples used in CRC calculations : Yes
Used interface : Installed external ASPI interface
Used output format : User Defined Encoder
Selected bitrate : 1024 kBit/s
Quality : High
Add ID3 tag : No
Command line compressor : C:\Program Files\FLAC\flac.exe
Additional command line options : -V -8 -T "Date=%year%" -T "Genre=%genre%" -T"COMMENT=Ripped by Ilijan -
ilko" -8 -V %source%
TOC of the extracted CD
Track | Start | Length | Start sector | End sector
---------------------------------------------------------
1 | 0:00.00 | 5:28.50 | 0 | 24649
2 | 5:28.50 | 3:42.06 | 24650 | 41305
3 | 9:10.56 | 6:09.40 | 41306 | 69020
4 | 15:20.21 | 5:15.73 | 69021 | 92718
5 | 20:36.19 | 3:53.54 | 92719 | 110247
6 | 24:29.73 | 6:11.12 | 110248 | 138084
7 | 30:41.10 | 5:55.36 | 138085 | 164745
8 | 36:36.46 | 4:26.07 | 164746 | 184702
9 | 41:02.53 | 6:14.21 | 184703 | 212773
10 | 47:16.74 | 7:01.28 | 212774 | 244376
Range status and errors
Selected range
Filename D:\ilko\Jag Panzer - Mechanized Warfare.wav
Peak level 100.0 %
Extraction speed 4.0 X
Range quality 100.0 %
Test CRC 92AD7FCB
Copy CRC 92AD7FCB
Copy OK
No errors occurred
AccurateRip summary
Track 1 accurately ripped (confidence 11) [BC9669C7] (AR v2)
Track 2 accurately ripped (confidence 11) [135A768A] (AR v2)
Track 3 accurately ripped (confidence 11) [DF456406] (AR v2)
Track 4 accurately ripped (confidence 11) [72A6C34B] (AR v2)
Track 5 accurately ripped (confidence 11) [2D6382EB] (AR v2)
Track 6 accurately ripped (confidence 11) [C7D17C01] (AR v2)
Track 7 accurately ripped (confidence 11) [B32E7B14] (AR v2)
Track 8 accurately ripped (confidence 11) [CAB85487] (AR v2)
Track 9 accurately ripped (confidence 11) [B44B7687] (AR v2)
Track 10 accurately ripped (confidence 11) [25B94AC7] (AR v2)
All tracks accurately ripped
End of status report
---- CUETools DB Plugin V2.1.6
[CTDB TOCID: wAH8sFFfhUwZd67F1zXqsCauuiM-] found
Submit result: wAH8sFFfhUwZd67F1zXqsCauuiM- has been confirmed
Track | CTDB Status
1 | (28/35) Accurately ripped
2 | (28/35) Accurately ripped
3 | (28/35) Accurately ripped
4 | (28/35) Accurately ripped
5 | (28/35) Accurately ripped
6 | (28/35) Accurately ripped
7 | (28/35) Accurately ripped
8 | (28/35) Accurately ripped
9 | (28/35) Accurately ripped
10 | (28/35) Accurately ripped
==== Log checksum 4A918763360B1D3D33460DB5E81A5151EB46432D866AE09A4CD9F81F05E83705 ====

2004 - Casting The Stones [Century Media, 77593-2, Germany]

01. Feast or Famine (4:15)
02. The Mission (1943) (4:09)
03. Vigilant (5:04)
04. Achilles (2:45)
05. Tempest (4:40)
06. Legion Immortal (4:30)
07. Battered and Bruised (4:46)
08. Cold (3:37)
09. Starlight's Fury (6:18)
10. The Harkening (4:44)
11. Precipice (6:26)

Лог создания рипа

EAC extraction logfile from 1. October 2005, 19:17 for CD
Jag Panzer / Casting the Stones
Used drive : PLEXTOR CD-R PX-W4824A Adapter: 3 ID: 0
Read mode : Secure with NO C2, accurate stream, disable cache
Read offset correction : 98
Overread into Lead-In and Lead-Out : No
Used output format : C:\Program Files\eac\MAC.exe (Monkey's Audio Lossless Encoder)
Extra High Lossless Compression
Other options :
Fill up missing offset samples with silence : Yes
Delete leading and trailing silent blocks : No
Installed external ASPI interface
Range status and errors
Selected range
Filename ...\CDImage.wav
Peak level 98.8 %
Range quality 100.0 %
CRC 564B101C
Copy OK
No errors occured
End of status report

2011 - The Scourge Of The Light [Steamhammer, SPV 308582 CD, Germany]

01. Condemned to fight (4:23)
02. The Setting of the Sun (3:27)
03. Bringing the End (5:03)
04. Call to Arms (3:27)
05. Cycles (4:09)
06. Overlord (5:27)
07. Let it out (3:34)
08. Union (5:15)
09. Burn (6:04)
10. The Book of Kells (8:01)

Лог создания рипа

Exact Audio Copy V0.99 prebeta 4 from 23. January 2008
EAC extraction logfile from 25. February 2011, 2:02
Jag Panzer / The Scourge of the Light
Used drive : ATAPI iHAP122 9 Adapter: 3 ID: 0
Read mode : Secure
Utilize accurate stream : Yes
Defeat audio cache : Yes
Make use of C2 pointers : No
Read offset correction : 6
Overread into Lead-In and Lead-Out : No
Fill up missing offset samples with silence : Yes
Delete leading and trailing silent blocks : No
Null samples used in CRC calculations : Yes
Used interface : Installed external ASPI interface
Used output format : User Defined Encoder
Selected bitrate : 40 kBit/s
Quality : High
Add ID3 tag : No
Command line compressor : C:\Program Files\Exact Audio Copy\flac.exe
Additional command line options : -6 -V %s
TOC of the extracted CD
Track | Start | Length | Start sector | End sector
---------------------------------------------------------
1 | 0:00.00 | 4:23.20 | 0 | 19744
2 | 4:23.20 | 3:26.46 | 19745 | 35240
3 | 7:49.66 | 5:03.19 | 35241 | 57984
4 | 12:53.10 | 3:26.42 | 57985 | 73476
5 | 16:19.52 | 4:08.65 | 73477 | 92141
6 | 20:28.42 | 5:27.07 | 92142 | 116673
7 | 25:55.49 | 3:34.27 | 116674 | 132750
8 | 29:30.01 | 5:15.37 | 132751 | 156412
9 | 34:45.38 | 6:04.29 | 156413 | 183741
10 | 40:49.67 | 8:01.08 | 183742 | 219824
Range status and errors
Selected range
Filename D:\Download\Jag Panzer - The Scourge of the Light.wav
Peak level 97.7 %
Range quality 100.0 %
Copy CRC A4215008
Copy OK
No errors occurred
AccurateRip summary
Track 1 not present in database
Track 2 not present in database
Track 3 not present in database
Track 4 not present in database
Track 5 not present in database
Track 6 not present in database
Track 7 not present in database
Track 8 not present in database
Track 9 not present in database
Track 10 not present in database
None of the tracks are present in the AccurateRip database
End of status report

БИОГРАФИЯ

Jag Panzer были сформированы в начале 80-х годов в Колорадо студентами высшей школы Харри Конклином, Джоном Тетли, Марком Брайоди и Риком Хилярдом. Правда, именовались они тогда Tyrant, а наравне с собственным материалом исполняли каверы Judas Priest, Iron Maiden, Black Sabbath и Rainbow. Весной 1981-го парни записали свою первую демку из одного трека – Tower of Darkness. Студийная работа им понравилась, и через некоторое время музыканты записали еще пару композиций, Battle Zones и The Crucifix, ставших позднее классикой Jag Panzer. Плёнку с этими песнями они передали своему знакомому, направлявшемуся в Лос-Анджелес. Тот вернулся с предложениями сразу от двух лейблов, "Azra Records" и "Metal Blade Records", сообщив при этом, что вывеску придется менять, поскольку группа Tyrant уже существует в природе.
Название было найдено в книжке, в которой упоминался танк "Jagdpanzer". Выкинув букву "d" парни получили искомый результат – Jag Panzer. Тогда же был заключён контракт на один миньон и один полнометражник с "Azra", предложившей более заманчивые условия. В 1982-м группа записала безымянный EP, после чего решила перебазироваться в Лос-Анджелес, сочтя тамошние условия более подходящими для творчества. По прибытии в Город Ангелов команда принялась за поиски второго гитариста, который бы усилил звучание банды. Такой человек был найден в лице Джоя Таффолы, при всей своей агрессивности выдававшего быстрые мелодичные соло.
Появившийся на свет в 1983-м мини-альбом быстро стал фаворитом андеграундной метал-сцены. На следующий год появился и полноформатный диск Ample Destruction, сделанный в лучших традициях пауэр-метал. Критики и слушатели были в восторге. Много откликов приходило из Европы, где пластинка была доступна только в импортном варианте. Однако, несмотря на такое положение дел ни один европейский лейбл не взялся за выпуск Ample Destruction. В конце 1984-го из группы ушел Рик Хилярд, а взамен Jag Panzer приобрели техничного барабанщика и прекрасного шоумена Рейнольда Карлсона. Тем временем группа продолжала зарабатывать себе популярность, полностью распродавая билеты на свои концерты и разогревая звезд типа Grim Reaper и Slade. Однако вскоре положение дел изменилось, поскольку никто не хотел устраивать туры команде, не имеющей контракта.
В поисках нового лейбла музыканты записали еще пару демок. Представители нескольких фирм посетили Колорадо, чтобы посмотреть на группу. Концерты Jag Panzer им понравились, но все же они сочли музыку группы недостаточно коммерческой для заключения контракта. В результате команда стала разваливаться. Сначала Конклин ушел в Riot, а затем сбежали Тафолла и Карлсон. Брайоди и Тетли принялись восстанавливать состав. Первым они нашли лидер-гитариста, давнего друга банды Кристиана Лесега. Потом обнаружился ударник Рикард Стернквист, а вот с вокалистом было потруднее.
Некоторое время место у микрофона занимали Крис Кронк и Стив Монтез, но стабилизация наступила с прибытием Боба Пардубы. Команда начала готовить материал для альбома с рабочим названием Chain of Command, но заинтересовать им так никого и не удалось. Из-за этого группу покинули Лесаг и Пардуба. Оставшаяся троица продолжила сочинять песни, а тем временем Ample Destruction был лицензирован "Metal Blade" в Штатах и "Metalcore Records" в Европе. В начале 90-х в коллективе появились вокалист Дэниел Конка и гитарист Крис Костка, склонившие Jag Panzer в сторону трэша, в отличие от мелодичного Chain of Command. Демо, записанное этим составом, привело к заключению контракта с германским лейблом "Rising Sun". Вышедший в 1994-м Dissident Alliance не особо впечатлил давних поклонников группы, и вследствие этого после тура с Overkill Конка и Костка были изгнаны из рядов.
Оставшись втроём, музыканты принялись работать над новым материалом, причём упросили Конклина записать для них вокальные партии. Плёнки на этот раз попали в "Century Media", предложившей группе приличный бюджет и известного продюсера Джима Морриса. В 1997-м на этом лейбле вышел альбом The Fourth Judgement, имевший бурную реакцию со стороны слушателей. Для последовавшего европейского тура срочно был найден второй гитарист, Крис Бродрик. С тех пор дела у Jag Panzer пошли на лад, и к 2001 году команда выпустила три качественных альбома и с успехом выступала на гастролях.

To download the file disable ad blocking, and reload the page.

disable adblock How to disable ad blocking?

Download by magnet link 6.15 GB Download Torrent

Login using:

Similar topics



   
Current time is: 16-Oct 08:24 :: All times are UTC ± 0