Trance / The Loser Strikes Back
Жанр: Heavy Metal / Hard Rock
Носитель: CD
Страна-производитель диска (релиза): Россия
Год издания: 2017
Издатель (лейбл): Исходно - Rockport Records
Номер по каталогу: Исходно - RO 1086.2
Страна исполнителя (группы): Германия
Аудиокодек: FLAC (*.flac)
Тип рипа: image+.cue
Битрейт аудио: lossless
Продолжительность: 56:19
Источник (релизер): Собственный диск
Наличие сканов в содержимом раздачи: да
Треклист:
1. Thunderbird Rising 05:09
2. I Want to Live 05:26
3. Star Invaders 05:48
4. Loser 07:27
5. Live and Heavy 02:54
6. The Loser Strikes Back 05:41
7. Open Skies 06:07
8. Trust and Glory 11:38
9. Finding You 06:09

Лог создания рипа

Exact Audio Copy V1.0 beta 3 from 29. August 2011
EAC extraction logfile from 22. April 2017, 19:30
Trance / The Loser Strikes Back
Used drive : Optiarc DVD RW AD-7260S Adapter: 1 ID: 1
Read mode : Secure
Utilize accurate stream : Yes
Defeat audio cache : Yes
Make use of C2 pointers : No
Read offset correction : 48
Overread into Lead-In and Lead-Out : No
Fill up missing offset samples with silence : Yes
Delete leading and trailing silent blocks : No
Null samples used in CRC calculations : Yes
Used interface : Native Win32 interface for Win NT & 2000
Used output format : Internal WAV Routines
Sample format : 44.100 Hz; 16 Bit; Stereo
TOC of the extracted CD
Track | Start | Length | Start sector | End sector
---------------------------------------------------------
1 | 0:00.00 | 5:09.35 | 0 | 23209
2 | 5:09.35 | 5:26.26 | 23210 | 47685
3 | 10:35.61 | 5:48.09 | 47686 | 73794
4 | 16:23.70 | 7:27.10 | 73795 | 107329
5 | 23:51.05 | 2:54.42 | 107330 | 120421
6 | 26:45.47 | 5:41.24 | 120422 | 146020
7 | 32:26.71 | 6:07.54 | 146021 | 173599
8 | 38:34.50 | 11:38.24 | 173600 | 225973
9 | 50:12.74 | 6:09.41 | 225974 | 253689
Range status and errors
Selected range
Filename C:\Мои документы\Trance - 2017 - The Loser Strikes Back.wav
Peak level 100.0 %
Extraction speed 2.1 X
Range quality 100.0 %
Test CRC 1B3E8947
Copy CRC 1B3E8947
Copy OK
No errors occurred
AccurateRip summary
Track 1 not present in database
Track 2 not present in database
Track 3 not present in database
Track 4 not present in database
Track 5 not present in database
Track 6 not present in database
Track 7 not present in database
Track 8 not present in database
Track 9 not present in database
None of the tracks are present in the AccurateRip database
End of status report
---- CUETools DB Plugin V2.1.4
[CTDB TOCID: FQLLEEKNguPF24SkWdwpPuyvaXs-] found
Submit result: FQLLEEKNguPF24SkWdwpPuyvaXs- has been confirmed
Track | CTDB Status
1 | (1/1) Accurately ripped
2 | (1/1) Accurately ripped
3 | (1/1) Accurately ripped
4 | (1/1) Accurately ripped
5 | (1/1) Accurately ripped
6 | (1/1) Accurately ripped
7 | (1/1) Accurately ripped
8 | (1/1) Accurately ripped
9 | (1/1) Accurately ripped
==== Log checksum 3C1BB9B32470F7AF7F5D502C047A6B6AC5E8BF7AED69F2C5C050955D9E88D2F7 ====

To download the file disable ad blocking, and reload the page.

disable adblock How to disable ad blocking?

Download by magnet link 532 MB Download Torrent

Login using:

Similar topics

(Heavy Metal / Hard Rock) Viken - Undead Rising - 2018, MP3, 320 kbps
 46 MB   0 | 0   09-Oct-18 00:50   2


   
Current time is: 16-Oct 07:28 :: All times are UTC ± 0