Blackwelder / Survival Of The Fittest
Жанр: Power Metal
Носитель: CD
Страна-производитель диска (релиза): Austria
Год издания: 2015
Издатель (лейбл): Golden Core Records
Номер по каталогу: GCR 20094-2
Страна исполнителя (группы): International
Аудиокодек: FLAC (*.flac)
Тип рипа: image+.cue
Битрейт аудио: lossless
Продолжительность: 47:55
Источник (релизер): My CD
Наличие сканов в содержимом раздачи: да
Треклист:
01. The Night Of New Moon 04:48
02. Spaceman 04:41
03. Adeturi 03:52
04. Freeway Of Life 04:47
05. Inner Voice 04:35
06. With Flying Colors 04:44
07. Remember The Time 06:04
08. Play Some More 04:03
09. Oriental Spell 04:41
10. Judgement Day 05:38

Лог создания рипа

Exact Audio Copy V1.1 from 23. June 2015
EAC extraction logfile from 22. April 2017, 19:17
Blackwelder / Survival Of The Fittest
Used drive : HP DVD Writer 1170d Adapter: 1 ID: 1
Read mode : Secure
Utilize accurate stream : Yes
Defeat audio cache : Yes
Make use of C2 pointers : No
Read offset correction : 6
Overread into Lead-In and Lead-Out : No
Fill up missing offset samples with silence : Yes
Delete leading and trailing silent blocks : No
Null samples used in CRC calculations : Yes
Used interface : Native Win32 interface for Win NT & 2000
Used output format : User Defined Encoder
Selected bitrate : 1024 kBit/s
Quality : High
Add ID3 tag : No
Command line compressor : C:\Program Files (x86)\Exact Audio Copy\Flac\flac.exe
Additional command line options : -V -8 -T "Date=%year%" -T "Genre=%genre%" %source%
TOC of the extracted CD
Track | Start | Length | Start sector | End sector
---------------------------------------------------------
1 | 0:00.00 | 4:48.14 | 0 | 21613
2 | 4:48.14 | 4:41.06 | 21614 | 42694
3 | 9:29.20 | 3:52.02 | 42695 | 60096
4 | 13:21.22 | 4:47.26 | 60097 | 81647
5 | 18:08.48 | 4:35.37 | 81648 | 102309
6 | 22:44.10 | 4:44.35 | 102310 | 123644
7 | 27:28.45 | 6:04.19 | 123645 | 150963
8 | 33:32.64 | 4:03.55 | 150964 | 169243
9 | 37:36.44 | 4:41.10 | 169244 | 190328
10 | 42:17.54 | 5:38.11 | 190329 | 215689
Range status and errors
Selected range
Filename C:\EAC\Ungern666\Blackwelder - Survival Of The Fittest.wav
Peak level 99.5 %
Extraction speed 5.7 X
Range quality 100.0 %
Test CRC C35968BD
Copy CRC C35968BD
Copy OK
No errors occurred
AccurateRip summary
Track 1 accurately ripped (confidence 6) [459258C5] (AR v2)
Track 2 accurately ripped (confidence 6) [BCB2497E] (AR v2)
Track 3 accurately ripped (confidence 6) [3D92A489] (AR v2)
Track 4 accurately ripped (confidence 6) [27F0C377] (AR v2)
Track 5 accurately ripped (confidence 6) [103A8ECA] (AR v2)
Track 6 accurately ripped (confidence 6) [6ED5321F] (AR v2)
Track 7 accurately ripped (confidence 6) [A2F53ACC] (AR v2)
Track 8 accurately ripped (confidence 6) [2B170C43] (AR v2)
Track 9 accurately ripped (confidence 6) [595A2D40] (AR v2)
Track 10 accurately ripped (confidence 6) [5485FD85] (AR v2)
All tracks accurately ripped
End of status report
---- CUETools DB Plugin V2.1.6
[CTDB TOCID: lmZgXxz6o5N.zMVA8Riq7W9GCks-] found
Submit result: lmZgXxz6o5N.zMVA8Riq7W9GCks- has been confirmed
Track | CTDB Status
1 | (12/12) Accurately ripped
2 | (12/12) Accurately ripped
3 | (12/12) Accurately ripped
4 | (12/12) Accurately ripped
5 | (12/12) Accurately ripped
6 | (12/12) Accurately ripped
7 | (12/12) Accurately ripped
8 | (12/12) Accurately ripped
9 | (12/12) Accurately ripped
10 | (12/12) Accurately ripped
==== Log checksum C59D84E129FC92D45376FC64FB3E08D66BF6DC3AE9F6EE9C00FB564B8694D3CD ====

Об исполнителе (группе)

http://www.metal-archives.com/bands/Blackwelder/3540395662

Состав

Björn Englen (Hellion, ex-Quiet Riot, ex-Yngwie J. Malmsteen) - Bass
Aquiles Priester (Hangar, ex-Primal Fear, ex-Angra) - Drums
Andrew Szucs (Seven Seraphim) - Guitars
Ralf Scheepers (Primal Fear, Scheepers, ex-Gamma Ray, ex-Tyran' Pace) - Vocals
- -Материал предназначен для ознакомления!

To download the file disable ad blocking, and reload the page.

disable adblock How to disable ad blocking?

Download by magnet link 406 MB Download Torrent

Login using:

Загрузка...

Similar topics



   
Current time is: 16-Dec 06:20 :: All times are UTC + 3