-Crystallion - Дискография (4CD)- Жанр: Heavy/Power Metal
Носитель: CD
Год издания: 2006-2013
Издатель (лейбл): STF Records/Dockyard 1 Records/Dockyard 2 Records/Venus Works Media
Страна-производитель диска: Germany
Страна исполнителя: Germany (Siegsdorf, Bavaria)
Аудиокодек: FLAC (*.flac)
Тип рипа: image+.cue
Битрейт аудио: lossless
Продолжительность: 03:36:53
Источник (релизер): Собственные CD
Наличие сканов: Да (Complete 600 DPI)
Доп. информация: Encyclopaedia Metallum
-

2006 - [CD] A Dark Enchanted Crystal Night (Original Recording) (STF Records STF055CD) [00:58:49]

01. A Dark Enchanted Crystal Night
02. Guardians of the Sunrise
03. Visions
04. Eternia
05. Crystal Clear
06. Tears in the Rain
07. Dragonheart
08. Burning Bridges
09. The Final Revelation
Thomas Strübler - Vocals
Patrick Juhasz - Guitars
Manfred Stief - Guitars
Stefan Gimpl - Bass
Martin Herzinger - Drums
Manuel Schallinger - Keyboards

Лог создания рипа

Exact Audio Copy V1.3 from 2. September 2016
EAC extraction logfile from 22. April 2017, 10:17
Crystallion / A Dark Enchanted Crystal Night
Used drive : MATSHITADVD-RAM UJ8G6 Adapter: 1 ID: 0
Read mode : Secure
Utilize accurate stream : Yes
Defeat audio cache : Yes
Make use of C2 pointers : No
Read offset correction : 103
Overread into Lead-In and Lead-Out : No
Fill up missing offset samples with silence : Yes
Delete leading and trailing silent blocks : No
Null samples used in CRC calculations : Yes
Used interface : Native Win32 interface for Win NT & 2000
Used output format : User Defined Encoder
Selected bitrate : 1024 kBit/s
Quality : High
Add ID3 tag : No
Command line compressor : C:\Program Files (x86)\Exact Audio Copy\FLAC\FLAC.EXE
Additional command line options : -V -8 -T "Date=%year%" -T"Genre=%genre%" -T"COMMENT=Ripped by Ilijan - ilko" -8 -V %source%
TOC of the extracted CD
Track | Start | Length | Start sector | End sector
---------------------------------------------------------
1 | 0:00.00 | 0:55.07 | 0 | 4131
2 | 0:55.07 | 5:15.35 | 4132 | 27791
3 | 6:10.42 | 8:05.11 | 27792 | 64177
4 | 14:15.53 | 6:42.60 | 64178 | 94387
5 | 20:58.38 | 6:14.19 | 94388 | 122456
6 | 27:12.57 | 6:59.61 | 122457 | 153942
7 | 34:12.43 | 8:20.29 | 153943 | 191471
8 | 42:32.72 | 6:46.06 | 191472 | 221927
9 | 49:19.03 | 9:30.16 | 221928 | 264693
Range status and errors
Selected range
Filename D:\ilko\Crystallion - A Dark Enchanted Crystal Night.wav
Peak level 99.7 %
Extraction speed 4.1 X
Range quality 100.0 %
Test CRC 2B91085C
Copy CRC 2B91085C
Copy OK
No errors occurred
AccurateRip summary
Track 1 accurately ripped (confidence 5) [BF888F34] (AR v1)
Track 2 accurately ripped (confidence 5) [2BACED30] (AR v1)
Track 3 accurately ripped (confidence 5) [F00FD130] (AR v1)
Track 4 accurately ripped (confidence 5) [9823459C] (AR v1)
Track 5 accurately ripped (confidence 5) [76B43684] (AR v1)
Track 6 accurately ripped (confidence 5) [094B7C72] (AR v1)
Track 7 accurately ripped (confidence 5) [B321BD89] (AR v1)
Track 8 accurately ripped (confidence 5) [1A96D695] (AR v1)
Track 9 accurately ripped (confidence 5) [8E771E66] (AR v1)
All tracks accurately ripped
End of status report
---- CUETools DB Plugin V2.1.6
[CTDB TOCID: 1KIskJM7y7ANO88RFasWHI6yiyE-] found
Submit result: 1KIskJM7y7ANO88RFasWHI6yiyE- has been confirmed
Track | CTDB Status
1 | (2/2) Accurately ripped
2 | (2/2) Accurately ripped
3 | (2/2) Accurately ripped
4 | (2/2) Accurately ripped
5 | (2/2) Accurately ripped
6 | (2/2) Accurately ripped
7 | (2/2) Accurately ripped
8 | (2/2) Accurately ripped
9 | (2/2) Accurately ripped
==== Log checksum 3CECE95AB06715AEBBA44C5DD9C860DA5FDEE1721EE2F5E5A0DCDE53E28C11FF ====
-

2008 - [CD] Hattin (Original Recording) (Dockyard 1 Records DY100632) [00:54:50]

01. The Ambush
02. Wings of Thunder
03. Vanishing Glory
04. Under Siege
05. The Battle - Onward
06. The Battle - Higher Than the Sky
07. The Battle - Saracen Ascension
08. Preach with an Iron Tongue
Thomas Strübler - Vocals
Patrick Juhasz - Guitars
Florian Ramsauer - Guitars
Stefan Gimpl - Bass
Martin Herzinger - Drums
Manuel Schallinger - Keyboards

Лог создания рипа

Exact Audio Copy V1.3 from 2. September 2016
EAC extraction logfile from 22. April 2017, 10:46
Crystallion / Hattïn
Used drive : MATSHITADVD-RAM UJ8G6 Adapter: 1 ID: 0
Read mode : Secure
Utilize accurate stream : Yes
Defeat audio cache : Yes
Make use of C2 pointers : No
Read offset correction : 103
Overread into Lead-In and Lead-Out : No
Fill up missing offset samples with silence : Yes
Delete leading and trailing silent blocks : No
Null samples used in CRC calculations : Yes
Used interface : Native Win32 interface for Win NT & 2000
Used output format : User Defined Encoder
Selected bitrate : 1024 kBit/s
Quality : High
Add ID3 tag : No
Command line compressor : C:\Program Files (x86)\Exact Audio Copy\FLAC\FLAC.EXE
Additional command line options : -V -8 -T "Date=%year%" -T"Genre=%genre%" -T"COMMENT=Ripped by Ilijan - ilko" -8 -V %source%
TOC of the extracted CD
Track | Start | Length | Start sector | End sector
---------------------------------------------------------
1 | 0:00.00 | 1:55.41 | 0 | 8665
2 | 1:55.41 | 5:28.10 | 8666 | 33275
3 | 7:23.51 | 7:44.67 | 33276 | 68142
4 | 15:08.43 | 6:00.21 | 68143 | 95163
5 | 21:08.64 | 6:54.53 | 95164 | 126266
6 | 28:03.42 | 8:25.41 | 126267 | 164182
7 | 36:29.08 | 7:12.48 | 164183 | 196630
8 | 43:41.56 | 11:08.32 | 196631 | 246762
Range status and errors
Selected range
Filename D:\ilko\Crystallion - Hattïn.wav
Peak level 97.7 %
Extraction speed 4.0 X
Range quality 100.0 %
Test CRC CB82D48F
Copy CRC CB82D48F
Copy OK
No errors occurred
AccurateRip summary
Track 1 accurately ripped (confidence 2) [755D6F59] (AR v2)
Track 2 accurately ripped (confidence 2) [FB73799B] (AR v2)
Track 3 accurately ripped (confidence 2) [2B1CB326] (AR v2)
Track 4 accurately ripped (confidence 2) [28E000CC] (AR v2)
Track 5 accurately ripped (confidence 2) [33C43726] (AR v2)
Track 6 accurately ripped (confidence 2) [C61895C9] (AR v2)
Track 7 accurately ripped (confidence 2) [564D93B1] (AR v2)
Track 8 accurately ripped (confidence 2) [30959DB1] (AR v2)
All tracks accurately ripped
End of status report
---- CUETools DB Plugin V2.1.6
[CTDB TOCID: Ar4W7vLI08Im3wVyaaksma0S.pA-] found
Submit result: Ar4W7vLI08Im3wVyaaksma0S.pA- has been confirmed
Track | CTDB Status
1 | (6/6) Accurately ripped
2 | (6/6) Accurately ripped
3 | (6/6) Accurately ripped
4 | (6/6) Accurately ripped
5 | (6/6) Accurately ripped
6 | (6/6) Accurately ripped
7 | (6/6) Accurately ripped
8 | (6/6) Accurately ripped
==== Log checksum 9EA7EB93224F8CD8095B838B73B41846F7049466AB62321C0946257BC8072608 ====
-

2009 - [CD] Hundred Days (Original Recording) (Dockyard 2 Records DY200922) [00:52:16]

01. Cloak and Dagger
02. The Sleeping Giant
03. A Cry in the Night
04. Sole Survivors in Ligny
05. Nations Falling
06. Hougoumont
07. Under Heavy Fire
08. We Stand Aligned
09. Hundred Days
10. The Bravest of the Brave
Thomas Strübler - Vocals
Patrick Juhasz - Guitars
Stefan Gimpl - Bass
Martin Herzinger - Drums
Manuel Schallinger - Keyboards

Лог создания рипа

Exact Audio Copy V1.3 from 2. September 2016
EAC extraction logfile from 22. April 2017, 10:19
Crystallion / Hundred Days
Used drive : ATAPI iHAS122 W Adapter: 2 ID: 0
Read mode : Secure
Utilize accurate stream : Yes
Defeat audio cache : Yes
Make use of C2 pointers : No
Read offset correction : 48
Overread into Lead-In and Lead-Out : No
Fill up missing offset samples with silence : Yes
Delete leading and trailing silent blocks : No
Null samples used in CRC calculations : Yes
Used interface : Installed external ASPI interface
Used output format : User Defined Encoder
Selected bitrate : 1024 kBit/s
Quality : High
Add ID3 tag : No
Command line compressor : C:\Program Files\FLAC\flac.exe
Additional command line options : -V -8 -T "Date=%year%" -T "Genre=%genre%" -T"COMMENT=Ripped by Ilijan - ilko" -8 -V %source%
TOC of the extracted CD
Track | Start | Length | Start sector | End sector
---------------------------------------------------------
1 | 0:00.00 | 2:22.14 | 0 | 10663
2 | 2:22.14 | 5:49.56 | 10664 | 36894
3 | 8:11.70 | 4:23.05 | 36895 | 56624
4 | 12:35.00 | 5:39.24 | 56625 | 82073
5 | 18:14.24 | 6:42.14 | 82074 | 112237
6 | 24:56.38 | 5:09.08 | 112238 | 135420
7 | 30:05.46 | 4:51.05 | 135421 | 157250
8 | 34:56.51 | 6:19.54 | 157251 | 185729
9 | 41:16.30 | 4:56.70 | 185730 | 207999
10 | 46:13.25 | 6:03.43 | 208000 | 235267
Range status and errors
Selected range
Filename D:\ilko\Crystallion - Hundred Days.wav
Peak level 97.7 %
Extraction speed 3.2 X
Range quality 100.0 %
Test CRC 343B9D37
Copy CRC 343B9D37
Copy OK
No errors occurred
AccurateRip summary
Track 1 accurately ripped (confidence 4) [971B3881] (AR v2)
Track 2 accurately ripped (confidence 4) [BC327F76] (AR v2)
Track 3 accurately ripped (confidence 4) [1E6B964C] (AR v2)
Track 4 accurately ripped (confidence 4) [7A72FD6B] (AR v2)
Track 5 accurately ripped (confidence 4) [9C316680] (AR v2)
Track 6 accurately ripped (confidence 4) [66CC4925] (AR v2)
Track 7 accurately ripped (confidence 4) [AEF5A1E5] (AR v2)
Track 8 accurately ripped (confidence 4) [883AA421] (AR v2)
Track 9 accurately ripped (confidence 4) [7DCDB554] (AR v2)
Track 10 accurately ripped (confidence 4) [75BF7A1A] (AR v2)
All tracks accurately ripped
End of status report
---- CUETools DB Plugin V2.1.6
[CTDB TOCID: WYiiA4_q1SpvFg54LEBBkNdZxIA-] found
Submit result: WYiiA4_q1SpvFg54LEBBkNdZxIA- has been confirmed
Track | CTDB Status
1 | (5/6) Accurately ripped
2 | (5/6) Accurately ripped
3 | (5/6) Accurately ripped
4 | (5/6) Accurately ripped
5 | (5/6) Accurately ripped
6 | (5/6) Accurately ripped
7 | (5/6) Accurately ripped
8 | (5/6) Accurately ripped
9 | (5/6) Accurately ripped
10 | (5/6) Accurately ripped
==== Log checksum 78B3702552C247A314FBCD0584404B0AACBE2B9C9D22E6DE8C37EA0D10C2A2B9 ====
-

2013 - [CD] Killer (Original Recording) (Venus Works Media VWM 12013) [00:51:38]

01. Run
02. Far Cry
03. Dead on Arrival
04. Heat of a Thousand Flames
05. Ready to Strike
06. Killer
07. S.O.S.
08. I'm Alive
09. Push Comes to Shove
10. Change Your Heart
11. Full Moon Fever
12. The Unwanted
Thomas Strübler - Vocals
Patrick Juhasz - Guitars
Stefan Gimpl - Bass
Martin Herzinger - Drums
Manuel Schallinger - Keyboards

Лог создания рипа

Exact Audio Copy V1.3 from 2. September 2016
EAC extraction logfile from 22. April 2017, 10:47
Crystallion / Killer
Used drive : ATAPI iHAS122 W Adapter: 2 ID: 0
Read mode : Secure
Utilize accurate stream : Yes
Defeat audio cache : Yes
Make use of C2 pointers : No
Read offset correction : 48
Overread into Lead-In and Lead-Out : No
Fill up missing offset samples with silence : Yes
Delete leading and trailing silent blocks : No
Null samples used in CRC calculations : Yes
Used interface : Installed external ASPI interface
Used output format : User Defined Encoder
Selected bitrate : 1024 kBit/s
Quality : High
Add ID3 tag : No
Command line compressor : C:\Program Files\FLAC\flac.exe
Additional command line options : -V -8 -T "Date=%year%" -T "Genre=%genre%" -T"COMMENT=Ripped by Ilijan - ilko" -8 -V %source%
TOC of the extracted CD
Track | Start | Length | Start sector | End sector
---------------------------------------------------------
1 | 0:00.00 | 5:09.16 | 0 | 23190
2 | 5:09.16 | 4:07.09 | 23191 | 41724
3 | 9:16.25 | 3:38.15 | 41725 | 58089
4 | 12:54.40 | 4:22.01 | 58090 | 77740
5 | 17:16.41 | 3:38.59 | 77741 | 94149
6 | 20:55.25 | 4:57.09 | 94150 | 116433
7 | 25:52.34 | 4:51.03 | 116434 | 138261
8 | 30:43.37 | 4:40.68 | 138262 | 159329
9 | 35:24.30 | 3:47.62 | 159330 | 176416
10 | 39:12.17 | 5:03.26 | 176417 | 199167
11 | 44:15.43 | 3:48.34 | 199168 | 216301
12 | 48:04.02 | 3:34.59 | 216302 | 232410
Range status and errors
Selected range
Filename D:\ilko\Crystallion - Killer.wav
Peak level 98.7 %
Extraction speed 4.0 X
Range quality 100.0 %
Test CRC 224DD5CB
Copy CRC 224DD5CB
Copy OK
No errors occurred
AccurateRip summary
Track 1 accurately ripped (confidence 1) [13A943EA] (AR v2)
Track 2 accurately ripped (confidence 1) [683E5E53] (AR v2)
Track 3 accurately ripped (confidence 1) [7AC105D4] (AR v2)
Track 4 accurately ripped (confidence 1) [8E0D35AE] (AR v2)
Track 5 accurately ripped (confidence 1) [33DCA74D] (AR v2)
Track 6 accurately ripped (confidence 1) [1C00594C] (AR v2)
Track 7 accurately ripped (confidence 1) [8C4E1172] (AR v2)
Track 8 accurately ripped (confidence 1) [D7F6DB63] (AR v2)
Track 9 accurately ripped (confidence 1) [BB2C7FD3] (AR v2)
Track 10 accurately ripped (confidence 1) [4D9B612F] (AR v2)
Track 11 accurately ripped (confidence 1) [B7C40BEC] (AR v2)
Track 12 accurately ripped (confidence 1) [DFAA4993] (AR v2)
All tracks accurately ripped
End of status report
---- CUETools DB Plugin V2.1.6
[CTDB TOCID: MKgFT.dF1dJUQDIb1TIhytKDXX8-] found
Submit result: MKgFT.dF1dJUQDIb1TIhytKDXX8- has been confirmed
Track | CTDB Status
1 | (1/1) Accurately ripped
2 | (1/1) Accurately ripped
3 | (1/1) Accurately ripped
4 | (1/1) Accurately ripped
5 | (1/1) Accurately ripped
6 | (1/1) Accurately ripped
7 | (1/1) Accurately ripped
8 | (1/1) Accurately ripped
9 | (1/1) Accurately ripped
10 | (1/1) Accurately ripped
11 | (1/1) Accurately ripped
12 | (1/1) Accurately ripped
==== Log checksum D2E7AB7657A9449A3820E48B27C16EEC19D668884CD30C285019C256B5353C0F ====
-

To download the file disable ad blocking, and reload the page.

disable adblock How to disable ad blocking?

Download by magnet link 1.77 GB Download Torrent

Login using:

Similar topics



   
Current time is: 15-Oct 21:55 :: All times are UTC ± 0