Жанр: Heavy Metal / Speed Metal / Power Metal
Страна: Germany
Годы выпуска альбомов: 1986-2016
Страна-производитель: Germany, Japan, E.U., U.S.A., Russia
Издатель: Noise, Victor Entertainment, Sanctuary, G.U.N. Records, Nuclear Blast, Steamhammer, Dr. Bones etc...
Аудио кодек: FLAC (*.flac)
Тип рипа: image+.cue
Битрейт аудио: lossless
Продолжительность: 4d 1:19:40
Источник (релизер): deminbek, kurok79, Ginger Devil, ungern666, ilko, edenika, cdroma2009, regressus71, labanov, rEAllOAd и релизеры MeTaLMaDNeSS TeaM
Наличие сканов в содержимом раздачи: да
Релиз от группы:
STUDIO ALBUMS

Avenger

1985 - Prayers Of Steel / Depraved To Black (1995 Remaster) (Victor Entertainment, VICP-5549, Japan)

Год издания: 1995
Издатель (лэйбл): Victor Entertainment
Номер по каталогу: VICP-5549
Страна-производитель диска: Japan
Продолжительность: 59:52
Источник: kurok79
Трэклист:
Prayers Of Steel
1. Battlefield
2. South Cross Union
3. Prayers Of Steel
4. Halloween
5. Faster Than Hell
6. Adoration
7. Rise Of The Creature
8. Sword Made Of Steel
9. Bloodlust
10. Assorted By Satan
Depraved To Black (EP)
11. Down To The Bone
12. Depraved To Black
13. Prayers Of Steel (Live)
14. Faster Than Hell (Live)

Лог создания рипа

Exact Audio Copy V0.99 prebeta 5 from 4. May 2009
Отчёт EAC об извлечении, выполненном 29. июля 2011, 22:39
AVENGER / Prayers Of Steel+Depraved To Black
Дисковод: ASUS SDRW-08D2S-U Adapter: 2 ID: 0
Режим чтения : Достоверность
Использование точного потока : Да
Отключение кэша аудио : Да
Использование указателей C2 : Нет
Коррекция смещения при чтении : 103
Способность читать области Lead-in и Lead-out : Нет
Заполнение пропущенных сэмплов тишиной : Да
Удаление блоков с тишиной в начале и конце : Нет
При вычислениях CRC использовались нулевые сэмплы : Да
Интерфейс : Встроенный Win32-интерфейс для Win NT/2000
Выходной формат : Пользовательский кодировщик
Выбранный битрейт : 768 kBit/s
Качество : Высокий
Добавление ID3-тэга : Нет
Утилита сжатия : C:\Program Files\Exact Audio Copy\FLAC\FLAC.EXE
Дополнительные параметры : -8 -V %s
TOC извлечённого CD
Трек | Старт | Длительность | Начальный сектор | Конечный сектор
---------------------------------------------------------------------
1 | 0:00.37 | 2:45.53 | 37 | 12464
2 | 2:46.15 | 3:36.52 | 12465 | 28716
3 | 6:22.67 | 6:10.25 | 28717 | 56491
4 | 12:33.17 | 3:49.33 | 56492 | 73699
5 | 16:22.50 | 3:17.50 | 73700 | 88524
6 | 19:40.25 | 3:30.17 | 88525 | 104291
7 | 23:10.42 | 5:24.45 | 104292 | 128636
8 | 28:35.12 | 5:04.18 | 128637 | 151454
9 | 33:39.30 | 4:47.67 | 151455 | 173046
10 | 38:27.22 | 4:04.33 | 173047 | 191379
11 | 42:31.55 | 5:01.32 | 191380 | 213986
12 | 47:33.12 | 4:36.55 | 213987 | 234741
13 | 52:09.67 | 4:56.05 | 234742 | 256946
14 | 57:05.72 | 2:46.05 | 256947 | 269401
Характеристики диапазона извлечения и сообщения об ошибках
Выбранный диапазон
Имя файла D:\uTorrent.compl\Rage - Studio Discography & EP ( Original Japan 1st Press )\Albums\Avenger - 'Prayers Of Steel' 1985 & EP 'Depraved To Black' 1985 (1995 Victor VICP-5549 )\AVENGER - Prayers Of Steel+Depraved To Black.wav
Пиковый уровень 100.0 %
Качество диапазона 100.0 %
CRC теста 81A6B77B
CRC копии 81A6B77B
Копирование... OK
Ошибок не произошло
AccurateRip: сводка
Трек 1 нет в базе данных
Трек 2 нет в базе данных
Трек 3 нет в базе данных
Трек 4 нет в базе данных
Трек 5 нет в базе данных
Трек 6 нет в базе данных
Трек 7 нет в базе данных
Трек 8 нет в базе данных
Трек 9 нет в базе данных
Трек 10 нет в базе данных
Трек 11 нет в базе данных
Трек 12 нет в базе данных
Трек 13 нет в базе данных
Трек 14 нет в базе данных
Ни одного трека нет в базе AccurateRip
Конец отчёта

1986 - Reign Of Fear

Reign Of Fear (1989 Re-issue) (Noise, N 0038-2, Germany)

Год издания: 1989
Издатель (лэйбл): Noise
Номер по каталогу: N 0038-2
Страна-производитель диска: Germany
Продолжительность: 46:23
Источник: edenika
Трэклист:
1. Scared To Death
2. Deceiver
3. Reign Of Fear
4. Hand Of Glory
5. Raw Energy
6. Echoes Of Evil
7. Chaste Flesh
8. Suicide
9. Machinery
10. Scaffold

Лог создания рипа

Exact Audio Copy V1.0 beta 4 from 7. December 2014
EAC extraction logfile from 18. February 2015, 20:42
Rage / Reign Of Fear
Used drive : HL-DT-STDVDRAM GH24NSC0 Adapter: 1 ID: 0
Read mode : Secure
Utilize accurate stream : Yes
Defeat audio cache : Yes
Make use of C2 pointers : No
Read offset correction : 6
Overread into Lead-In and Lead-Out : No
Fill up missing offset samples with silence : Yes
Delete leading and trailing silent blocks : No
Null samples used in CRC calculations : Yes
Used interface : Native Win32 interface for Win NT & 2000
Used output format : Internal WAV Routines
Sample format : 44.100 Hz; 16 Bit; Stereo
TOC of the extracted CD
Track | Start | Length | Start sector | End sector
---------------------------------------------------------
1 | 0:00.00 | 4:41.40 | 0 | 21114
2 | 4:41.40 | 3:36.17 | 21115 | 37331
3 | 8:17.57 | 3:54.00 | 37332 | 54881
4 | 12:11.57 | 3:25.70 | 54882 | 70326
5 | 15:37.52 | 3:26.48 | 70327 | 85824
6 | 19:04.25 | 4:47.57 | 85825 | 107406
7 | 23:52.07 | 4:52.15 | 107407 | 129321
8 | 28:44.22 | 4:04.38 | 129322 | 147659
9 | 32:48.60 | 4:22.17 | 147660 | 167326
10 | 37:11.02 | 9:11.58 | 167327 | 208709
Range status and errors
Selected range
Filename C:\Music CD\Rage - Reign Of Fear.wav
Peak level 91.7 %
Extraction speed 1.6 X
Range quality 99.9 %
Test CRC E8445005
Copy CRC E8445005
Copy OK
No errors occurred
AccurateRip summary
Track 1 accurately ripped (confidence 2) [8FDDCA65] (AR v1)
Track 2 accurately ripped (confidence 2) [9846E038] (AR v1)
Track 3 accurately ripped (confidence 2) [6E9DEB8E] (AR v1)
Track 4 accurately ripped (confidence 2) [EABDDA78] (AR v1)
Track 5 accurately ripped (confidence 2) [F1992B8C] (AR v1)
Track 6 accurately ripped (confidence 2) [942BF0A6] (AR v1)
Track 7 accurately ripped (confidence 2) [F55E590D] (AR v1)
Track 8 accurately ripped (confidence 2) [62714A21] (AR v1)
Track 9 accurately ripped (confidence 2) [918F8BD0] (AR v1)
Track 10 accurately ripped (confidence 2) [D9302F19] (AR v1)
All tracks accurately ripped
End of status report
---- CUETools DB Plugin V2.1.4
[CTDB TOCID: 3AuzpSQcMUGg_.OcJeGgT1OyXKI-] found
Submit result: 3AuzpSQcMUGg_.OcJeGgT1OyXKI- has been confirmed
Track | CTDB Status
1 | (5/6) Accurately ripped, or (1/6) differs in 3 samples @00:13:60
2 | (6/6) Accurately ripped
3 | (3/6) Accurately ripped, or (1/6) differs in 1847 samples @02:17:39,02:26:64,02:27:00,02:27:11,02:27:33,02:27:44-02:27:45,02:27:55-02:27:56,02:27:67,02:28:03,02:28:25,02:28:36,02:28:59,02:29:64,02:29:73-02:30:00,02:30:09,02:30:20-02:30:22,02:30:31,02:30:42-02:30:45,02:30:53-02:30:54,02:30:64-02:30:65,02:31:00-02:31:01,02:31:12,02:31:45,02:31:56,02:31:67,02:32:15,02:32:26,02:33:40,02:33:62,02:36:60,02:43:07-02:43:08,02:43:19,02:43:30,02:43:41,02:43:52,02:45:70,02:46:03,02:46:29,02:46:49,02:47:07,02:47:18-02:47:19,02:47:29-02:47:30,02:47:41,02:47:51,02:47:63,02:47:74-02:48:00,02:48:10-02:48:11,02:48:21-02:48:22,02:48:43-02:48:44,02:48:55,02:48:66-02:48:67,02:49:02,02:49:13-02:49:14,02:49:25,02:49:36,02:49:47-02:49:48,02:49:58,02:49:70,02:50:06,02:50:17,02:50:28-02:50:29,02:50:39-02:50:43,02:50:50-02:50:51,02:50:65,02:52:33,02:52:57-02:52:58,02:53:05,02:53:39-02:53:42,02:53:50-02:53:51,02:53:61-02:53:62,02:53:72-02:53:73,02:54:08-02:54:12,02:54:20-02:54:24,02:54:31-02:54:35,02:54:42-02:54:46,02:54:53-02:54:57,02:54:65,02:55:01-02:55:02,02:55:12-02:55:13,02:55:35,02:55:46,02:55:58,02:55:68-02:55:69,02:56:16,02:56:27-02:56:30,02:56:38-02:56:39,02:56:52,02:56:61,02:56:72,02:57:08-02:57:12,02:57:17-02:57:20,02:57:30-02:57:31,02:59:41,03:01:09,03:01:31-03:01:34,03:01:71,03:03:08,03:03:19,03:03:30-03:03:31,03:06:28,03:07:35,03:07:57,03:08:39,03:09:09,03:11:42,03:11:53,03:17:44,03:17:53,03:17:64-03:17:66,03:18:23,03:18:34,03:19:64,03:20:34,03:20:44-03:20:45,03:21:47,03:26:12,03:26:23-03:26:24,03:26:34-03:26:35,03:26:57-03:26:58,03:27:53,03:28:32,03:31:25,03:31:48,03:31:59,03:31:71,03:32:53
4 | (5/6) Accurately ripped, or (1/6) differs in 105 samples @02:14:65,02:17:07,02:17:42-02:17:43,02:18:03,02:18:15,02:18:27,02:18:39,02:18:51,02:18:63,02:19:00,02:48:62,02:52:04,02:52:40,02:52:52,02:55:07,02:55:32,02:56:53,02:57:25-02:57:26
5 | (3/6) Accurately ripped, or (1/6) differs in 321 samples @00:04:16,00:04:29,00:05:51,00:06:00,00:09:31,00:09:56,00:09:67,00:10:05,00:10:17,00:10:41-00:10:42,00:10:65,00:11:03,00:11:63-00:11:64,00:12:01,00:12:13,00:12:25,00:12:37-00:12:38,00:12:49-00:12:50,00:12:61,00:28:47,01:22:03,01:24:39,01:27:00,01:28:62-01:28:63,01:30:74,01:33:36,01:33:48,01:34:10-01:34:11,01:36:72,01:44:72,01:46:09,01:46:22,01:46:34,01:46:47,01:49:71,01:51:34-01:51:35,01:51:59,01:51:72,01:52:09,01:52:22,01:52:59,01:53:47,01:54:60,01:55:35,01:55:47,01:56:10,02:42:25,02:42:38,02:42:50,02:53:25,02:53:50,02:53:63,03:12:65,03:13:28,03:13:41,03:13:54,03:23:13-03:23:14
6 | (5/6) Accurately ripped, or (1/6) differs in 26 samples @00:36:13,00:36:39,00:36:51,00:36:64-00:36:65,01:48:71
7 | (4/6) Accurately ripped, or (1/6) differs in 10967 samples @02:50:67,02:51:36-02:51:37,02:51:50-02:51:51,02:51:65-02:51:66,02:52:04-02:52:05,02:52:19-02:52:20,02:52:33-02:52:34,02:52:48-02:52:49,02:52:62-02:52:63,02:53:02-02:53:03,02:53:16-02:53:17,02:53:30-02:53:32,02:53:45-02:53:46,02:53:59-02:53:61,02:53:74-02:54:00,02:54:14,02:54:28-02:54:29,02:54:42-02:54:43,02:54:57-02:54:58,02:54:71-02:54:72,03:10:03,03:10:32,03:10:46-03:10:47,03:10:61,03:11:00-03:11:01,03:11:15-03:11:16,03:11:29-03:11:30,03:11:43-03:11:45,03:11:58-03:11:59,03:11:72-03:11:74,03:12:12-03:12:13,03:12:26-03:12:28,03:12:41-03:12:42,03:12:56-03:12:57,03:12:70-03:12:71,03:13:10-03:13:11,03:13:24-03:13:25,03:13:39-03:13:40,03:13:53-03:13:54,03:13:68-03:13:69, or (1/6) differs in 29399 samples @03:21:51-03:22:01
8 | (6/6) Accurately ripped
9 | (5/6) Accurately ripped, or (1/6) differs in 3 samples @03:05:39
10 | (5/6) Accurately ripped, or (1/6) differs in 212 samples @00:08:25-00:08:26,00:08:42,00:41:45,05:12:33,05:13:44,06:07:66,06:08:09,06:08:26,06:08:61,06:09:02,06:09:19-06:09:20,06:09:36-06:09:37,06:09:54,06:09:72,06:10:13-06:10:14,06:10:30-06:10:31,06:10:48,06:10:65,06:11:07,06:11:24-06:11:25,06:11:58-06:11:59,06:12:01,06:12:53,06:12:70,06:13:11-06:13:12,06:13:29,06:13:46-06:13:47,06:13:64,06:14:06,06:14:40,06:14:57,06:15:17,06:15:33,07:00:59,07:01:36
==== Log checksum E8CDDA04B113D5F094333B1F8CA820C25C05AE8698BB76528C30FC0D8CF4B037 ====

Reign Of Fear (1990 Re-issue) (Victor Entertainment, VICP-8036, Japan)

Год издания: 1990
Издатель (лэйбл): Victor Entertainment
Номер по каталогу: VICP-8036
Страна-производитель диска: Japan
Продолжительность: 46:25
Источник: kurok79
Трэклист:
1. Scared To Death
2. Deceiver
3. Reign Of Fear
4. Hand Of Glory
5. Raw Energy
6. Echoes Of Evil
7. Chaste Flesh
8. Suicide
9. Machinery
10. Scaffold

Лог создания рипа

Exact Audio Copy V0.99 prebeta 5 from 4. May 2009
Отчёт EAC об извлечении, выполненном 26. апреля 2011, 21:05
Rage / Reign Of Fear
Дисковод: ASUS SDRW-08D2S-U Adapter: 2 ID: 0
Режим чтения : Достоверность
Использование точного потока : Да
Отключение кэша аудио : Да
Использование указателей C2 : Нет
Коррекция смещения при чтении : 103
Способность читать области Lead-in и Lead-out : Нет
Заполнение пропущенных сэмплов тишиной : Да
Удаление блоков с тишиной в начале и конце : Нет
При вычислениях CRC использовались нулевые сэмплы : Да
Интерфейс : Встроенный Win32-интерфейс для Win NT/2000
Выходной формат : Пользовательский кодировщик
Выбранный битрейт : 768 kBit/s
Качество : Высокий
Добавление ID3-тэга : Нет
Утилита сжатия : C:\Program Files\Exact Audio Copy\FLAC\FLAC.EXE
Дополнительные параметры : -8 -V %s
TOC извлечённого CD
Трек | Старт | Длительность | Начальный сектор | Конечный сектор
---------------------------------------------------------------------
1 | 0:00.00 | 4:41.28 | 0 | 21102
2 | 4:41.28 | 3:36.17 | 21103 | 37319
3 | 8:17.45 | 3:53.73 | 37320 | 54867
4 | 12:11.43 | 3:25.72 | 54868 | 70314
5 | 15:37.40 | 3:26.45 | 70315 | 85809
6 | 19:04.10 | 4:47.60 | 85810 | 107394
7 | 23:51.70 | 4:52.15 | 107395 | 129309
8 | 28:44.10 | 4:04.38 | 129310 | 147647
9 | 32:48.48 | 4:22.17 | 147648 | 167314
10 | 37:10.65 | 9:14.08 | 167315 | 208872
Характеристики диапазона извлечения и сообщения об ошибках
Выбранный диапазон
Имя файла D:\uTorrent.compl\Rage - Studio Albums & EP ( Original Japan 1st Press )\Albums\'Reign Of Fear' 1986 (1990 Victor VICP-8036 )\Rage - Reign Of Fear.wav
Пиковый уровень 91.7 %
Качество диапазона 100.0 %
CRC теста B35EF3A9
CRC копии B35EF3A9
Копирование... OK
Ошибок не произошло
AccurateRip: сводка
Трек 1 нет в базе данных
Трек 2 нет в базе данных
Трек 3 нет в базе данных
Трек 4 нет в базе данных
Трек 5 нет в базе данных
Трек 6 нет в базе данных
Трек 7 нет в базе данных
Трек 8 нет в базе данных
Трек 9 нет в базе данных
Трек 10 нет в базе данных
Ни одного трека нет в базе AccurateRip
Конец отчёта

Reign Of Fear (1993 Remaster) (Victor Entertainment, VICP-23073, Japan)

Год издания: 1993
Издатель (лэйбл): Victor Entertainment
Номер по каталогу: VICP-23073
Страна-производитель диска: Japan
Продолжительность: 46:25
Источник: deminbek (диск из коллекции metallihead)
Трэклист:
1. Scared To Death
2. Deceiver
3. Reign Of Fear
4. Hand Of Glory
5. Raw Energy
6. Echoes Of Evil
7. Chaste Flesh
8. Suicide
9. Machinery
10. Scaffold

Лог создания рипа

Exact Audio Copy V1.1 from 23. June 2015
EAC extraction logfile from 1. November 2015, 15:32
Rage / Reign Of Fear [Victor, VICP-23073, Japan]
Used drive : PIONEER DVD-RW DVR-220L Adapter: 3 ID: 0
Read mode : Secure
Utilize accurate stream : Yes
Defeat audio cache : Yes
Make use of C2 pointers : No
Read offset correction : 6
Overread into Lead-In and Lead-Out : No
Fill up missing offset samples with silence : Yes
Delete leading and trailing silent blocks : No
Null samples used in CRC calculations : Yes
Used interface : Installed external ASPI interface
Used output format : User Defined Encoder
Selected bitrate : 1024 kBit/s
Quality : High
Add ID3 tag : No
Command line compressor : C:\Program Files\Exact Audio Copy\FLAC\FLAC.EXE
Additional command line options : -V -8 -T "Date=%year%" -T "Genre=%genre%" %source%
TOC of the extracted CD
Track | Start | Length | Start sector | End sector
---------------------------------------------------------
1 | 0:00.37 | 4:41.27 | 37 | 21138
2 | 4:41.64 | 3:36.18 | 21139 | 37356
3 | 8:18.07 | 3:53.72 | 37357 | 54903
4 | 12:12.04 | 3:25.73 | 54904 | 70351
5 | 15:38.02 | 3:26.45 | 70352 | 85846
6 | 19:04.47 | 4:47.60 | 85847 | 107431
7 | 23:52.32 | 4:52.15 | 107432 | 129346
8 | 28:44.47 | 4:04.37 | 129347 | 147683
9 | 32:49.09 | 4:22.18 | 147684 | 167351
10 | 37:11.27 | 9:14.07 | 167352 | 208908
Range status and errors
Selected range
Filename C:\CDRip by Deminbek\Rage - Reign Of Fear [Victor, VICP-23073, Japan].wav
Peak level 91.7 %
Extraction speed 6.5 X
Range quality 99.9 %
Test CRC 283527E0
Copy CRC 283527E0
Copy OK
No errors occurred
AccurateRip summary
Track 1 accurately ripped (confidence 1) [CA62EC88] (AR v2)
Track 2 accurately ripped (confidence 1) [5132E076] (AR v2)
Track 3 accurately ripped (confidence 1) [DA00E217] (AR v2)
Track 4 accurately ripped (confidence 1) [8A49725E] (AR v2)
Track 5 accurately ripped (confidence 1) [62D9555A] (AR v2)
Track 6 accurately ripped (confidence 1) [1633DA81] (AR v2)
Track 7 accurately ripped (confidence 1) [01182CB7] (AR v2)
Track 8 accurately ripped (confidence 1) [4A69797A] (AR v2)
Track 9 accurately ripped (confidence 1) [6BF93508] (AR v2)
Track 10 accurately ripped (confidence 1) [CBD821AD] (AR v2)
All tracks accurately ripped
End of status report
---- CUETools DB Plugin V2.1.6
[CTDB TOCID: JAb5ESc4qU4W49AOXA_XV56TZwY-] disk not present in database
Submit result: JAb5ESc4qU4W49AOXA_XV56TZwY- has been uploaded
==== Log checksum C51C557E64F81653E24C5BF9BC2ABFCD613239A4E1979D1120E7EB77F6AF2352 ====

Reign Of Fear (2002 Remaster) (Sanctuary, N03642, E.U.)

Год издания: 2002
Издатель (лэйбл): Sanctuary
Номер по каталогу: N03642
Страна-производитель диска: E.U.
Продолжительность: 71:13
Источник: Ginger Devil
Трэклист:
1. Scared To Death
2. Deceiver
3. Reign Of Fear
4. Hand Of Glory
5. Raw Energy
6. Echoes Of Evil
7. Chaste Flesh
8. Suicide
9. Machinery
10. Scaffold
11. Suicide (Live) (Bonus track)
12. Refuge (Live) (Bonus track)
13. Baby, I'm Your Nightmare (Live) (Bonus track)
14. Light Into The Darkness (Acc.) (Bonus track)
15. Invisible Horizons (Acc.) (Bonus track)

Лог создания рипа

Exact Audio Copy V1.1 from 23. June 2015
EAC extraction logfile from 15. February 2017, 15:23
Rage / Reign Of Fear
Used drive : ASUS DRW-24B1ST Adapter: 1 ID: 1
Read mode : Secure
Utilize accurate stream : Yes
Defeat audio cache : Yes
Make use of C2 pointers : No
Read offset correction : 6
Overread into Lead-In and Lead-Out : No
Fill up missing offset samples with silence : Yes
Delete leading and trailing silent blocks : No
Null samples used in CRC calculations : Yes
Used interface : Native Win32 interface for Win NT & 2000
Used output format : User Defined Encoder
Selected bitrate : 1024 kBit/s
Quality : High
Add ID3 tag : No
Command line compressor : C:\Program Files (x86)\Exact Audio Copy\Flac\flac.exe
Additional command line options : -V -8 -T "Date=%year%" -T "Genre=%genre%" %source%
TOC of the extracted CD
Track | Start | Length | Start sector | End sector
---------------------------------------------------------
1 | 0:00.00 | 4:43.28 | 0 | 21252
2 | 4:43.28 | 3:38.19 | 21253 | 37621
3 | 8:21.47 | 3:55.73 | 37622 | 55319
4 | 12:17.45 | 3:27.72 | 55320 | 70916
5 | 15:45.42 | 3:28.45 | 70917 | 86561
6 | 19:14.12 | 4:49.60 | 86562 | 108296
7 | 24:03.72 | 4:54.15 | 108297 | 130361
8 | 28:58.12 | 4:06.38 | 130362 | 148849
9 | 33:04.50 | 4:24.17 | 148850 | 168666
10 | 37:28.67 | 9:16.08 | 168667 | 210374
11 | 46:45.00 | 3:59.70 | 210375 | 228369
12 | 50:44.70 | 4:02.55 | 228370 | 246574
13 | 54:47.50 | 5:09.25 | 246575 | 269774
14 | 59:57.00 | 5:37.42 | 269775 | 295091
15 | 65:34.42 | 5:38.68 | 295092 | 320509
Range status and errors
Selected range
Filename E:\Torrent\# MY\# Подготовка раздач\Rage\Albums\1986 - Reign Of Fear\1986 - Reign Of Fear (2002 Remastered) (Sanctuary, N03642, E.U.)\Rage - Reign Of Fear (N03642).wav
Peak level 96.6 %
Extraction speed 5.9 X
Range quality 100.0 %
Test CRC 023DB4EA
Copy CRC 023DB4EA
Copy OK
No errors occurred
AccurateRip summary
Track 1 accurately ripped (confidence 6) [0C0659BD] (AR v2)
Track 2 accurately ripped (confidence 6) [D8CD5E59] (AR v2)
Track 3 accurately ripped (confidence 6) [3A3D0B5D] (AR v2)
Track 4 accurately ripped (confidence 6) [FDEBC6F3] (AR v2)
Track 5 accurately ripped (confidence 6) [FCEADFE6] (AR v2)
Track 6 accurately ripped (confidence 6) [4D211F1F] (AR v2)
Track 7 accurately ripped (confidence 6) [04AC834F] (AR v2)
Track 8 accurately ripped (confidence 6) [A63F623A] (AR v2)
Track 9 accurately ripped (confidence 6) [67C1F785] (AR v2)
Track 10 accurately ripped (confidence 6) [32D7B840] (AR v2)
Track 11 accurately ripped (confidence 6) [39A99ABE] (AR v2)
Track 12 accurately ripped (confidence 6) [05F8ED05] (AR v2)
Track 13 accurately ripped (confidence 6) [32D246F5] (AR v2)
Track 14 accurately ripped (confidence 6) [3689D156] (AR v2)
Track 15 accurately ripped (confidence 6) [38746008] (AR v2)
All tracks accurately ripped
End of status report
---- CUETools DB Plugin V2.1.6
[CTDB TOCID: Lxn_V2Dz3NXaOn2KvTscW2BnT_s-] found
Submit result: Lxn_V2Dz3NXaOn2KvTscW2BnT_s- has been confirmed
Track | CTDB Status
1 | (16/16) Accurately ripped
2 | (16/16) Accurately ripped
3 | (16/16) Accurately ripped
4 | (16/16) Accurately ripped
5 | (16/16) Accurately ripped
6 | (16/16) Accurately ripped
7 | (16/16) Accurately ripped
8 | (16/16) Accurately ripped
9 | (16/16) Accurately ripped
10 | (16/16) Accurately ripped
11 | (16/16) Accurately ripped
12 | (16/16) Accurately ripped
13 | (16/16) Accurately ripped
14 | (16/16) Accurately ripped
15 | (16/16) Accurately ripped
==== Log checksum DC0263D719F7F6D3F09915486A215CD1B5F7D7DCE8D29A2CA1CE22EA569B027D ====

1987 - Execution Guaranteed

Execution Guaranteed (1989 Re-issue) (Noise, N 0073-2, Germany)

Год издания: 1989
Издатель (лэйбл): Noise
Номер по каталогу: N 0073-2
Страна-производитель диска: Germany
Продолжительность: 45:46
Источник: deminbek (диск из коллекции metallihead)
Трэклист:
1. Down By Law
2. Execution Guaranteed
3. Before The Storm (The Secret Affair)
4. Streetwolf
5. Deadly Error
6. Hatred
7. Grapes Of Wrath
8. Mental Decay
9. When You're Dead

Лог создания рипа

Exact Audio Copy V1.1 from 23. June 2015
EAC extraction logfile from 1. November 2015, 15:12
Rage / Execution Guaranteed [Noise, N 0073-2, W.Germany]
Used drive : PIONEER DVD-RW DVR-220L Adapter: 3 ID: 0
Read mode : Secure
Utilize accurate stream : Yes
Defeat audio cache : Yes
Make use of C2 pointers : No
Read offset correction : 6
Overread into Lead-In and Lead-Out : No
Fill up missing offset samples with silence : Yes
Delete leading and trailing silent blocks : No
Null samples used in CRC calculations : Yes
Used interface : Installed external ASPI interface
Used output format : User Defined Encoder
Selected bitrate : 1024 kBit/s
Quality : High
Add ID3 tag : No
Command line compressor : C:\Program Files\Exact Audio Copy\FLAC\FLAC.EXE
Additional command line options : -V -8 -T "Date=%year%" -T "Genre=%genre%" %source%
TOC of the extracted CD
Track | Start | Length | Start sector | End sector
---------------------------------------------------------
1 | 0:00.00 | 3:23.02 | 0 | 15226
2 | 3:23.02 | 6:49.18 | 15227 | 45919
3 | 10:12.20 | 4:48.67 | 45920 | 67586
4 | 15:01.12 | 6:06.70 | 67587 | 95106
5 | 21:08.07 | 5:06.58 | 95107 | 118114
6 | 26:14.65 | 3:56.52 | 118115 | 135866
7 | 30:11.42 | 5:12.05 | 135867 | 159271
8 | 35:23.47 | 5:53.18 | 159272 | 185764
9 | 41:16.65 | 4:29.12 | 185765 | 205951
Range status and errors
Selected range
Filename C:\CDRip by Deminbek\Rage - Execution Guaranteed [Noise, N 0073-2, W.Germany].wav
Peak level 98.1 %
Extraction speed 1.7 X
Range quality 100.0 %
Test CRC B926BEEC
Copy CRC B926BEEC
Copy OK
No errors occurred
AccurateRip summary
Track 1 accurately ripped (confidence 4) [EC5D9B0C] (AR v1)
Track 2 accurately ripped (confidence 4) [54D7A341] (AR v1)
Track 3 accurately ripped (confidence 4) [F631C657] (AR v1)
Track 4 accurately ripped (confidence 4) [AE49A501] (AR v1)
Track 5 accurately ripped (confidence 3) [5C349E06] (AR v1)
Track 6 accurately ripped (confidence 4) [6D9BD6CC] (AR v1)
Track 7 accurately ripped (confidence 4) [FED10849] (AR v1)
Track 8 accurately ripped (confidence 3) [C6174BEB] (AR v1)
Track 9 accurately ripped (confidence 3) [004B22B8] (AR v1)
All tracks accurately ripped
End of status report
---- CUETools DB Plugin V2.1.6
[CTDB TOCID: mNxWqhbUbZYhpJv66VJ1QsVPsN4-] found
Submit result: already submitted
Track | CTDB Status
1 | (5/6) Accurately ripped
2 | (6/6) Accurately ripped
3 | (6/6) Accurately ripped
4 | (5/6) Accurately ripped
5 | (5/6) Accurately ripped
6 | (5/6) Accurately ripped
7 | (6/6) Accurately ripped
8 | (6/6) Accurately ripped
9 | (6/6) Accurately ripped
==== Log checksum D7BDBC36168C50AD700413F56B3568A6040B1735BA60AD04976B831AD2A5BABA ====

Execution Guaranteed (1990 Re-issue) (Victor Entertainment, VICP-8037, Japan)

Год издания: 1990
Издатель (лэйбл): Victor Entertainment
Номер по каталогу: VICP-8037
Страна-производитель диска: Japan
Продолжительность: 45:48
Источник: kurok79
Трэклист:
1. Down By Law
2. Execution Guaranteed
3. Before The Storm (The Secret Affair)
4. Streetwolf
5. Deadly Error
6. Hatred
7. Grapes Of Wrath
8. Mental Decay
9. When You're Dead

Лог создания рипа

Exact Audio Copy V0.99 prebeta 5 from 4. May 2009
Отчёт EAC об извлечении, выполненном 26. апреля 2011, 22:14
Rage / Execution Guaranteed
Дисковод: ASUS SDRW-08D2S-U Adapter: 2 ID: 0
Режим чтения : Достоверность
Использование точного потока : Да
Отключение кэша аудио : Да
Использование указателей C2 : Нет
Коррекция смещения при чтении : 103
Способность читать области Lead-in и Lead-out : Нет
Заполнение пропущенных сэмплов тишиной : Да
Удаление блоков с тишиной в начале и конце : Нет
При вычислениях CRC использовались нулевые сэмплы : Да
Интерфейс : Встроенный Win32-интерфейс для Win NT/2000
Выходной формат : Пользовательский кодировщик
Выбранный битрейт : 768 kBit/s
Качество : Высокий
Добавление ID3-тэга : Нет
Утилита сжатия : C:\Program Files\Exact Audio Copy\FLAC\FLAC.EXE
Дополнительные параметры : -8 -V %s
TOC извлечённого CD
Трек | Старт | Длительность | Начальный сектор | Конечный сектор
---------------------------------------------------------------------
1 | 0:00.00 | 3:22.65 | 0 | 15214
2 | 3:22.65 | 6:49.43 | 15215 | 45932
3 | 10:12.33 | 4:48.70 | 45933 | 67602
4 | 15:01.28 | 6:06.42 | 67603 | 95094
5 | 21:07.70 | 5:07.10 | 95095 | 118129
6 | 26:15.05 | 3:56.25 | 118130 | 135854
7 | 30:11.30 | 5:12.08 | 135855 | 159262
8 | 35:23.38 | 5:53.15 | 159263 | 185752
9 | 41:16.53 | 4:31.42 | 185753 | 206119
Характеристики диапазона извлечения и сообщения об ошибках
Выбранный диапазон
Имя файла D:\uTorrent.compl\Rage - Studio Albums & EP ( Original Japan 1st Press )\Albums\'Execution Guaranteed' 1987 ( 1990 Victor VICP-8037 )\Rage - Execution Guaranteed.wav
Пиковый уровень 98.1 %
Качество диапазона 100.0 %
CRC теста 15A7300B
CRC копии 15A7300B
Копирование... OK
Ошибок не произошло
AccurateRip: сводка
Трек 1 нет в базе данных
Трек 2 нет в базе данных
Трек 3 нет в базе данных
Трек 4 нет в базе данных
Трек 5 нет в базе данных
Трек 6 нет в базе данных
Трек 7 нет в базе данных
Трек 8 нет в базе данных
Трек 9 нет в базе данных
Ни одного трека нет в базе AccurateRip
Конец отчёта

Execution Guaranteed (2002 Remaster) (Sanctuary, N03652, E.U.)

Год издания: 2002
Издатель (лэйбл): Sanctuary
Номер по каталогу: N03652
Страна-производитель диска: E.U.
Продолжительность: 72:15
Источник: Ginger Devil
Трэклист:
1. Down By Law
2. Execution Guaranteed
3. Before The Storm (The Secret Affair)
4. Streetwolf
5. Deadly Error
6. Hatred
7. Grapes Of Wrath
8. Mental Decay
9. When You're Dead
10. Down By Law (Live) (Bonus track)
11. Nevermore (Live) (Bonus track)
12. Firestorm (Live) (Bonus track)
13. On The Edge (Bonus track)
14. Dust (Acc.) (Bonus track)
15. The Body Talks (Acc.) (Bonus track)

Лог создания рипа

Exact Audio Copy V1.1 from 23. June 2015
EAC extraction logfile from 14. February 2016, 19:47
Rage / Execution Guaranteed
Used drive : Optiarc DVD-ROM DDU1675S Adapter: 1 ID: 0
Read mode : Secure
Utilize accurate stream : Yes
Defeat audio cache : Yes
Make use of C2 pointers : No
Read offset correction : 6
Overread into Lead-In and Lead-Out : No
Fill up missing offset samples with silence : Yes
Delete leading and trailing silent blocks : No
Null samples used in CRC calculations : Yes
Used interface : Native Win32 interface for Win NT & 2000
Used output format : User Defined Encoder
Selected bitrate : 1024 kBit/s
Quality : High
Add ID3 tag : No
Command line compressor : C:\Program Files (x86)\Exact Audio Copy\Flac\flac.exe
Additional command line options : -V -8 -T "Date=%year%" -T "Genre=%genre%" %source%
TOC of the extracted CD
Track | Start | Length | Start sector | End sector
---------------------------------------------------------
1 | 0:00.00 | 3:24.04 | 0 | 15303
2 | 3:24.04 | 6:49.43 | 15304 | 46021
3 | 10:13.47 | 4:48.70 | 46022 | 67691
4 | 15:02.42 | 6:07.03 | 67692 | 95219
5 | 21:09.45 | 5:07.10 | 95220 | 118254
6 | 26:16.55 | 3:58.23 | 118255 | 136127
7 | 30:15.03 | 5:13.22 | 136128 | 159624
8 | 35:28.25 | 5:54.07 | 159625 | 186181
9 | 41:22.32 | 4:32.14 | 186182 | 206595
10 | 45:54.46 | 3:37.23 | 206596 | 222893
11 | 49:31.69 | 4:25.45 | 222894 | 242813
12 | 53:57.39 | 5:06.63 | 242814 | 265826
13 | 59:04.27 | 4:13.73 | 265827 | 284874
14 | 63:18.25 | 4:15.53 | 284875 | 304052
15 | 67:34.03 | 4:41.02 | 304053 | 325129
Range status and errors
Selected range
Filename E:\Torrent\Rage\1987 - Execution Guaranteed (2002 Remastered, Noise, N03652, E.U.)\Rage - Execution Guaranteed.wav
Peak level 96.6 %
Extraction speed 4.7 X
Range quality 100.0 %
Test CRC 3A975236
Copy CRC 3A975236
Copy OK
No errors occurred
AccurateRip summary
Track 1 accurately ripped (confidence 4) [E28D5B7D] (AR v2)
Track 2 accurately ripped (confidence 4) [EBC29F4F] (AR v2)
Track 3 accurately ripped (confidence 4) [EB2517D7] (AR v2)
Track 4 accurately ripped (confidence 4) [88477CB0] (AR v2)
Track 5 accurately ripped (confidence 5) [32AB7E14] (AR v2)
Track 6 accurately ripped (confidence 4) [DC6A8F2A] (AR v2)
Track 7 accurately ripped (confidence 4) [6CB50D0E] (AR v2)
Track 8 accurately ripped (confidence 4) [52F8E839] (AR v2)
Track 9 accurately ripped (confidence 4) [F918FB47] (AR v2)
Track 10 accurately ripped (confidence 4) [19910CD7] (AR v2)
Track 11 accurately ripped (confidence 4) [B2092B8E] (AR v2)
Track 12 accurately ripped (confidence 4) [A28710F7] (AR v2)
Track 13 accurately ripped (confidence 4) [B5588341] (AR v2)
Track 14 accurately ripped (confidence 4) [CEE29B8E] (AR v2)
Track 15 accurately ripped (confidence 4) [8609FE90] (AR v2)
All tracks accurately ripped
End of status report
---- CUETools DB Plugin V2.1.6
[CTDB TOCID: qyqMjRSB9_dELLpA0HM8gmVI63s-] found
Submit result: qyqMjRSB9_dELLpA0HM8gmVI63s- has been confirmed
Track | CTDB Status
1 | (14/14) Accurately ripped
2 | (14/14) Accurately ripped
3 | (14/14) Accurately ripped
4 | (14/14) Accurately ripped
5 | (14/14) Accurately ripped
6 | (14/14) Accurately ripped
7 | (14/14) Accurately ripped
8 | (14/14) Accurately ripped
9 | (14/14) Accurately ripped
10 | (14/14) Accurately ripped
11 | (14/14) Accurately ripped
12 | (14/14) Accurately ripped
13 | (14/14) Accurately ripped
14 | (14/14) Accurately ripped
15 | (14/14) Accurately ripped
==== Log checksum E2C7BBAD372E3DA82A2C6D0BA82896A3DE28B6462E2352B87BEA0961301955BC ====

1988 - Perfect Man

Perfect Man (Noise, N 0112-3, Germany)

Год издания: 1988
Издатель (лэйбл): Noise
Номер по каталогу: N 0112-3
Страна-производитель диска: Germany
Продолжительность: 50:20
Источник: deminbek (диск из коллекции metallihead)
Трэклист:
1. Wasteland
2. In The Darkest Hour
3. Animal Instinct
4. Perfect Man
5. Sinister Thinking
6. Supersonic Hydromatic
7. Don't Fear The Winter
8. Death In The Afternoon
9. A Pilgrim's Path
10. Time And Place
11. Round Trip
12. Between The Lines
13. Symbols Of Our Fear
14. Neurotic

Лог создания рипа

Exact Audio Copy V1.1 from 23. June 2015
EAC extraction logfile from 1. November 2015, 13:03
Rage / Perfect Man [Noise, N 0112-3, W.Germany]
Used drive : PIONEER DVD-RW DVR-220L Adapter: 3 ID: 0
Read mode : Secure
Utilize accurate stream : Yes
Defeat audio cache : Yes
Make use of C2 pointers : No
Read offset correction : 6
Overread into Lead-In and Lead-Out : No
Fill up missing offset samples with silence : Yes
Delete leading and trailing silent blocks : No
Null samples used in CRC calculations : Yes
Used interface : Installed external ASPI interface
Used output format : User Defined Encoder
Selected bitrate : 1024 kBit/s
Quality : High
Add ID3 tag : No
Command line compressor : C:\Program Files\Exact Audio Copy\FLAC\FLAC.EXE
Additional command line options : -V -8 -T "Date=%year%" -T "Genre=%genre%" %source%
TOC of the extracted CD
Track | Start | Length | Start sector | End sector
---------------------------------------------------------
1 | 0:00.00 | 3:26.72 | 0 | 15521
2 | 3:26.72 | 3:16.28 | 15522 | 30249
3 | 6:43.25 | 3:47.65 | 30250 | 47339
4 | 10:31.15 | 3:35.37 | 47340 | 63501
5 | 14:06.52 | 3:18.15 | 63502 | 78366
6 | 17:24.67 | 3:33.08 | 78367 | 94349
7 | 20:58.00 | 3:27.07 | 94350 | 109881
8 | 24:25.07 | 3:56.58 | 109882 | 127639
9 | 28:21.65 | 4:26.72 | 127640 | 147661
10 | 32:48.62 | 4:15.03 | 147662 | 166789
11 | 37:03.65 | 3:24.12 | 166790 | 182101
12 | 40:28.02 | 3:18.25 | 182102 | 196976
13 | 43:46.27 | 3:33.35 | 196977 | 212986
14 | 47:19.62 | 2:59.73 | 212987 | 226484
Range status and errors
Selected range
Filename C:\CDRip by Deminbek\Rage - Perfect Man [Noise, N 0112-3, W.Germany].wav
Peak level 100.0 %
Extraction speed 6.8 X
Range quality 100.0 %
Test CRC 22C6DF50
Copy CRC 22C6DF50
Copy OK
No errors occurred
AccurateRip summary
Track 1 accurately ripped (confidence 6) [364D1681] (AR v2)
Track 2 accurately ripped (confidence 6) [18B0EBF5] (AR v2)
Track 3 accurately ripped (confidence 6) [96C4D4C7] (AR v2)
Track 4 accurately ripped (confidence 6) [6FD783DB] (AR v2)
Track 5 accurately ripped (confidence 6) [F864FE73] (AR v2)
Track 6 accurately ripped (confidence 6) [71E5BBC4] (AR v2)
Track 7 accurately ripped (confidence 6) [E154D8A7] (AR v2)
Track 8 accurately ripped (confidence 6) [1C8F927A] (AR v2)
Track 9 accurately ripped (confidence 6) [AF155814] (AR v2)
Track 10 accurately ripped (confidence 6) [14C22A57] (AR v2)
Track 11 accurately ripped (confidence 6) [20E77C91] (AR v2)
Track 12 accurately ripped (confidence 6) [59C3F168] (AR v2)
Track 13 accurately ripped (confidence 6) [B8D12427] (AR v2)
Track 14 accurately ripped (confidence 6) [1EBDF387] (AR v2)
All tracks accurately ripped
End of status report
---- CUETools DB Plugin V2.1.6
[CTDB TOCID: Va4SS_MLsCBCHXz1rGUbXw46N5k-] found
Submit result: Va4SS_MLsCBCHXz1rGUbXw46N5k- has been confirmed
Track | CTDB Status
1 | (11/11) Accurately ripped
2 | (11/11) Accurately ripped
3 | (11/11) Accurately ripped
4 | (11/11) Accurately ripped
5 | (11/11) Accurately ripped
6 | (11/11) Accurately ripped
7 | (11/11) Accurately ripped
8 | (11/11) Accurately ripped
9 | (11/11) Accurately ripped
10 | (11/11) Accurately ripped
11 | (11/11) Accurately ripped
12 | (11/11) Accurately ripped
13 | (11/11) Accurately ripped
14 | (11/11) Accurately ripped
==== Log checksum 9EFB6F9A81ABD762B9D6A9859D8D41E2E57A86591B29AD39A33F778673168AAB ====

Perfect Man (1990 Re-issue) (Victor Entertanment, VICP-8007, Japan)

Год издания: 1990
Издатель (лэйбл): Victor Entertanment
Номер по каталогу: VICP-8007
Страна-производитель диска: Japan
Продолжительность: 50:22
Источник: kurok79
Трэклист:
1. Wasteland
2. In The Darkest Hour
3. Animal Instinct
4. Perfect Man
5. Sinister Thinking
6. Supersonic Hydromatic
7. Don't Fear The Winter
8. Death In The Afternoon
9. A Pilgrim's Path
10. Time And Place
11. Round Trip
12. Between The Lines
13. Symbols Of Our Fear
14. Neurotic

Лог создания рипа

Exact Audio Copy V0.99 prebeta 5 from 4. May 2009
Отчёт EAC об извлечении, выполненном 26. апреля 2011, 23:09
RAGE / PERFECT MAN
Дисковод: ASUS SDRW-08D2S-U Adapter: 2 ID: 0
Режим чтения : Достоверность
Использование точного потока : Да
Отключение кэша аудио : Да
Использование указателей C2 : Нет
Коррекция смещения при чтении : 103
Способность читать области Lead-in и Lead-out : Нет
Заполнение пропущенных сэмплов тишиной : Да
Удаление блоков с тишиной в начале и конце : Нет
При вычислениях CRC использовались нулевые сэмплы : Да
Интерфейс : Встроенный Win32-интерфейс для Win NT/2000
Выходной формат : Пользовательский кодировщик
Выбранный битрейт : 768 kBit/s
Качество : Высокий
Добавление ID3-тэга : Нет
Утилита сжатия : C:\Program Files\Exact Audio Copy\FLAC\FLAC.EXE
Дополнительные параметры : -8 -V %s
TOC извлечённого CD
Трек | Старт | Длительность | Начальный сектор | Конечный сектор
---------------------------------------------------------------------
1 | 0:00.37 | 3:26.70 | 37 | 15556
2 | 3:27.32 | 3:16.18 | 15557 | 30274
3 | 6:43.50 | 3:47.65 | 30275 | 47364
4 | 10:31.40 | 3:35.37 | 47365 | 63526
5 | 14:07.02 | 3:18.15 | 63527 | 78391
6 | 17:25.17 | 3:33.08 | 78392 | 94374
7 | 20:58.25 | 3:27.05 | 94375 | 109904
8 | 24:25.30 | 3:56.60 | 109905 | 127664
9 | 28:22.15 | 4:26.72 | 127665 | 147686
10 | 32:49.12 | 4:15.03 | 147687 | 166814
11 | 37:04.15 | 3:24.10 | 166815 | 182124
12 | 40:28.25 | 3:18.27 | 182125 | 197001
13 | 43:46.52 | 3:33.33 | 197002 | 213009
14 | 47:20.10 | 3:02.60 | 213010 | 226719
Характеристики диапазона извлечения и сообщения об ошибках
Выбранный диапазон
Имя файла D:\uTorrent.compl\Rage - Studio Albums & EP ( Original Japan 1st Press )\Albums\'Perfect Man' 1988 ( 1990 Victor VICP-8007 )\RAGE - PERFECT MAN.wav
Пиковый уровень 100.0 %
Качество диапазона 100.0 %
CRC теста 4A4DE4A4
CRC копии 4A4DE4A4
Копирование... OK
Ошибок не произошло
AccurateRip: сводка
Трек 1 нет в базе данных
Трек 2 нет в базе данных
Трек 3 нет в базе данных
Трек 4 нет в базе данных
Трек 5 нет в базе данных
Трек 6 нет в базе данных
Трек 7 нет в базе данных
Трек 8 нет в базе данных
Трек 9 нет в базе данных
Трек 10 нет в базе данных
Трек 11 нет в базе данных
Трек 12 нет в базе данных
Трек 13 нет в базе данных
Трек 14 нет в базе данных
Ни одного трека нет в базе AccurateRip
Конец отчёта

Perfect Man (1992 Re-issue) (Noise, N0112-3, Germany)

Год издания: 1992
Издатель (лэйбл): Noise
Номер по каталогу: N0112-3
Страна-производитель диска: Czech Republic for Germany
Продолжительность: 50:20
Источник: deminbek
Трэклист:
1. Wasteland
2. In The Darkest Hour
3. Animal Instinct
4. Perfect Man
5. Sinister Thinking
6. Supersonic Hydromatic
7. Don't Fear The Winter
8. Death In The Afternoon
9. A Pilgrim's Path
10. Time And Place
11. Round Trip
12. Between The Lines
13. Symbols Of Our Fear
14. Neurotic

Лог создания рипа

Exact Audio Copy V1.1 from 23. June 2015
EAC extraction logfile from 1. November 2015, 13:36
Rage / Perfect Man [Noise, N 0112-3, Czech For Germany]
Used drive : PIONEER DVD-RW DVR-220L Adapter: 3 ID: 0
Read mode : Secure
Utilize accurate stream : Yes
Defeat audio cache : Yes
Make use of C2 pointers : No
Read offset correction : 6
Overread into Lead-In and Lead-Out : No
Fill up missing offset samples with silence : Yes
Delete leading and trailing silent blocks : No
Null samples used in CRC calculations : Yes
Used interface : Installed external ASPI interface
Used output format : User Defined Encoder
Selected bitrate : 1024 kBit/s
Quality : High
Add ID3 tag : No
Command line compressor : C:\Program Files\Exact Audio Copy\FLAC\FLAC.EXE
Additional command line options : -V -8 -T "Date=%year%" -T "Genre=%genre%" %source%
TOC of the extracted CD
Track | Start | Length | Start sector | End sector
---------------------------------------------------------
1 | 0:00.33 | 3:26.60 | 33 | 15542
2 | 3:27.18 | 3:16.15 | 15543 | 30257
3 | 6:43.33 | 3:47.65 | 30258 | 47347
4 | 10:31.23 | 3:35.37 | 47348 | 63509
5 | 14:06.60 | 3:18.15 | 63510 | 78374
6 | 17:25.00 | 3:33.10 | 78375 | 94359
7 | 20:58.10 | 3:27.05 | 94360 | 109889
8 | 24:25.15 | 3:56.58 | 109890 | 127647
9 | 28:21.73 | 4:26.72 | 127648 | 147669
10 | 32:48.70 | 4:15.03 | 147670 | 166797
11 | 37:03.73 | 3:24.12 | 166798 | 182109
12 | 40:28.10 | 3:18.25 | 182110 | 196984
13 | 43:46.35 | 3:33.35 | 196985 | 212994
14 | 47:19.70 | 3:00.15 | 212995 | 226509
Range status and errors
Selected range
Filename C:\CDRip by Deminbek\Rage - Perfect Man [Noise, N 0112-3, Czech For Germany].wav
Peak level 100.0 %
Extraction speed 4.3 X
Range quality 100.0 %
Test CRC 621DA09A
Copy CRC 621DA09A
Copy OK
No errors occurred
AccurateRip summary
Track 1 not present in database
Track 2 not present in database
Track 3 not present in database
Track 4 not present in database
Track 5 not present in database
Track 6 not present in database
Track 7 not present in database
Track 8 not present in database
Track 9 not present in database
Track 10 not present in database
Track 11 not present in database
Track 12 not present in database
Track 13 not present in database
Track 14 not present in database
None of the tracks are present in the AccurateRip database
End of status report
---- CUETools DB Plugin V2.1.6
[CTDB TOCID: kGMyEbLGAQFrd6ysQ_Zw1ZumF2k-] found
Submit result: already submitted
Track | CTDB Status
1 | (3/3) Accurately ripped
2 | (3/3) Accurately ripped
3 | (3/3) Accurately ripped
4 | (3/3) Accurately ripped
5 | (3/3) Accurately ripped
6 | (3/3) Accurately ripped
7 | (3/3) Accurately ripped
8 | (3/3) Accurately ripped
9 | (3/3) Accurately ripped
10 | (3/3) Accurately ripped
11 | (3/3) Accurately ripped
12 | (2/3) Accurately ripped, or (1/3) differs in 55 samples @02:01:60,02:02:36,02:04:53,02:05:30,02:05:63-02:05:64,02:06:57
13 | (2/3) Accurately ripped, or (1/3) differs in 481 samples @00:26:44,00:39:62,01:52:40,01:53:00,02:07:04,02:10:32-02:10:33,02:38:29,02:40:45-02:40:46,02:41:42,02:41:59,02:42:02,02:42:37,02:42:54-02:42:55,02:42:72-02:42:73,02:43:15,02:43:33,02:43:50,02:43:68,02:44:11,02:44:28,02:44:64,02:45:06-02:45:07,02:45:24,02:45:59,02:46:19-02:46:20,02:55:15,02:57:41,02:58:19,02:59:32,03:01:53,03:01:71,03:02:14,03:02:31-03:02:32,03:02:49,03:02:67,03:03:09-03:03:10,03:03:27-03:03:28,03:03:62-03:03:63,03:04:05,03:04:23,03:04:41,03:04:59,03:05:19,03:05:54,03:06:15,03:16:16,03:17:30,03:23:58,03:31:44
14 | (2/3) Accurately ripped, or (1/3) differs in 1250 samples @00:01:65,00:02:43,00:24:12,00:47:01,00:49:18-00:49:19,00:49:36,00:56:30-00:56:31,00:56:48,00:57:27,00:57:44-00:57:45,00:58:05,00:58:24,01:00:71,01:07:26,01:07:44,01:10:36-01:10:37,01:17:13,01:18:27-01:18:28,01:19:06,01:21:00-01:21:01,01:21:18-01:21:19,01:21:36,01:21:54,01:22:15,01:37:09,01:47:34,01:47:52,01:47:69-01:47:70,01:48:11-01:48:13,01:48:31,01:48:49-01:48:50,01:48:67,01:49:10-01:49:11,01:49:29,01:49:64-01:49:65,01:53:70,01:54:31-01:54:33,01:54:49-01:54:50,01:54:67,01:55:11-01:55:12,01:55:48,01:56:08-01:56:09,01:56:27,01:56:45,01:56:62-01:56:63,01:57:06,01:57:24,01:57:42,01:58:03,01:59:73,02:04:06,02:04:23-02:04:24,02:08:12-02:08:13,02:08:31,02:08:67,02:15:06,02:20:65-02:20:66,02:23:09,02:23:45,02:24:24,02:24:61,02:28:69,02:29:30,02:29:48,02:29:66,02:30:09,02:30:27-02:30:28,02:30:46,02:30:63-02:30:64,02:31:24-02:31:25,02:31:42,02:31:61,02:32:21,02:32:39,02:32:58,02:33:01,02:33:20,02:33:25,02:33:37,02:33:43,02:33:55,02:33:61-02:33:62,02:33:73,02:34:05,02:34:16-02:34:17,02:34:23,02:34:34-02:34:35,02:34:41,02:34:52-02:34:53,02:34:59,02:34:71-02:34:72,02:35:38-02:35:39,02:35:56,02:35:70-02:36:00,02:36:13-02:36:18,02:36:32-02:36:36,02:39:23,02:40:20-02:40:21,02:42:40,02:42:57-02:42:58,02:42:71,02:43:48-02:43:51,02:43:69,02:44:48,02:44:64-02:44:65,02:45:10,02:45:26,02:46:25-02:46:26,02:46:43-02:46:44,02:55:41,02:58:53
==== Log checksum C9D081D3B663543CD6C6086AA9A0C9C77C73D8FC007B8C46B29091B743C96061 ====

Perfect Man (2002 Remaster) (Sanctuary, N03662, E.U.)

Год издания: 2002
Издатель (лэйбл): Sanctuary
Номер по каталогу: N03662
Страна-производитель диска: E.U.
Продолжительность: 73:13
Источник: Ginger Devil
Трэклист:
1. Wasteland
2. In The Darkest Hour
3. Animal Instinct
4. Perfect Man
5. Sinister Thinking
6. Supersonic Hydromatic
7. Don't Fear The Winter
8. Death In The Afternoon
9. A Pilgrim's Path
10. Time And Place
11. Round Trip
12. Between The Lines
13. Symbols Of Our Fear
14. Neurotic
15. Shame On You (Live) (Bonus track)
16. Don't Fear The Winter (Live) (Bonus track)
17. Certain Days (Live) (Bonus track)
18. Last Goodbye (Bonus track)
19. Not Forever (Acc.) (Bonus track)

Лог создания рипа

Exact Audio Copy V1.1 from 23. June 2015
EAC extraction logfile from 16. February 2017, 20:37
Rage / Perfect Man
Used drive : ASUS DRW-24B1ST Adapter: 1 ID: 1
Read mode : Secure
Utilize accurate stream : Yes
Defeat audio cache : Yes
Make use of C2 pointers : No
Read offset correction : 6
Overread into Lead-In and Lead-Out : No
Fill up missing offset samples with silence : Yes
Delete leading and trailing silent blocks : No
Null samples used in CRC calculations : Yes
Used interface : Native Win32 interface for Win NT & 2000
Used output format : User Defined Encoder
Selected bitrate : 1024 kBit/s
Quality : High
Add ID3 tag : No
Command line compressor : C:\Program Files (x86)\Exact Audio Copy\Flac\flac.exe
Additional command line options : -V -8 -T "Date=%year%" -T "Genre=%genre%" %source%
TOC of the extracted CD
Track | Start | Length | Start sector | End sector
---------------------------------------------------------
1 | 0:00.00 | 3:28.71 | 0 | 15670
2 | 3:28.71 | 3:18.20 | 15671 | 30540
3 | 6:47.16 | 3:49.63 | 30541 | 47778
4 | 10:37.04 | 3:35.64 | 47779 | 63967
5 | 14:12.68 | 3:20.15 | 63968 | 78982
6 | 17:33.08 | 3:35.06 | 78983 | 95113
7 | 21:08.14 | 3:29.05 | 95114 | 110793
8 | 24:37.19 | 3:58.60 | 110794 | 128703
9 | 28:36.04 | 4:28.74 | 128704 | 148877
10 | 33:05.03 | 4:17.01 | 148878 | 168153
11 | 37:22.04 | 3:26.10 | 168154 | 183613
12 | 40:48.14 | 3:20.27 | 183614 | 198640
13 | 44:08.41 | 3:35.49 | 198641 | 214814
14 | 47:44.15 | 3:01.74 | 214815 | 228463
15 | 50:46.14 | 4:30.02 | 228464 | 248715
16 | 55:16.16 | 3:56.50 | 248716 | 266465
17 | 59:12.66 | 5:32.09 | 266466 | 291374
18 | 64:45.00 | 4:21.66 | 291375 | 311015
19 | 69:06.66 | 4:06.13 | 311016 | 329478
Range status and errors
Selected range
Filename E:\Torrent\# MY\# Подготовка раздач\Rage\Albums\1988 - Perfect Man\1988 - Perfect Man (2002 Remastered) (Sanctuary, N03662, E.U.)\Rage - Perfect Man (N03662).wav
Peak level 96.6 %
Extraction speed 5.9 X
Range quality 99.9 %
Test CRC F0110572
Copy CRC F0110572
Copy OK
No errors occurred
AccurateRip summary
Track 1 accurately ripped (confidence 9) [3507F862] (AR v2)
Track 2 accurately ripped (confidence 9) [596B4D36] (AR v2)
Track 3 accurately ripped (confidence 9) [43FE1E54] (AR v2)
Track 4 accurately ripped (confidence 9) [FE4412CC] (AR v2)
Track 5 accurately ripped (confidence 9) [9875176A] (AR v2)
Track 6 accurately ripped (confidence 9) [58CE0594] (AR v2)
Track 7 accurately ripped (confidence 9) [735F81D8] (AR v2)
Track 8 accurately ripped (confidence 9) [875D36E1] (AR v2)
Track 9 accurately ripped (confidence 9) [87118133] (AR v2)
Track 10 accurately ripped (confidence 9) [48EF45CA] (AR v2)
Track 11 accurately ripped (confidence 9) [B44F0811] (AR v2)
Track 12 accurately ripped (confidence 9) [8AE359C5] (AR v2)
Track 13 accurately ripped (confidence 9) [1F475769] (AR v2)
Track 14 accurately ripped (confidence 9) [359902B5] (AR v2)
Track 15 accurately ripped (confidence 8) [4AA53A08] (AR v2)
Track 16 accurately ripped (confidence 9) [860FE493] (AR v2)
Track 17 accurately ripped (confidence 9) [7CEF79A1] (AR v2)
Track 18 accurately ripped (confidence 9) [48FDA418] (AR v2)
Track 19 accurately ripped (confidence 9) [1DFCA65D] (AR v2)
All tracks accurately ripped
End of status report
---- CUETools DB Plugin V2.1.6
[CTDB TOCID: lnuadFGWcUd7UlvFaqTOkB4ZXwM-] found
Submit result: lnuadFGWcUd7UlvFaqTOkB4ZXwM- has been confirmed
Track | CTDB Status
1 | (19/19) Accurately ripped
2 | (19/19) Accurately ripped
3 | (17/19) Accurately ripped
4 | (18/19) Accurately ripped
5 | (19/19) Accurately ripped
6 | (19/19) Accurately ripped
7 | (19/19) Accurately ripped
8 | (19/19) Accurately ripped
9 | (19/19) Accurately ripped
10 | (19/19) Accurately ripped
11 | (19/19) Accurately ripped
12 | (19/19) Accurately ripped
13 | (19/19) Accurately ripped
14 | (19/19) Accurately ripped
15 | (18/19) Accurately ripped
16 | (19/19) Accurately ripped
17 | (19/19) Accurately ripped
18 | (19/19) Accurately ripped
19 | (19/19) Accurately ripped
==== Log checksum C042663F5F6A8AFF002B626D4E9CD0A1CC0F24CD81524117FAE9EF00D8FFE021 ====

1989 - Secrets In A Weird World

Secrets In A Weird World (Noise, N 0137-2, Germany)

Год издания: 1989
Издатель (лэйбл): Noise
Номер по каталогу: N 0137-2
Страна-производитель диска: Germany
Продолжительность: 51:20
Источник: deminbek (диск из коллекции metallihead)
Трэклист:
1. Intro (Opus 32 No.3) by Serge Prokofiev
2. Time Waits For Noone
3. Make My Day
4. The Inner Search
5. Invisible Horizons
6. She
7. Light Into The Darkness
8. Talk To Grandpa
9. Distant Voices
10. Without A Trace
11. Lost Side Of The World (Bonus track)

Лог создания рипа

Exact Audio Copy V1.1 from 23. June 2015
EAC extraction logfile from 31. October 2015, 18:09
Rage / Secrets In A Weird World [Noise, N 0137-2, W.Germany]
Used drive : PIONEER DVD-RW DVR-220L Adapter: 3 ID: 0
Read mode : Secure
Utilize accurate stream : Yes
Defeat audio cache : Yes
Make use of C2 pointers : No
Read offset correction : 6
Overread into Lead-In and Lead-Out : No
Fill up missing offset samples with silence : Yes
Delete leading and trailing silent blocks : No
Null samples used in CRC calculations : Yes
Used interface : Installed external ASPI interface
Used output format : User Defined Encoder
Selected bitrate : 1024 kBit/s
Quality : High
Add ID3 tag : No
Command line compressor : C:\Program Files\Exact Audio Copy\FLAC\FLAC.EXE
Additional command line options : -V -8 -T "Date=%year%" -T "Genre=%genre%" %source%
TOC of the extracted CD
Track | Start | Length | Start sector | End sector
---------------------------------------------------------
1 | 0:00.00 | 0:52.32 | 0 | 3931
2 | 0:52.32 | 4:49.70 | 3932 | 25676
3 | 5:42.27 | 3:37.48 | 25677 | 41999
4 | 9:20.00 | 4:41.42 | 42000 | 63116
5 | 14:01.42 | 4:35.58 | 63117 | 83799
6 | 18:37.25 | 5:20.65 | 83800 | 107864
7 | 23:58.15 | 4:50.47 | 107865 | 129661
8 | 28:48.62 | 2:45.35 | 129662 | 142071
9 | 31:34.22 | 5:48.58 | 142072 | 168229
10 | 37:23.05 | 9:13.12 | 168230 | 209716
11 | 46:36.17 | 4:43.30 | 209717 | 230971
Range status and errors
Selected range
Filename C:\CDRip by Deminbek\Rage - Secrets In A Weird World [Noise, N 0137-2, W.Germany].wav
Peak level 100.0 %
Extraction speed 6.7 X
Range quality 99.9 %
Test CRC 31171BD1
Copy CRC 31171BD1
Copy OK
No errors occurred
AccurateRip summary
Track 1 accurately ripped (confidence 2) [ED5CE2CF] (AR v2)
Track 2 accurately ripped (confidence 2) [2F90C8CB] (AR v2)
Track 3 accurately ripped (confidence 2) [BAA4EC05] (AR v2)
Track 4 accurately ripped (confidence 2) [38DA8CF5] (AR v2)
Track 5 accurately ripped (confidence 2) [6CCE9677] (AR v2)
Track 6 accurately ripped (confidence 2) [223681C3] (AR v2)
Track 7 accurately ripped (confidence 2) [C6B95336] (AR v2)
Track 8 accurately ripped (confidence 2) [CDE04E90] (AR v2)
Track 9 accurately ripped (confidence 2) [E9246E43] (AR v2)
Track 10 accurately ripped (confidence 2) [A0AE0E51] (AR v2)
Track 11 accurately ripped (confidence 2) [41FC333B] (AR v2)
All tracks accurately ripped
End of status report
---- CUETools DB Plugin V2.1.6
[CTDB TOCID: peLRf5yDOIECWi.LbLu0x0zbSAM-] found
Submit result: already submitted
Track | CTDB Status
1 | (14/14) Accurately ripped
2 | (14/14) Accurately ripped
3 | (14/14) Accurately ripped
4 | (14/14) Accurately ripped
5 | (14/14) Accurately ripped
6 | (14/14) Accurately ripped
7 | (14/14) Accurately ripped
8 | (14/14) Accurately ripped
9 | (14/14) Accurately ripped
10 | (10/14) Accurately ripped
11 | (14/14) Accurately ripped
==== Log checksum 313AFD4F49D8FD9EE3BE8CCEBDD8354C56B157B46EF2742B110E23D7711D9807 ====

Secrets In A Weird World (Noise / Magna, N0137-2, Germany)

Год издания: 1989
Издатель (лэйбл): Noise / Magna
Номер по каталогу: N 0137-2
Страна-производитель диска: Germany
Продолжительность: 51:20
Источник: edenika
Трэклист:
1. Intro (Opus 32 No.3) by Serge Prokofiev
2. Time Waits For Noone
3. Make My Day
4. The Inner Search
5. Invisible Horizons
6. She
7. Light Into The Darkness
8. Talk To Grandpa
9. Distant Voices
10. Without A Trace
11. Lost Side Of The World (Bonus track)

Лог создания рипа

Exact Audio Copy V1.0 beta 3 from 29. August 2011
EAC extraction logfile from 8. October 2012, 17:31
Rage / Secrets In A Weird World
Used drive : HL-DT-STDVDRAM GH24NS90 Adapter: 1 ID: 1
Read mode : Secure
Utilize accurate stream : Yes
Defeat audio cache : Yes
Make use of C2 pointers : No
Read offset correction : 6
Overread into Lead-In and Lead-Out : No
Fill up missing offset samples with silence : Yes
Delete leading and trailing silent blocks : No
Null samples used in CRC calculations : Yes
Used interface : Native Win32 interface for Win NT & 2000
Used output format : Internal WAV Routines
Sample format : 44.100 Hz; 16 Bit; Stereo
TOC of the extracted CD
Track | Start | Length | Start sector | End sector
---------------------------------------------------------
1 | 0:00.00 | 0:52.32 | 0 | 3931
2 | 0:52.32 | 4:49.70 | 3932 | 25676
3 | 5:42.27 | 3:37.48 | 25677 | 41999
4 | 9:20.00 | 4:41.42 | 42000 | 63116
5 | 14:01.42 | 4:36.30 | 63117 | 83846
6 | 18:37.72 | 5:20.18 | 83847 | 107864
7 | 23:58.15 | 4:50.47 | 107865 | 129661
8 | 28:48.62 | 2:45.35 | 129662 | 142071
9 | 31:34.22 | 5:48.58 | 142072 | 168229
10 | 37:23.05 | 9:13.12 | 168230 | 209716
11 | 46:36.17 | 4:43.30 | 209717 | 230971
Range status and errors
Selected range
Filename C:\Music CD\Rage - Secrets In A Weird World.wav
Peak level 100.0 %
Extraction speed 1.7 X
Range quality 99.9 %
Test CRC 2191339B
Copy CRC 2191339B
Copy OK
No errors occurred
AccurateRip summary
Track 1 accurately ripped (confidence 3) [38D31017] (AR v1)
Track 2 cannot be verified as accurate (confidence 3) [BA132E4A], AccurateRip returned [38506E6D] (AR v2)
Track 3 accurately ripped (confidence 3) [9D11A893] (AR v1)
Track 4 accurately ripped (confidence 3) [91F793DC] (AR v1)
Track 5 accurately ripped (confidence 3) [69E6ADF8] (AR v1)
Track 6 accurately ripped (confidence 3) [7B0496B5] (AR v1)
Track 7 accurately ripped (confidence 3) [8C4FD9AF] (AR v1)
Track 8 accurately ripped (confidence 3) [CD27F21E] (AR v1)
Track 9 cannot be verified as accurate (confidence 3) [D0E2CB27], AccurateRip returned [5497CFAB] (AR v2)
Track 10 cannot be verified as accurate (confidence 3) [D60416C8], AccurateRip returned [9A4260EB] (AR v2)
Track 11 cannot be verified as accurate (confidence 3) [ACF69611], AccurateRip returned [689276ED] (AR v2)
7 track(s) accurately ripped
4 track(s) could not be verified as accurate
Some tracks could not be verified as accurate
End of status report
==== Log checksum C5F5072CC7B1DD2C12D74FDCD3C1C2D16D7F3B2062C1A35338FBE09D5F1FB601 ====

Secrets In A Weird World (Victor Entertainment, VICP-8002, Japan)

Год издания: 1990
Издатель (лэйбл): Victor Entertainment
Номер по каталогу: VICP-8002
Страна-производитель диска: Japan
Продолжительность: 60:47
Источник: deminbek (диск из коллекции metallihead)
Трэклист:
1. Intro (Opus 32 Nr.3)
2. Time Waits For Noone
3. Make My Day
4. The Inner Search
5. Invisible Horizons
6. She
7. Light Into The Darkness
8. Talk To Grandpa
9. Distant Voices
10. Without A Trace
11. Lost Side Of The World (Bonus track)
12. Law And Order (Bonus track)
13. Mirror (Bonus track)

Лог создания рипа

Exact Audio Copy V1.1 from 23. June 2015
EAC extraction logfile from 1. November 2015, 16:13
Rage / Secrets In A Weird World [Victor, VICP-8002, Japan]
Used drive : PIONEER DVD-RW DVR-220L Adapter: 3 ID: 0
Read mode : Secure
Utilize accurate stream : Yes
Defeat audio cache : Yes
Make use of C2 pointers : No
Read offset correction : 6
Overread into Lead-In and Lead-Out : No
Fill up missing offset samples with silence : Yes
Delete leading and trailing silent blocks : No
Null samples used in CRC calculations : Yes
Used interface : Installed external ASPI interface
Used output format : User Defined Encoder
Selected bitrate : 1024 kBit/s
Quality : High
Add ID3 tag : No
Command line compressor : C:\Program Files\Exact Audio Copy\FLAC\FLAC.EXE
Additional command line options : -V -8 -T "Date=%year%" -T "Genre=%genre%" %source%
TOC of the extracted CD
Track | Start | Length | Start sector | End sector
---------------------------------------------------------
1 | 0:00.37 | 0:52.50 | 37 | 3986
2 | 0:53.12 | 4:49.68 | 3987 | 25729
3 | 5:43.05 | 3:37.50 | 25730 | 42054
4 | 9:20.55 | 4:41.12 | 42055 | 63141
5 | 14:01.67 | 4:36.33 | 63142 | 83874
6 | 18:38.25 | 5:20.17 | 83875 | 107891
7 | 23:58.42 | 4:50.73 | 107892 | 129714
8 | 28:49.40 | 2:45.32 | 129715 | 142121
9 | 31:34.72 | 5:48.63 | 142122 | 168284
10 | 37:23.60 | 9:12.60 | 168285 | 209744
11 | 46:36.45 | 4:45.02 | 209745 | 231121
12 | 51:21.47 | 3:04.30 | 231122 | 244951
13 | 54:26.02 | 6:21.05 | 244952 | 273531
Range status and errors
Selected range
Filename C:\CDRip by Deminbek\Rage - Secrets In A Weird World [Victor, VICP-8002, Japan].wav
Peak level 100.0 %
Extraction speed 7.6 X
Range quality 100.0 %
Test CRC 42CD4437
Copy CRC 42CD4437
Copy OK
No errors occurred
AccurateRip summary
Track 1 accurately ripped (confidence 6) [60DE4E03] (AR v2)
Track 2 accurately ripped (confidence 6) [D1F050CC] (AR v2)
Track 3 accurately ripped (confidence 6) [717457F6] (AR v2)
Track 4 accurately ripped (confidence 6) [C4A3DBD0] (AR v2)
Track 5 accurately ripped (confidence 6) [1B025785] (AR v2)
Track 6 accurately ripped (confidence 6) [BBBB6337] (AR v2)
Track 7 accurately ripped (confidence 6) [5EF7A414] (AR v2)
Track 8 accurately ripped (confidence 6) [4860E81A] (AR v2)
Track 9 accurately ripped (confidence 6) [447366AD] (AR v2)
Track 10 accurately ripped (confidence 6) [33CA79B1] (AR v2)
Track 11 accurately ripped (confidence 6) [6674387F] (AR v2)
Track 12 accurately ripped (confidence 6) [FD3443AD] (AR v2)
Track 13 accurately ripped (confidence 6) [9B56790A] (AR v2)
All tracks accurately ripped
End of status report
---- CUETools DB Plugin V2.1.6
[CTDB TOCID: L36ZPGr5ttccXkZV.D84GCnBQuA-] found
Submit result: already submitted
Track | CTDB Status
1 | (4/4) Accurately ripped
2 | (4/4) Accurately ripped
3 | (4/4) Accurately ripped
4 | (4/4) Accurately ripped
5 | (4/4) Accurately ripped
6 | (4/4) Accurately ripped
7 | (4/4) Accurately ripped
8 | (4/4) Accurately ripped
9 | (4/4) Accurately ripped
10 | (4/4) Accurately ripped
11 | (4/4) Accurately ripped
12 | (4/4) Accurately ripped
13 | (4/4) Accurately ripped
==== Log checksum 53492B436AAEC3FFA5395228EB3B65E45319E149F2CDFD2894375B494706C5A1 ====

Secrets In A Weird World (2002 Remaster) (Sanctuary, N03672, E.U.)

Год издания: 2002
Издатель (лэйбл): Sanctuary
Номер по каталогу: N03672
Страна-производитель диска: E.U.
Продолжительность: 75:03
Источник: deminbek (диск из коллекции metallihead)
Трэклист:
1. Intro (Opus 32 Nr.3) by Serge Prokofiev
2. Time Waits For Noone
3. Make My Day
4. The Inner Search
5. Invisible Horizons
6. She
7. Light Into The Darkness
8. Talk To Grandpa
9. Distant Voices
10. Without A Trace
11. Lost Side Of The World
12. Law And Order (Bonus track)
13. Mirror (Bonus track)
14. Invisible Horizons (Live) (Bonus track)
15. (Those Who Got) Nothing To Lose (Bonus track)
16. Shame On You (Acc.) (Bonus track)

Лог создания рипа

Exact Audio Copy V1.1 from 23. June 2015
EAC extraction logfile from 31. October 2015, 19:59
Rage / Secrets In A Weird World [Sanctuary, N03672, UK]
Used drive : PIONEER DVD-RW DVR-220L Adapter: 3 ID: 0
Read mode : Secure
Utilize accurate stream : Yes
Defeat audio cache : Yes
Make use of C2 pointers : No
Read offset correction : 6
Overread into Lead-In and Lead-Out : No
Fill up missing offset samples with silence : Yes
Delete leading and trailing silent blocks : No
Null samples used in CRC calculations : Yes
Used interface : Installed external ASPI interface
Used output format : User Defined Encoder
Selected bitrate : 1024 kBit/s
Quality : High
Add ID3 tag : No
Command line compressor : C:\Program Files\Exact Audio Copy\FLAC\FLAC.EXE
Additional command line options : -V -8 -T "Date=%year%" -T "Genre=%genre%" %source%
TOC of the extracted CD
Track | Start | Length | Start sector | End sector
---------------------------------------------------------
1 | 0:00.00 | 0:51.54 | 0 | 3878
2 | 0:51.54 | 4:51.55 | 3879 | 25758
3 | 5:43.34 | 3:40.03 | 25759 | 42261
4 | 9:23.37 | 4:42.39 | 42262 | 63450
5 | 14:06.01 | 4:35.71 | 63451 | 84146
6 | 18:41.72 | 5:20.39 | 84147 | 108185
7 | 24:02.36 | 4:52.30 | 108186 | 130115
8 | 28:54.66 | 2:47.46 | 130116 | 142686
9 | 31:42.37 | 5:50.71 | 142687 | 169007
10 | 37:33.33 | 9:14.40 | 169008 | 210597
11 | 46:47.73 | 4:45.73 | 210598 | 232045
12 | 51:33.71 | 3:04.09 | 232046 | 245854
13 | 54:38.05 | 6:18.56 | 245855 | 274260
14 | 60:56.61 | 5:05.13 | 274261 | 297148
15 | 66:01.74 | 4:13.68 | 297149 | 316191
16 | 70:15.67 | 4:47.02 | 316192 | 337718
Range status and errors
Selected range
Filename C:\CDRip by Deminbek\Rage - Secrets In A Weird World [Sanctuary, N03672, UK].wav
Peak level 96.6 %
Extraction speed 7.7 X
Range quality 99.9 %
Test CRC EEB91EB8
Copy CRC EEB91EB8
Copy OK
No errors occurred
AccurateRip summary
Track 1 accurately ripped (confidence 6) [E8A905F3] (AR v2)
Track 2 accurately ripped (confidence 6) [B4089F00] (AR v2)
Track 3 accurately ripped (confidence 6) [EA1B1D23] (AR v2)
Track 4 accurately ripped (confidence 6) [6A050B4E] (AR v2)
Track 5 accurately ripped (confidence 6) [B7F8B5D4] (AR v2)
Track 6 accurately ripped (confidence 6) [CBDE7B8A] (AR v2)
Track 7 accurately ripped (confidence 6) [BFBD09B8] (AR v2)
Track 8 accurately ripped (confidence 6) [1BEA72E4] (AR v2)
Track 9 accurately ripped (confidence 6) [519A9B5E] (AR v2)
Track 10 accurately ripped (confidence 6) [2C0D116C] (AR v2)
Track 11 accurately ripped (confidence 6) [CB607608] (AR v2)
Track 12 accurately ripped (confidence 6) [6334AD0C] (AR v2)
Track 13 accurately ripped (confidence 6) [C9016EE4] (AR v2)
Track 14 accurately ripped (confidence 6) [A526611E] (AR v2)
Track 15 accurately ripped (confidence 6) [B6976E4D] (AR v2)
Track 16 accurately ripped (confidence 6) [5E15FC41] (AR v2)
All tracks accurately ripped
End of status report
---- CUETools DB Plugin V2.1.6
[CTDB TOCID: yC.YPlm.olERAaz7zF8wIY.JiJs-] found
Submit result: yC.YPlm.olERAaz7zF8wIY.JiJs- has been confirmed
Track | CTDB Status
1 | (7/7) Accurately ripped
2 | (7/7) Accurately ripped
3 | (7/7) Accurately ripped
4 | (7/7) Accurately ripped
5 | (7/7) Accurately ripped
6 | (7/7) Accurately ripped
7 | (7/7) Accurately ripped
8 | (7/7) Accurately ripped
9 | (7/7) Accurately ripped
10 | (7/7) Accurately ripped
11 | (7/7) Accurately ripped
12 | (7/7) Accurately ripped
13 | (7/7) Accurately ripped
14 | (6/7) Accurately ripped
15 | (7/7) Accurately ripped
16 | (6/7) Accurately ripped
==== Log checksum C6971A68FB68F36DC757918F48B1C7A5ADAEFAD863A23CEB4EC4E0790B3AA930 ====

1990 - Reflections Of A Shadow

Reflections Of A Shadow (Victor Entertainment, VICP-8034, Japan)

Год издания: 1990
Издатель (лэйбл): Victor Entertainment
Номер по каталогу: VICP-8034
Страна-производитель диска: Japan
Продолжительность: 56:31
Источник: deminbek (диск из коллекции metallihead)
Трэклист:
1. Introduction (A Bit More Of Green)
2. That's Human Bondage
3. True Face In Everyone
4. Flowers That Fade In My Hand
5. Reflections Of A Shadow
6. Can't Get Out
7. Waiting For The Moon
8. Faith
9. Saddle The Wind
10. Dust
11. Nobody Knows
12. Wild Seed

Лог создания рипа

Exact Audio Copy V1.1 from 23. June 2015
EAC extraction logfile from 1. November 2015, 8:01
Rage / Reflections Of A Shadow [Victor, VICP-8034, Japan]
Used drive : PIONEER DVD-RW DVR-220L Adapter: 3 ID: 0
Read mode : Secure
Utilize accurate stream : Yes
Defeat audio cache : Yes
Make use of C2 pointers : No
Read offset correction : 6
Overread into Lead-In and Lead-Out : No
Fill up missing offset samples with silence : Yes
Delete leading and trailing silent blocks : No
Null samples used in CRC calculations : Yes
Used interface : Installed external ASPI interface
Used output format : User Defined Encoder
Selected bitrate : 1024 kBit/s
Quality : High
Add ID3 tag : No
Command line compressor : C:\Program Files\Exact Audio Copy\FLAC\FLAC.EXE
Additional command line options : -V -8 -T "Date=%year%" -T "Genre=%genre%" %source%
TOC of the extracted CD
Track | Start | Length | Start sector | End sector
---------------------------------------------------------
1 | 0:00.37 | 1:32.23 | 37 | 6959
2 | 1:32.60 | 4:27.65 | 6960 | 27049
3 | 6:00.50 | 5:13.05 | 27050 | 50529
4 | 11:13.55 | 7:40.07 | 50530 | 85036
5 | 18:53.62 | 3:54.03 | 85037 | 102589
6 | 22:47.65 | 5:05.07 | 102590 | 125471
7 | 27:52.72 | 4:40.55 | 125472 | 146526
8 | 32:33.52 | 5:42.63 | 146527 | 172239
9 | 38:16.40 | 4:07.10 | 172240 | 190774
10 | 42:23.50 | 4:50.32 | 190775 | 212556
11 | 47:14.07 | 3:50.48 | 212557 | 229854
12 | 51:04.55 | 5:26.70 | 229855 | 254374
Range status and errors
Selected range
Filename C:\CDRip by Deminbek\Rage - Reflections Of A Shadow [Victor, VICP-8034, Japan].wav
Peak level 96.0 %
Extraction speed 6.8 X
Range quality 100.0 %
Test CRC A9496B72
Copy CRC A9496B72
Copy OK
No errors occurred
AccurateRip summary
Track 1 accurately ripped (confidence 4) [353F7E75] (AR v2)
Track 2 accurately ripped (confidence 4) [B1C07AFA] (AR v2)
Track 3 accurately ripped (confidence 4) [86F46E93] (AR v2)
Track 4 accurately ripped (confidence 4) [6DB7A6B8] (AR v2)
Track 5 accurately ripped (confidence 4) [076E6C74] (AR v2)
Track 6 accurately ripped (confidence 4) [00440A83] (AR v2)
Track 7 accurately ripped (confidence 4) [ED7FC344] (AR v2)
Track 8 accurately ripped (confidence 4) [8575A52D] (AR v2)
Track 9 accurately ripped (confidence 4) [B28C1546] (AR v2)
Track 10 accurately ripped (confidence 4) [0B415AB0] (AR v2)
Track 11 accurately ripped (confidence 4) [775003A7] (AR v2)
Track 12 accurately ripped (confidence 4) [D1E1AB87] (AR v2)
All tracks accurately ripped
End of status report
---- CUETools DB Plugin V2.1.6
[CTDB TOCID: Seb4IK8FI.ORCG7lebFUai.5xEo-] found
Submit result: Seb4IK8FI.ORCG7lebFUai.5xEo- has been confirmed
Track | CTDB Status
1 | (2/2) Accurately ripped
2 | (2/2) Accurately ripped
3 | (2/2) Accurately ripped
4 | (2/2) Accurately ripped
5 | (2/2) Accurately ripped
6 | (2/2) Accurately ripped
7 | (2/2) Accurately ripped
8 | (2/2) Accurately ripped
9 | (2/2) Accurately ripped
10 | (2/2) Accurately ripped
11 | (2/2) Accurately ripped
12 | (2/2) Accurately ripped
==== Log checksum 33599C7C53D8509E3446272A6FBE82E8D26BA4D42455B1EE300C4CE1666F9203 ====

Reflections Of A Shadow (1993 Re-issue) (Noise, N0160-2, Germany)

Год издания: 1993
Издатель (лэйбл): Noise
Номер по каталогу: N0160-2
Страна-производитель диска: Czech for Germany
Продолжительность: 56:29
Источник: deminbek (диск из коллекции metallihead)
Трэклист:
1. Introduction (A Bit More Of Green)
2. That's Human Bondage
3. True Face In Everyone
4. Flowers That Fade In My Hand
5. Reflections Of A Shadow
6. Can't Get Out (Intro)
7. Can't Get Out
8. Waiting For The Moon
9. Faith
10. Saddle The Wind
11. Dust
12. Nobody Knows
13. Wild Seed

Лог создания рипа

Exact Audio Copy V1.1 from 23. June 2015
EAC extraction logfile from 1. November 2015, 17:05
Rage / Reflections Of A Shadow [Noise, NO 160-2, Czech For Germany]
Used drive : PIONEER DVD-RW DVR-220L Adapter: 3 ID: 0
Read mode : Secure
Utilize accurate stream : Yes
Defeat audio cache : Yes
Make use of C2 pointers : No
Read offset correction : 6
Overread into Lead-In and Lead-Out : No
Fill up missing offset samples with silence : Yes
Delete leading and trailing silent blocks : No
Null samples used in CRC calculations : Yes
Used interface : Installed external ASPI interface
Used output format : User Defined Encoder
Selected bitrate : 1024 kBit/s
Quality : High
Add ID3 tag : No
Command line compressor : C:\Program Files\Exact Audio Copy\FLAC\FLAC.EXE
Additional command line options : -V -8 -T "Date=%year%" -T "Genre=%genre%" %source%
TOC of the extracted CD
Track | Start | Length | Start sector | End sector
---------------------------------------------------------
1 | 0:00.00 | 1:32.07 | 0 | 6906
2 | 1:32.07 | 4:28.15 | 6907 | 27021
3 | 6:00.22 | 5:12.68 | 27022 | 50489
4 | 11:13.15 | 7:39.70 | 50490 | 84984
5 | 18:53.10 | 3:54.27 | 84985 | 102561
6 | 22:47.37 | 0:41.43 | 102562 | 105679
7 | 23:29.05 | 4:23.15 | 105680 | 125419
8 | 27:52.20 | 4:40.67 | 125420 | 146486
9 | 32:33.12 | 5:42.63 | 146487 | 172199
10 | 38:16.00 | 4:07.25 | 172200 | 190749
11 | 42:23.25 | 4:50.30 | 190750 | 212529
12 | 47:13.55 | 3:50.47 | 212530 | 229826
13 | 51:04.27 | 5:24.58 | 229827 | 254184
Range status and errors
Selected range
Filename C:\CDRip by Deminbek\Rage - Reflections Of A Shadow [Noise, NO 160-2, Czech For Germany].wav
Peak level 96.0 %
Extraction speed 7.0 X
Range quality 100.0 %
Test CRC 0C4F45BA
Copy CRC 0C4F45BA
Copy OK
No errors occurred
AccurateRip summary
Track 1 accurately ripped (confidence 2) [3091F5D3] (AR v2)
Track 2 accurately ripped (confidence 2) [F5EC1FCB] (AR v2)
Track 3 accurately ripped (confidence 2) [CB4DA676] (AR v2)
Track 4 accurately ripped (confidence 2) [856BDB7F] (AR v2)
Track 5 accurately ripped (confidence 2) [B413E526] (AR v2)
Track 6 accurately ripped (confidence 2) [C874EFA6] (AR v2)
Track 7 accurately ripped (confidence 2) [8C72742F] (AR v2)
Track 8 accurately ripped (confidence 2) [AFB2FD7C] (AR v2)
Track 9 accurately ripped (confidence 2) [84C03EBE] (AR v2)
Track 10 accurately ripped (confidence 2) [69A24FAC] (AR v2)
Track 11 accurately ripped (confidence 2) [0026A354] (AR v2)
Track 12 accurately ripped (confidence 2) [CD4F1463] (AR v2)
Track 13 accurately ripped (confidence 2) [CC1D6D7F] (AR v2)
All tracks accurately ripped
End of status report
---- CUETools DB Plugin V2.1.6
[CTDB TOCID: lAZX20b1dhQcZEmN2MJ4k5dj96k-] disk not present in database
Submit result: lAZX20b1dhQcZEmN2MJ4k5dj96k- has been uploaded
==== Log checksum 6ED098A6555216DC5E34162841A8A0AF6C996D3D49B0D844A139793C4FD0CD8C ====

Reflections Of A Shadow (1997 Re-issue) (Noise, N 0160-2, Germany)

Год издания: 1997
Издатель (лэйбл): Noise
Номер по каталогу: N 0160-2
Страна-производитель диска: Germany
Продолжительность: 56:29
Источник: deminbek (диск из коллекции metallihead)
Трэклист:
1. Introduction (A Bit More Of Green)
2. That's Human Bondage
3. True Face In Everyone
4. Flowers That Fade In My Hand
5. Reflections Of A Shadow
6. Can't Get Out (Intro)
7. Can't Get Out
8. Waiting For The Moon
9. Faith
10. Saddle The Wind
11. Dust
12. Nobody Knows
13. Wild Seed

Лог создания рипа

Exact Audio Copy V1.1 from 23. June 2015
EAC extraction logfile from 1. November 2015, 17:33
Rage / Reflections Of A Shadow [Noise, N 0160-2, France]
Used drive : PIONEER DVD-RW DVR-220L Adapter: 3 ID: 0
Read mode : Secure
Utilize accurate stream : Yes
Defeat audio cache : Yes
Make use of C2 pointers : No
Read offset correction : 6
Overread into Lead-In and Lead-Out : No
Fill up missing offset samples with silence : Yes
Delete leading and trailing silent blocks : No
Null samples used in CRC calculations : Yes
Used interface : Installed external ASPI interface
Used output format : User Defined Encoder
Selected bitrate : 1024 kBit/s
Quality : High
Add ID3 tag : No
Command line compressor : C:\Program Files\Exact Audio Copy\FLAC\FLAC.EXE
Additional command line options : -V -8 -T "Date=%year%" -T "Genre=%genre%" %source%
TOC of the extracted CD
Track | Start | Length | Start sector | End sector
---------------------------------------------------------
1 | 0:00.32 | 1:32.08 | 32 | 6939
2 | 1:32.40 | 4:28.15 | 6940 | 27054
3 | 6:00.55 | 5:12.67 | 27055 | 50521
4 | 11:13.47 | 7:39.68 | 50522 | 85014
5 | 18:53.40 | 3:54.27 | 85015 | 102591
6 | 22:47.67 | 0:41.43 | 102592 | 105709
7 | 23:29.35 | 4:23.15 | 105710 | 125449
8 | 27:52.50 | 4:40.67 | 125450 | 146516
9 | 32:33.42 | 5:42.63 | 146517 | 172229
10 | 38:16.30 | 4:07.25 | 172230 | 190779
11 | 42:23.55 | 4:50.30 | 190780 | 212559
12 | 47:14.10 | 3:50.50 | 212560 | 229859
13 | 51:04.60 | 5:24.60 | 229860 | 254219
Range status and errors
Selected range
Filename C:\CDRip by Deminbek\Rage - Reflections Of A Shadow [Noise, N 0160-2, France].wav
Peak level 96.8 %
Extraction speed 7.0 X
Range quality 100.0 %
Test CRC 52FDBE25
Copy CRC 52FDBE25
Copy OK
No errors occurred
AccurateRip summary
Track 1 accurately ripped (confidence 2) [95CF2985] (AR v2)
Track 2 accurately ripped (confidence 2) [9A517A9E] (AR v2)
Track 3 accurately ripped (confidence 2) [549B6498] (AR v2)
Track 4 accurately ripped (confidence 2) [286FC50E] (AR v2)
Track 5 accurately ripped (confidence 2) [91BF1CC7] (AR v2)
Track 6 accurately ripped (confidence 2) [D20F0E59] (AR v2)
Track 7 accurately ripped (confidence 2) [D8358183] (AR v2)
Track 8 accurately ripped (confidence 2) [98D828FD] (AR v2)
Track 9 accurately ripped (confidence 2) [EAEEB015] (AR v2)
Track 10 accurately ripped (confidence 2) [8118484B] (AR v2)
Track 11 accurately ripped (confidence 2) [0D90C8FB] (AR v2)
Track 12 accurately ripped (confidence 2) [6DF0EF83] (AR v2)
Track 13 accurately ripped (confidence 2) [19CDC508] (AR v2)
All tracks accurately ripped
End of status report
---- CUETools DB Plugin V2.1.6
[CTDB TOCID: uUnDanrI_Ay845wh39gRbHM37Ts-] found
Submit result: uUnDanrI_Ay845wh39gRbHM37Ts- has been confirmed
Track | CTDB Status
1 | (2/2) Accurately ripped
2 | (2/2) Accurately ripped
3 | (2/2) Accurately ripped
4 | (2/2) Accurately ripped
5 | (2/2) Accurately ripped
6 | (2/2) Accurately ripped
7 | (2/2) Accurately ripped
8 | (2/2) Accurately ripped
9 | (2/2) Accurately ripped
10 | (2/2) Accurately ripped
11 | (2/2) Accurately ripped
12 | (2/2) Accurately ripped
13 | (2/2) Accurately ripped
==== Log checksum 615A104951F788BBB36E1664138892713E18CAC125CDF78380F23DD3D56DB4C2 ====

Reflections Of A Shadow (2002 Remastered) (Sanctuary, N03682, E.U.)

Год издания: 2002
Издатель (лэйбл): Sanctuary
Номер по каталогу: N03682
Страна-производитель диска: E.U.
Продолжительность: 76:35
Источник: deminbek (диск из коллекции metallihead)
Трэклист:
1. Introduction (A Bit More Of Green)
2. That's Human Bondage
3. True Face In Everyone
4. Flowers That Fade In My Hand
5. Reflections Of A Shadow
6. Can't Get Out
7. Waiting For The Moon
8. Faith
9. Saddle The Wind
10. Dust
11. Nobody Knows
12. Wild Seed
13. Woman (Bonus track)
14. Ashes (Bonus track)
15. Bottlefield (Bonus track)
16. What's Up (Instr.) (Bonus track)
17. Woman (Acc.) (Bonus track)

Лог создания рипа

Exact Audio Copy V1.1 from 23. June 2015
EAC extraction logfile from 31. October 2015, 18:38
Rage / Reflections Of A Shadow [Sanctuary, N03682, UK]
Used drive : PIONEER DVD-RW DVR-220L Adapter: 3 ID: 0
Read mode : Secure
Utilize accurate stream : Yes
Defeat audio cache : Yes
Make use of C2 pointers : No
Read offset correction : 6
Overread into Lead-In and Lead-Out : No
Fill up missing offset samples with silence : Yes
Delete leading and trailing silent blocks : No
Null samples used in CRC calculations : Yes
Used interface : Installed external ASPI interface
Used output format : User Defined Encoder
Selected bitrate : 1024 kBit/s
Quality : High
Add ID3 tag : No
Command line compressor : C:\Program Files\Exact Audio Copy\FLAC\FLAC.EXE
Additional command line options : -V -8 -T "Date=%year%" -T "Genre=%genre%" %source%
TOC of the extracted CD
Track | Start | Length | Start sector | End sector
---------------------------------------------------------
1 | 0:00.00 | 1:32.23 | 0 | 6922
2 | 1:32.23 | 4:29.65 | 6923 | 27162
3 | 6:02.13 | 5:15.05 | 27163 | 50792
4 | 11:17.18 | 7:41.17 | 50793 | 85384
5 | 18:58.35 | 3:55.28 | 85385 | 103037
6 | 22:53.63 | 5:06.12 | 103038 | 125999
7 | 28:00.00 | 4:42.24 | 126000 | 147173
8 | 32:42.24 | 5:43.13 | 147174 | 172911
9 | 38:25.37 | 4:09.25 | 172912 | 191611
10 | 42:34.62 | 4:52.05 | 191612 | 213516
11 | 47:26.67 | 3:51.49 | 213517 | 230890
12 | 51:18.41 | 5:27.01 | 230891 | 255416
13 | 56:45.42 | 3:47.52 | 255417 | 272493
14 | 60:33.19 | 5:02.65 | 272494 | 295208
15 | 65:36.09 | 2:37.72 | 295209 | 307055
16 | 68:14.06 | 3:36.22 | 307056 | 323277
17 | 71:50.28 | 4:44.41 | 323278 | 344618
Range status and errors
Selected range
Filename C:\CDRip by Deminbek\Rage - Reflections Of A Shadow [Sanctuary, N03682, UK].wav
Peak level 100.0 %
Extraction speed 8.0 X
Range quality 100.0 %
Test CRC 10A3D750
Copy CRC 10A3D750
Copy OK
No errors occurred
AccurateRip summary
Track 1 accurately ripped (confidence 3) [4A715BE0] (AR v2)
Track 2 accurately ripped (confidence 3) [F1450E64] (AR v2)
Track 3 accurately ripped (confidence 3) [8AE36A61] (AR v2)
Track 4 accurately ripped (confidence 3) [F575EA7F] (AR v2)
Track 5 accurately ripped (confidence 3) [47F7BC0D] (AR v2)
Track 6 accurately ripped (confidence 3) [7A7BE5E7] (AR v2)
Track 7 accurately ripped (confidence 3) [71AF62E0] (AR v2)
Track 8 accurately ripped (confidence 3) [81A4ECBA] (AR v2)
Track 9 accurately ripped (confidence 3) [6F825FEA] (AR v2)
Track 10 accurately ripped (confidence 3) [5E7C84BF] (AR v2)
Track 11 accurately ripped (confidence 3) [035F4E6D] (AR v2)
Track 12 accurately ripped (confidence 3) [FBE977B8] (AR v2)
Track 13 accurately ripped (confidence 3) [E42049A5] (AR v2)
Track 14 accurately ripped (confidence 3) [EC228BB4] (AR v2)
Track 15 accurately ripped (confidence 3) [7D261878] (AR v2)
Track 16 accurately ripped (confidence 3) [43420CEE] (AR v2)
Track 17 accurately ripped (confidence 3) [B3339D0E] (AR v2)
All tracks accurately ripped
End of status report
---- CUETools DB Plugin V2.1.6
[CTDB TOCID: qn83Ircrvzi_xwJ.Il6vc7FrHWU-] found
Submit result: qn83Ircrvzi_xwJ.Il6vc7FrHWU- has been confirmed
Track | CTDB Status
1 | (7/7) Accurately ripped
2 | (7/7) Accurately ripped
3 | (7/7) Accurately ripped
4 | (7/7) Accurately ripped
5 | (7/7) Accurately ripped
6 | (7/7) Accurately ripped
7 | (7/7) Accurately ripped
8 | (7/7) Accurately ripped
9 | (7/7) Accurately ripped
10 | (7/7) Accurately ripped
11 | (7/7) Accurately ripped
12 | (7/7) Accurately ripped
13 | (7/7) Accurately ripped
14 | (7/7) Accurately ripped
15 | (7/7) Accurately ripped
16 | (7/7) Accurately ripped
17 | (7/7) Accurately ripped
==== Log checksum 964C46871D09CEC66ACA95471C91233EBEFDCA1CABED9D1BC00B496BBD10BCA1 ====
Rage - The Video Link (The Refuge Years Box) [2015, Heavy Metal, DVD9]
(Power Metal, Heavy Metal) [CD] Gamma Ray | Helicon | Rage | Conception - The Power of Metal (Live) (Japanese edition) - 1994, FLAC (image+.cue), lossless

To download the file disable ad blocking, and reload the page.

disable adblock How to disable ad blocking?

Download by magnet link 46.39 GB Download Torrent

Login using:

Загрузка...

Similar topics

(Speed/Heavy/Power Metal) Rocka Rollas - Celtic Kings - 2018, MP3, 320 kbps
 110 MB   0 | 0   01-Apr-18 18:55   0


   
Current time is: 16-Dec 14:01 :: All times are UTC + 3