Ayreon / The Source (Earbook Edition)- Жанр: Progressive Metal/Rock
Носитель: CD
Страна-производитель диска (релиза): EU
Год издания: 2017
Страна исполнителя (группы): Netherlands
Аудиокодек: FLAC (*.flac)
Тип рипа: tracks+.cue
Битрейт аудио: lossless
Продолжительность: 44:10+44:31+44:10+44:31
Источник (релизер): Сеть
Наличие сканов в содержимом раздачи: нет

CD1

Треклист:01.The Day That The World Breaks Down (12:31)
02.Sea Of Machines (5:09)
02.The Dream Dissolves (6:12)
03.Everybody Dies (4:43)
04.Star Of Sirrah (7:04)
05.All That Was (3:36)
06.Run! Apocalypse! Run! (4:53)
07.Condemned To Live (6:14)

Лог создания рипа

Exact Audio Copy V1.3 from 2. September 2016
EAC extraction logfile from 20. April 2017, 11:34
Ayreon / The Source (CD1)
Used drive : ATAPI iHAS624 B Adapter: 1 ID: 1
Read mode : Secure
Utilize accurate stream : Yes
Defeat audio cache : Yes
Make use of C2 pointers : No
Read offset correction : 6
Overread into Lead-In and Lead-Out : No
Fill up missing offset samples with silence : Yes
Delete leading and trailing silent blocks : No
Null samples used in CRC calculations : Yes
Used interface : Native Win32 interface for Win NT & 2000
Gap handling : Appended to previous track
Used output format : User Defined Encoder
Selected bitrate : 896 kBit/s
Quality : High
Add ID3 tag : No
Command line compressor : C:\Program Files (x86)\Exact Audio Copy\Flac\flac.exe
Additional command line options : -8 -V -T "ARTIST=%artist%" -T "TITLE=%title%" -T "ALBUM=%albumtitle%" -T "DATE=%year%" -T "TRACKNUMBER=%tracknr%" -T "GENRE=%genre%" -T "PERFORMER=%albuminterpret%" -T "COMPOSER=%composer%" %haslyrics%--tag-from-file=LYRICS="%lyricsfile%"%haslyrics% -T "ALBUMARTIST=%albumartist%" -T "ALBUM ARTIST=%albumartist%" -T "DISCNUMBER=%cdnumber%" -T "TOTALDISCS=%totalcds%" -T "TOTALTRACKS=%numtracks%" -T "COMMENT=%comment%" %source% -o %dest%
TOC of the extracted CD
Track | Start | Length | Start sector | End sector
---------------------------------------------------------
1 | 0:00.00 | 12:30.52 | 0 | 56301
2 | 12:30.52 | 5:08.46 | 56302 | 79447
3 | 17:39.23 | 4:42.74 | 79448 | 100671
4 | 22:22.22 | 7:03.74 | 100672 | 132470
5 | 29:26.21 | 3:36.29 | 132471 | 148699
6 | 33:02.50 | 4:52.58 | 148700 | 170657
7 | 37:55.33 | 6:13.73 | 170658 | 198705
Track 1
Filename G:\RIPS\Ayreon - The Source (CD1) [FLAC] {2017}\01 Chronicle 1- The Frame - The Day That The World Breaks Down.wav
Pre-gap length 0:00:02.00
Peak level 97.7 %
Extraction speed 6.2 X
Track quality 100.0 %
Test CRC D9CE6682
Copy CRC D9CE6682
Track not present in AccurateRip database
Copy OK
Track 2
Filename G:\RIPS\Ayreon - The Source (CD1) [FLAC] {2017}\02 Chronicle 1- The Frame - Sea Of Machines.wav
Peak level 97.8 %
Extraction speed 7.0 X
Track quality 100.0 %
Test CRC 6E953B82
Copy CRC 6E953B82
Track not present in AccurateRip database
Copy OK
Track 3
Filename G:\RIPS\Ayreon - The Source (CD1) [FLAC] {2017}\03 Chronicle 1- The Frame - Everybody Dies.wav
Peak level 97.7 %
Extraction speed 7.5 X
Track quality 100.0 %
Test CRC A85B8E0D
Copy CRC A85B8E0D
Track not present in AccurateRip database
Copy OK
Track 4
Filename G:\RIPS\Ayreon - The Source (CD1) [FLAC] {2017}\04 Chronicle 2- The Aligning Of The Ten - Star Of Sirrah.wav
Peak level 97.8 %
Extraction speed 6.2 X
Track quality 99.9 %
Test CRC 083F7D97
Copy CRC 083F7D97
Track not present in AccurateRip database
Copy OK
Track 5
Filename G:\RIPS\Ayreon - The Source (CD1) [FLAC] {2017}\05 Chronicle 2- The Aligning Of The Ten - All That Was.wav
Peak level 97.7 %
Extraction speed 8.2 X
Track quality 100.0 %
Test CRC EDCE92B2
Copy CRC EDCE92B2
Track not present in AccurateRip database
Copy OK
Track 6
Filename G:\RIPS\Ayreon - The Source (CD1) [FLAC] {2017}\06 Chronicle 2- The Aligning Of The Ten - Run! Apocalypse! Run!.wav
Peak level 97.8 %
Extraction speed 7.4 X
Track quality 99.9 %
Test CRC F137468E
Copy CRC F137468E
Track not present in AccurateRip database
Copy OK
Track 7
Filename G:\RIPS\Ayreon - The Source (CD1) [FLAC] {2017}\07 Chronicle 2- The Aligning Of The Ten - Condemned To Live.wav
Peak level 97.6 %
Extraction speed 9.5 X
Track quality 100.0 %
Test CRC 7EF466BD
Copy CRC 7EF466BD
Track not present in AccurateRip database
Copy OK
None of the tracks are present in the AccurateRip database
No errors occurred
End of status report
---- CUETools DB Plugin V2.1.6
[CTDB TOCID: 0Sr.Qpsrj1SOuLaG9N.dTHORNNM-] found
Submit result: 0Sr.Qpsrj1SOuLaG9N.dTHORNNM- has been confirmed
Track | CTDB Status
1 | (26/29) Accurately ripped
2 | (25/29) Accurately ripped
3 | (26/29) Accurately ripped
4 | (26/29) Accurately ripped
5 | (26/29) Accurately ripped
6 | (26/29) Accurately ripped
7 | (26/29) Accurately ripped
==== Log checksum BACD3D597D370A57F55EA8D84EB2AC031A7069961BC6461EE5F97FF76EA37AD5 ====

Содержание индексной карты (.CUE)

REM GENRE "Progressive Metal"
REM DATE 2017
REM DISCID 620A5907
REM COMMENT "ExactAudioCopy v1.3"
CATALOG 0819873014546
PERFORMER "Ayreon"
TITLE "The Source (CD1)"
REM COMPOSER ""
FILE "Ayreon - The Source (CD1) [FLAC] {2017}\01 Chronicle 1- The Frame - The Day That The World Breaks Down.wav" WAVE
TRACK 01 AUDIO
TITLE "Chronicle 1: The Frame - The Day That The World Breaks Down"
PERFORMER "Ayreon"
REM COMPOSER ""
ISRC NLB931700601
INDEX 01 00:00:00
FILE "Ayreon - The Source (CD1) [FLAC] {2017}\02 Chronicle 1- The Frame - Sea Of Machines.wav" WAVE
TRACK 02 AUDIO
TITLE "Chronicle 1: The Frame - Sea Of Machines"
PERFORMER "Ayreon"
REM COMPOSER ""
ISRC NLB931700602
INDEX 01 00:00:00
FILE "Ayreon - The Source (CD1) [FLAC] {2017}\03 Chronicle 1- The Frame - Everybody Dies.wav" WAVE
TRACK 03 AUDIO
TITLE "Chronicle 1: The Frame - Everybody Dies"
PERFORMER "Ayreon"
REM COMPOSER ""
ISRC NLB931700603
INDEX 01 00:00:00
FILE "Ayreon - The Source (CD1) [FLAC] {2017}\04 Chronicle 2- The Aligning Of The Ten - Star Of Sirrah.wav" WAVE
TRACK 04 AUDIO
TITLE "Chronicle 2: The Aligning Of The Ten - Star Of Sirrah"
PERFORMER "Ayreon"
REM COMPOSER ""
ISRC NLB931700604
INDEX 01 00:00:00
FILE "Ayreon - The Source (CD1) [FLAC] {2017}\05 Chronicle 2- The Aligning Of The Ten - All That Was.wav" WAVE
TRACK 05 AUDIO
TITLE "Chronicle 2: The Aligning Of The Ten - All That Was"
PERFORMER "Ayreon"
REM COMPOSER ""
ISRC NLB931700605
INDEX 01 00:00:00
FILE "Ayreon - The Source (CD1) [FLAC] {2017}\06 Chronicle 2- The Aligning Of The Ten - Run! Apocalypse! Run!.wav" WAVE
TRACK 06 AUDIO
TITLE "Chronicle 2: The Aligning Of The Ten - Run! Apocalypse! Run!"
PERFORMER "Ayreon"
REM COMPOSER ""
ISRC NLB931700606
INDEX 01 00:00:00
FILE "Ayreon - The Source (CD1) [FLAC] {2017}\07 Chronicle 2- The Aligning Of The Ten - Condemned To Live.wav" WAVE
TRACK 07 AUDIO
TITLE "Chronicle 2: The Aligning Of The Ten - Condemned To Live"
PERFORMER "Ayreon"
REM COMPOSER ""
ISRC NLB931700607
INDEX 01 00:00:00

CUETools log

[Date: 21.04.2017 13:27:53; Version: 2.1.6]
[CTDB TOCID: 0Sr.Qpsrj1SOuLaG9N.dTHORNNM-] found.
Track | CTDB Status
1 | (37/43) Accurately ripped
2 | (36/43) Accurately ripped
3 | (37/43) Accurately ripped
4 | (37/43) Accurately ripped
5 | (37/43) Accurately ripped
6 | (37/43) Accurately ripped
7 | (37/43) Accurately ripped
[AccurateRip ID: 000d88ad-004db45e-620a5907] disk not present in database.
Track Peak [ CRC32 ] [W/O NULL] [ LOG ]
-- 97,8 [64B5437D] [53D43763]
01 97,7 [D9CE6682] [59683782] CRC32
02 97,8 [6E953B82] [93289F30] CRC32
03 97,7 [A85B8E0D] [F67637FC] CRC32
04 97,8 [083F7D97] [5184EFBD] CRC32
05 97,7 [EDCE92B2] [83AE8D2B] CRC32
06 97,8 [F137468E] [8EA0C957] CRC32
07 97,6 [7EF466BD] [67CBED8C] CRC32

CD2

Треклист:01.Aquatic Race (6:45)
03.Deathcry Of A Race (4:44)
04.Into The Ocean (4:53)
05.Bay Of Dreams (4:25)
06.Planet Y Is Alive! (6:03)
07.The Source Will Flow (4:14)
08.Journey To Forever (3:20)
09.The Human Compulsion (2:15)
10.March Of The Machines (1:40)

Лог создания рипа

Exact Audio Copy V1.3 from 2. September 2016
EAC extraction logfile from 20. April 2017, 12:15
Ayreon / The Source (CD2)
Used drive : ATAPI iHOS104 Adapter: 1 ID: 0
Read mode : Secure
Utilize accurate stream : Yes
Defeat audio cache : Yes
Make use of C2 pointers : No
Read offset correction : 696
Overread into Lead-In and Lead-Out : No
Fill up missing offset samples with silence : Yes
Delete leading and trailing silent blocks : No
Null samples used in CRC calculations : Yes
Used interface : Native Win32 interface for Win NT & 2000
Gap handling : Appended to previous track
Used output format : User Defined Encoder
Selected bitrate : 896 kBit/s
Quality : High
Add ID3 tag : No
Command line compressor : C:\Program Files (x86)\Exact Audio Copy\Flac\flac.exe
Additional command line options : -8 -V -T "ARTIST=%artist%" -T "TITLE=%title%" -T "ALBUM=%albumtitle%" -T "DATE=%year%" -T "TRACKNUMBER=%tracknr%" -T "GENRE=%genre%" -T "PERFORMER=%albuminterpret%" -T "COMPOSER=%composer%" %haslyrics%--tag-from-file=LYRICS="%lyricsfile%"%haslyrics% -T "ALBUMARTIST=%albumartist%" -T "ALBUM ARTIST=%albumartist%" -T "DISCNUMBER=%cdnumber%" -T "TOTALDISCS=%totalcds%" -T "TOTALTRACKS=%numtracks%" -T "COMMENT=%comment%" %source% -o %dest%
TOC of the extracted CD
Track | Start | Length | Start sector | End sector
---------------------------------------------------------
1 | 0:00.00 | 6:44.51 | 0 | 30350
2 | 6:44.51 | 6:11.69 | 30351 | 58244
3 | 12:56.45 | 4:43.45 | 58245 | 79514
4 | 17:40.15 | 4:53.30 | 79515 | 101519
5 | 22:33.45 | 4:24.57 | 101520 | 121376
6 | 26:58.27 | 6:02.48 | 121377 | 148574
7 | 33:01.00 | 4:13.60 | 148575 | 167609
8 | 37:14.60 | 3:20.20 | 167610 | 182629
9 | 40:35.05 | 2:15.28 | 182630 | 192782
10 | 42:50.33 | 1:39.70 | 192783 | 200277
Track 1
Filename G:\RIPS\Ayreon - The Source (CD2) [FLAC] {2017}\01 Aquatic Race.wav
Pre-gap length 0:00:02.00
Peak level 97.7 %
Extraction speed 1.1 X
Track quality 99.9 %
Test CRC 16BE2BB9
Copy CRC 16BE2BB9
Track not present in AccurateRip database
Copy OK
Track 2
Filename G:\RIPS\Ayreon - The Source (CD2) [FLAC] {2017}\02 The Dream Dissolves.wav
Peak level 97.8 %
Extraction speed 1.5 X
Track quality 100.0 %
Test CRC F164349E
Copy CRC F164349E
Track not present in AccurateRip database
Copy OK
Track 3
Filename G:\RIPS\Ayreon - The Source (CD2) [FLAC] {2017}\03 Deathcry Of A Race.wav
Peak level 97.7 %
Extraction speed 1.6 X
Track quality 100.0 %
Test CRC F969FE29
Copy CRC F969FE29
Track not present in AccurateRip database
Copy OK
Track 4
Filename G:\RIPS\Ayreon - The Source (CD2) [FLAC] {2017}\04 Into The Ocean.wav
Peak level 97.7 %
Extraction speed 1.7 X
Track quality 100.0 %
Test CRC 97F4B425
Copy CRC 97F4B425
Track not present in AccurateRip database
Copy OK
Track 5
Filename G:\RIPS\Ayreon - The Source (CD2) [FLAC] {2017}\05 Bay Of Dreams.wav
Peak level 97.7 %
Extraction speed 1.8 X
Track quality 100.0 %
Test CRC DF57E39C
Copy CRC DF57E39C
Track not present in AccurateRip database
Copy OK
Track 6
Filename G:\RIPS\Ayreon - The Source (CD2) [FLAC] {2017}\06 Planet Y Is Alive!.wav
Peak level 97.7 %
Extraction speed 2.0 X
Track quality 100.0 %
Test CRC 3627790E
Copy CRC 3627790E
Track not present in AccurateRip database
Copy OK
Track 7
Filename G:\RIPS\Ayreon - The Source (CD2) [FLAC] {2017}\07 The Source Will Flow.wav
Peak level 97.6 %
Extraction speed 2.0 X
Track quality 100.0 %
Test CRC E47F0D16
Copy CRC E47F0D16
Track not present in AccurateRip database
Copy OK
Track 8
Filename G:\RIPS\Ayreon - The Source (CD2) [FLAC] {2017}\08 Journey To Forever.wav
Peak level 97.7 %
Extraction speed 2.0 X
Track quality 100.0 %
Test CRC C6CFA04A
Copy CRC C6CFA04A
Track not present in AccurateRip database
Copy OK
Track 9
Filename G:\RIPS\Ayreon - The Source (CD2) [FLAC] {2017}\09 The Human Compulsion.wav
Peak level 97.7 %
Extraction speed 1.9 X
Track quality 100.0 %
Test CRC 48B415D3
Copy CRC 48B415D3
Track not present in AccurateRip database
Copy OK
Track 10
Filename G:\RIPS\Ayreon - The Source (CD2) [FLAC] {2017}\10 March Of The Machines.wav
Peak level 97.8 %
Extraction speed 1.0 X
Track quality 99.8 %
Test CRC B64F146C
Copy CRC B64F146C
Track not present in AccurateRip database
Copy OK
None of the tracks are present in the AccurateRip database
No errors occurred
End of status report
---- CUETools DB Plugin V2.1.6
[CTDB TOCID: p2uTfQcFRdBzgyIZwwfE.UPRccE-] found
Submit result: p2uTfQcFRdBzgyIZwwfE.UPRccE- has been confirmed
Track | CTDB Status
1 | (25/29) Accurately ripped
2 | (25/29) Accurately ripped
3 | (25/29) Accurately ripped
4 | (25/29) Accurately ripped
5 | (25/29) Accurately ripped
6 | (25/29) Accurately ripped
7 | (24/29) Accurately ripped
8 | (24/29) Accurately ripped
9 | (24/29) Accurately ripped
10 | (21/29) Accurately ripped, or (1/29) differs in 34 samples @00:51:08, or (2/29) differs in 19945 samples @00:15:20-00:15:49
==== Log checksum E57EAC7669E5A7689DBAFB9D2E8E540C995BFC798B73F90D92FE4409D37FCD6D ====

Содержание индексной карты (.CUE)

REM GENRE "Progressive Metal"
REM DATE 2017
REM DISCID 840A6E0A
REM COMMENT "ExactAudioCopy v1.3"
CATALOG 0819873014546
PERFORMER "Ayreon"
TITLE "The Source (CD2)"
REM COMPOSER ""
FILE "Ayreon - The Source (CD2) [FLAC] {2017}\01 Aquatic Race.wav" WAVE
TRACK 01 AUDIO
TITLE "Aquatic Race"
PERFORMER "Ayreon"
REM COMPOSER ""
ISRC NLB931700608
INDEX 01 00:00:00
FILE "Ayreon - The Source (CD2) [FLAC] {2017}\02 The Dream Dissolves.wav" WAVE
TRACK 02 AUDIO
TITLE "The Dream Dissolves"
PERFORMER "Ayreon"
REM COMPOSER ""
ISRC NLB931700609
INDEX 01 00:00:00
FILE "Ayreon - The Source (CD2) [FLAC] {2017}\03 Deathcry Of A Race.wav" WAVE
TRACK 03 AUDIO
TITLE "Deathcry Of A Race"
PERFORMER "Ayreon"
REM COMPOSER ""
ISRC NLB931700610
INDEX 01 00:00:00
FILE "Ayreon - The Source (CD2) [FLAC] {2017}\04 Into The Ocean.wav" WAVE
TRACK 04 AUDIO
TITLE "Into The Ocean"
PERFORMER "Ayreon"
REM COMPOSER ""
ISRC NLB931700611
INDEX 01 00:00:00
FILE "Ayreon - The Source (CD2) [FLAC] {2017}\05 Bay Of Dreams.wav" WAVE
TRACK 05 AUDIO
TITLE "Bay Of Dreams"
PERFORMER "Ayreon"
REM COMPOSER ""
ISRC NLB931700612
INDEX 01 00:00:00
FILE "Ayreon - The Source (CD2) [FLAC] {2017}\06 Planet Y Is Alive!.wav" WAVE
TRACK 06 AUDIO
TITLE "Planet Y Is Alive!"
PERFORMER "Ayreon"
REM COMPOSER ""
ISRC NLB931700613
INDEX 01 00:00:00
FILE "Ayreon - The Source (CD2) [FLAC] {2017}\07 The Source Will Flow.wav" WAVE
TRACK 07 AUDIO
TITLE "The Source Will Flow"
PERFORMER "Ayreon"
REM COMPOSER ""
ISRC NLB931700614
INDEX 01 00:00:00
FILE "Ayreon - The Source (CD2) [FLAC] {2017}\08 Journey To Forever.wav" WAVE
TRACK 08 AUDIO
TITLE "Journey To Forever"
PERFORMER "Ayreon"
REM COMPOSER ""
ISRC NLB931700615
INDEX 01 00:00:00
FILE "Ayreon - The Source (CD2) [FLAC] {2017}\09 The Human Compulsion.wav" WAVE
TRACK 09 AUDIO
TITLE "The Human Compulsion"
PERFORMER "Ayreon"
REM COMPOSER ""
ISRC NLB931700616
INDEX 01 00:00:00
FILE "Ayreon - The Source (CD2) [FLAC] {2017}\10 March Of The Machines.wav" WAVE
TRACK 10 AUDIO
TITLE "March Of The Machines"
PERFORMER "Ayreon"
REM COMPOSER ""
ISRC NLB931700617
INDEX 01 00:00:00

CUETools log

[Date: 21.04.2017 13:28:15; Version: 2.1.6]
[CTDB TOCID: p2uTfQcFRdBzgyIZwwfE.UPRccE-] found.
Track | CTDB Status
1 | (35/41) Accurately ripped
2 | (35/41) Accurately ripped
3 | (35/41) Accurately ripped
4 | (35/41) Accurately ripped
5 | (35/41) Accurately ripped
6 | (35/41) Accurately ripped
7 | (33/41) Accurately ripped
8 | (34/41) Accurately ripped
9 | (34/41) Accurately ripped
10 | (31/41) Accurately ripped, or (1/41) differs in 34 samples @00:51:08, or (2/41) differs in 19945 samples @00:15:20-00:15:49
[AccurateRip ID: 00139344-0097bef7-840a6e0a] disk not present in database.
Track Peak [ CRC32 ] [W/O NULL] [ LOG ]
-- 97,8 [DF40C50D] [6C13189D]
01 97,7 [16BE2BB9] [00367982] CRC32
02 97,8 [F164349E] [7B2B6AEC] CRC32
03 97,7 [F969FE29] [CEF9C70B] CRC32
04 97,7 [97F4B425] [C02ACE18] CRC32
05 97,7 [DF57E39C] [B1FF6EC3] CRC32
06 97,7 [3627790E] [A6E140D8] CRC32
07 97,6 [E47F0D16] [7DDDCE23] CRC32
08 97,7 [C6CFA04A] [1127D1CE] CRC32
09 97,7 [48B415D3] [20F9CBEB] CRC32
10 97,8 [B64F146C] [F3D0A8DF] CRC32

CD3: Instrumental

Треклист:01.The Day That The World Breaks Down (12:31)
02.Sea Of Machines (5:09)
03.Everybody Dies (4:43)
04.Star Of Sirrah (7:04)
05.All That Was (3:36)
06.Run! Apocalypse! Run! (4:53)
07.Condemned To Live (6:14)

Лог создания рипа

Exact Audio Copy V1.3 from 2. September 2016
EAC extraction logfile from 20. April 2017, 11:54
Ayreon / The Source (CD3)
Used drive : ATAPI iHAS624 B Adapter: 1 ID: 1
Read mode : Secure
Utilize accurate stream : Yes
Defeat audio cache : Yes
Make use of C2 pointers : No
Read offset correction : 6
Overread into Lead-In and Lead-Out : No
Fill up missing offset samples with silence : Yes
Delete leading and trailing silent blocks : No
Null samples used in CRC calculations : Yes
Used interface : Native Win32 interface for Win NT & 2000
Gap handling : Appended to previous track
Used output format : User Defined Encoder
Selected bitrate : 896 kBit/s
Quality : High
Add ID3 tag : No
Command line compressor : C:\Program Files (x86)\Exact Audio Copy\Flac\flac.exe
Additional command line options : -8 -V -T "ARTIST=%artist%" -T "TITLE=%title%" -T "ALBUM=%albumtitle%" -T "DATE=%year%" -T "TRACKNUMBER=%tracknr%" -T "GENRE=%genre%" -T "PERFORMER=%albuminterpret%" -T "COMPOSER=%composer%" %haslyrics%--tag-from-file=LYRICS="%lyricsfile%"%haslyrics% -T "ALBUMARTIST=%albumartist%" -T "ALBUM ARTIST=%albumartist%" -T "DISCNUMBER=%cdnumber%" -T "TOTALDISCS=%totalcds%" -T "TOTALTRACKS=%numtracks%" -T "COMMENT=%comment%" %source% -o %dest%
TOC of the extracted CD
Track | Start | Length | Start sector | End sector
---------------------------------------------------------
1 | 0:00.00 | 12:30.52 | 0 | 56301
2 | 12:30.52 | 5:08.46 | 56302 | 79447
3 | 17:39.23 | 4:42.74 | 79448 | 100671
4 | 22:22.22 | 7:03.74 | 100672 | 132470
5 | 29:26.21 | 3:36.29 | 132471 | 148699
6 | 33:02.50 | 4:52.58 | 148700 | 170657
7 | 37:55.33 | 6:13.73 | 170658 | 198705
Track 1
Filename G:\RIPS\Ayreon - The Source (CD3) [FLAC] {2017}\01 Chronicle 1- The Frame - The Day That The World Breaks Down.wav
Pre-gap length 0:00:02.00
Peak level 97.7 %
Extraction speed 4.3 X
Track quality 100.0 %
Test CRC C712A3DA
Copy CRC C712A3DA
Track not present in AccurateRip database
Copy OK
Track 2
Filename G:\RIPS\Ayreon - The Source (CD3) [FLAC] {2017}\02 Chronicle 1- The Frame - Sea Of Machines.wav
Peak level 97.7 %
Extraction speed 4.8 X
Track quality 100.0 %
Test CRC 1207747C
Copy CRC 1207747C
Track not present in AccurateRip database
Copy OK
Track 3
Filename G:\RIPS\Ayreon - The Source (CD3) [FLAC] {2017}\03 Chronicle 1- The Frame - Everybody Dies.wav
Peak level 97.7 %
Extraction speed 5.1 X
Track quality 100.0 %
Test CRC 21AB8A3B
Copy CRC 21AB8A3B
Track not present in AccurateRip database
Copy OK
Track 4
Filename G:\RIPS\Ayreon - The Source (CD3) [FLAC] {2017}\04 Chronicle 2- The Aligning Of The Ten - Star Of Sirrah.wav
Peak level 97.7 %
Extraction speed 4.9 X
Track quality 99.9 %
Test CRC 419CEAEF
Copy CRC 419CEAEF
Track not present in AccurateRip database
Copy OK
Track 5
Filename G:\RIPS\Ayreon - The Source (CD3) [FLAC] {2017}\05 Chronicle 2- The Aligning Of The Ten - All That Was.wav
Peak level 97.6 %
Extraction speed 5.6 X
Track quality 100.0 %
Test CRC F496A335
Copy CRC F496A335
Track not present in AccurateRip database
Copy OK
Track 6
Filename G:\RIPS\Ayreon - The Source (CD3) [FLAC] {2017}\06 Chronicle 2- The Aligning Of The Ten - Run! Apocalypse! Run!.wav
Peak level 97.8 %
Extraction speed 4.9 X
Track quality 99.9 %
Test CRC 30227B6E
Copy CRC 30227B6E
Track not present in AccurateRip database
Copy OK
Track 7
Filename G:\RIPS\Ayreon - The Source (CD3) [FLAC] {2017}\07 Chronicle 2- The Aligning Of The Ten - Condemned To Live.wav
Peak level 97.7 %
Extraction speed 6.5 X
Track quality 100.0 %
Test CRC A70D5C8E
Copy CRC A70D5C8E
Track not present in AccurateRip database
Copy OK
None of the tracks are present in the AccurateRip database
No errors occurred
End of status report
---- CUETools DB Plugin V2.1.6
[CTDB TOCID: 0Sr.Qpsrj1SOuLaG9N.dTHORNNM-] found
Submit result: 0Sr.Qpsrj1SOuLaG9N.dTHORNNM- has been confirmed
Track | CTDB Status
1 | ( 3/30) Accurately ripped
2 | ( 3/30) Accurately ripped
3 | ( 3/30) Accurately ripped
4 | ( 3/30) Accurately ripped
5 | ( 3/30) Accurately ripped
6 | ( 3/30) Accurately ripped
7 | ( 3/30) Accurately ripped
==== Log checksum C10ACD5C21439BFC3DAA69464D57FBF7C57E38EE7B0C7A00AB01C1C010D7832C ====

Содержание индексной карты (.CUE)

REM GENRE "Progressive Metal"
REM DATE 2017
REM DISCID 620A5907
REM COMMENT "ExactAudioCopy v1.3"
CATALOG 0819873014560
PERFORMER "Ayreon"
TITLE "The Source (CD3)"
REM COMPOSER ""
FILE "Ayreon - The Source (CD3) [FLAC] {2017}\01 Chronicle 1- The Frame - The Day That The World Breaks Down.wav" WAVE
TRACK 01 AUDIO
TITLE "Chronicle 1: The Frame - The Day That The World Breaks Down"
PERFORMER "Ayreon"
REM COMPOSER ""
ISRC NLB931700635
INDEX 01 00:00:00
FILE "Ayreon - The Source (CD3) [FLAC] {2017}\02 Chronicle 1- The Frame - Sea Of Machines.wav" WAVE
TRACK 02 AUDIO
TITLE "Chronicle 1: The Frame - Sea Of Machines"
PERFORMER "Ayreon"
REM COMPOSER ""
ISRC NLB931700636
INDEX 01 00:00:00
FILE "Ayreon - The Source (CD3) [FLAC] {2017}\03 Chronicle 1- The Frame - Everybody Dies.wav" WAVE
TRACK 03 AUDIO
TITLE "Chronicle 1: The Frame - Everybody Dies"
PERFORMER "Ayreon"
REM COMPOSER ""
ISRC NLB931700637
INDEX 01 00:00:00
FILE "Ayreon - The Source (CD3) [FLAC] {2017}\04 Chronicle 2- The Aligning Of The Ten - Star Of Sirrah.wav" WAVE
TRACK 04 AUDIO
TITLE "Chronicle 2: The Aligning Of The Ten - Star Of Sirrah"
PERFORMER "Ayreon"
REM COMPOSER ""
ISRC NLB931700638
INDEX 01 00:00:00
FILE "Ayreon - The Source (CD3) [FLAC] {2017}\05 Chronicle 2- The Aligning Of The Ten - All That Was.wav" WAVE
TRACK 05 AUDIO
TITLE "Chronicle 2: The Aligning Of The Ten - All That Was"
PERFORMER "Ayreon"
REM COMPOSER ""
ISRC NLB931700639
INDEX 01 00:00:00
FILE "Ayreon - The Source (CD3) [FLAC] {2017}\06 Chronicle 2- The Aligning Of The Ten - Run! Apocalypse! Run!.wav" WAVE
TRACK 06 AUDIO
TITLE "Chronicle 2: The Aligning Of The Ten - Run! Apocalypse! Run!"
PERFORMER "Ayreon"
REM COMPOSER ""
ISRC NLB931700640
INDEX 01 00:00:00
FILE "Ayreon - The Source (CD3) [FLAC] {2017}\07 Chronicle 2- The Aligning Of The Ten - Condemned To Live.wav" WAVE
TRACK 07 AUDIO
TITLE "Chronicle 2: The Aligning Of The Ten - Condemned To Live"
PERFORMER "Ayreon"
REM COMPOSER ""
ISRC NLB931700641
INDEX 01 00:00:00

CUETools log

[Date: 21.04.2017 13:31:52; Version: 2.1.6]
[CTDB TOCID: 0Sr.Qpsrj1SOuLaG9N.dTHORNNM-] found.
Track | CTDB Status
1 | ( 6/43) Accurately ripped
2 | ( 6/43) Accurately ripped
3 | ( 6/43) Accurately ripped
4 | ( 6/43) Accurately ripped
5 | ( 6/43) Accurately ripped
6 | ( 6/43) Accurately ripped
7 | ( 6/43) Accurately ripped
[AccurateRip ID: 000d88ad-004db45e-620a5907] disk not present in database.
Track Peak [ CRC32 ] [W/O NULL] [ LOG ]
-- 97,8 [DE0EF097] [89AB4E38]
01 97,7 [C712A3DA] [8F34E1EB] CRC32
02 97,7 [1207747C] [7AC6083C] CRC32
03 97,7 [21AB8A3B] [31ED5C59] CRC32
04 97,7 [419CEAEF] [3DB860D5] CRC32
05 97,6 [F496A335] [51338439] CRC32
06 97,8 [30227B6E] [C12AFA8D] CRC32
07 97,7 [A70D5C8E] [29AB23A7] CRC32

CD4: Instrumental

Треклист:01.Aquatic Race (6:45)
02.The Dream Dissolves (6:12)
03.Deathcry Of A Race (4:44)
04.Into The Ocean (4:53)
05.Bay Of Dreams (4:25)
06.Planet Y Is Alive! (6:03)
07.The Source Will Flow (4:14)
08.Journey To Forever (3:20)
09.The Human Compulsion (2:15)
10.March Of The Machines (1:40)

Лог создания рипа

Exact Audio Copy V1.3 from 2. September 2016
EAC extraction logfile from 20. April 2017, 12:14
Ayreon / The Source (CD4)
Used drive : ATAPI iHAS624 B Adapter: 1 ID: 1
Read mode : Secure
Utilize accurate stream : Yes
Defeat audio cache : Yes
Make use of C2 pointers : No
Read offset correction : 6
Overread into Lead-In and Lead-Out : No
Fill up missing offset samples with silence : Yes
Delete leading and trailing silent blocks : No
Null samples used in CRC calculations : Yes
Used interface : Native Win32 interface for Win NT & 2000
Gap handling : Appended to previous track
Used output format : User Defined Encoder
Selected bitrate : 896 kBit/s
Quality : High
Add ID3 tag : No
Command line compressor : C:\Program Files (x86)\Exact Audio Copy\Flac\flac.exe
Additional command line options : -8 -V -T "ARTIST=%artist%" -T "TITLE=%title%" -T "ALBUM=%albumtitle%" -T "DATE=%year%" -T "TRACKNUMBER=%tracknr%" -T "GENRE=%genre%" -T "PERFORMER=%albuminterpret%" -T "COMPOSER=%composer%" %haslyrics%--tag-from-file=LYRICS="%lyricsfile%"%haslyrics% -T "ALBUMARTIST=%albumartist%" -T "ALBUM ARTIST=%albumartist%" -T "DISCNUMBER=%cdnumber%" -T "TOTALDISCS=%totalcds%" -T "TOTALTRACKS=%numtracks%" -T "COMMENT=%comment%" %source% -o %dest%
TOC of the extracted CD
Track | Start | Length | Start sector | End sector
---------------------------------------------------------
1 | 0:00.00 | 6:44.51 | 0 | 30350
2 | 6:44.51 | 6:11.69 | 30351 | 58244
3 | 12:56.45 | 4:43.45 | 58245 | 79514
4 | 17:40.15 | 4:53.30 | 79515 | 101519
5 | 22:33.45 | 4:24.57 | 101520 | 121376
6 | 26:58.27 | 6:02.48 | 121377 | 148574
7 | 33:01.00 | 4:13.60 | 148575 | 167609
8 | 37:14.60 | 3:20.20 | 167610 | 182629
9 | 40:35.05 | 2:15.28 | 182630 | 192782
10 | 42:50.33 | 1:39.70 | 192783 | 200277
Track 1
Filename G:\RIPS\Ayreon - The Source (CD4) [FLAC] {2017}\01 Aquatic Race.wav
Pre-gap length 0:00:02.00
Peak level 97.8 %
Extraction speed 3.4 X
Track quality 99.9 %
Test CRC 723E65C3
Copy CRC 723E65C3
Track not present in AccurateRip database
Copy OK
Track 2
Filename G:\RIPS\Ayreon - The Source (CD4) [FLAC] {2017}\02 The Dream Dissolves.wav
Peak level 97.7 %
Extraction speed 4.5 X
Track quality 100.0 %
Test CRC 9C22DA9B
Copy CRC 9C22DA9B
Track not present in AccurateRip database
Copy OK
Track 3
Filename G:\RIPS\Ayreon - The Source (CD4) [FLAC] {2017}\03 Deathcry Of A Race.wav
Peak level 97.7 %
Extraction speed 4.7 X
Track quality 100.0 %
Test CRC 6B440E5B
Copy CRC 6B440E5B
Track not present in AccurateRip database
Copy OK
Track 4
Filename G:\RIPS\Ayreon - The Source (CD4) [FLAC] {2017}\04 Into The Ocean.wav
Peak level 97.6 %
Extraction speed 5.1 X
Track quality 100.0 %
Test CRC D10B32E9
Copy CRC D10B32E9
Track not present in AccurateRip database
Copy OK
Track 5
Filename G:\RIPS\Ayreon - The Source (CD4) [FLAC] {2017}\05 Bay Of Dreams.wav
Peak level 97.7 %
Extraction speed 5.4 X
Track quality 100.0 %
Test CRC 3986F85A
Copy CRC 3986F85A
Track not present in AccurateRip database
Copy OK
Track 6
Filename G:\RIPS\Ayreon - The Source (CD4) [FLAC] {2017}\06 Planet Y Is Alive!.wav
Peak level 97.7 %
Extraction speed 5.9 X
Track quality 100.0 %
Test CRC 8007CF9A
Copy CRC 8007CF9A
Track not present in AccurateRip database
Copy OK
Track 7
Filename G:\RIPS\Ayreon - The Source (CD4) [FLAC] {2017}\07 The Source Will Flow.wav
Peak level 97.6 %
Extraction speed 5.9 X
Track quality 100.0 %
Test CRC 0E213CA4
Copy CRC 0E213CA4
Track not present in AccurateRip database
Copy OK
Track 8
Filename G:\RIPS\Ayreon - The Source (CD4) [FLAC] {2017}\08 Journey To Forever.wav
Peak level 97.7 %
Extraction speed 5.9 X
Track quality 100.0 %
Test CRC F3201D38
Copy CRC F3201D38
Track not present in AccurateRip database
Copy OK
Track 9
Filename G:\RIPS\Ayreon - The Source (CD4) [FLAC] {2017}\09 The Human Compulsion.wav
Peak level 97.6 %
Extraction speed 5.6 X
Track quality 100.0 %
Test CRC 30E2128A
Copy CRC 30E2128A
Track not present in AccurateRip database
Copy OK
Track 10
Filename G:\RIPS\Ayreon - The Source (CD4) [FLAC] {2017}\10 March Of The Machines.wav
Peak level 97.7 %
Extraction speed 3.5 X
Track quality 99.8 %
Test CRC F003CA7E
Copy CRC F003CA7E
Track not present in AccurateRip database
Copy OK
None of the tracks are present in the AccurateRip database
No errors occurred
End of status report
---- CUETools DB Plugin V2.1.6
[CTDB TOCID: p2uTfQcFRdBzgyIZwwfE.UPRccE-] found
Submit result: p2uTfQcFRdBzgyIZwwfE.UPRccE- has been confirmed
Track | CTDB Status
1 | ( 3/28) Accurately ripped
2 | ( 3/28) Accurately ripped
3 | ( 3/28) Accurately ripped
4 | ( 3/28) Accurately ripped
5 | ( 3/28) Accurately ripped
6 | ( 3/28) Accurately ripped
7 | ( 3/28) Accurately ripped
8 | ( 3/28) Accurately ripped
9 | ( 3/28) Accurately ripped
10 | ( 3/28) Accurately ripped
==== Log checksum 0C762094BDA84F9DC7DC0CC0ADFBE0C79F2ECE07580FA7A58AEB989924CE71E8 ====

Содержание индексной карты (.CUE)

REM GENRE "Progressive Metal"
REM DATE 2017
REM DISCID 840A6E0A
REM COMMENT "ExactAudioCopy v1.3"
CATALOG 0819873014560
PERFORMER "Ayreon"
TITLE "The Source (CD4)"
REM COMPOSER ""
FILE "Ayreon - The Source (CD4) [FLAC] {2017}\01 Aquatic Race.wav" WAVE
TRACK 01 AUDIO
TITLE "Aquatic Race"
PERFORMER "Ayreon"
REM COMPOSER ""
ISRC NLB931700642
INDEX 01 00:00:00
FILE "Ayreon - The Source (CD4) [FLAC] {2017}\02 The Dream Dissolves.wav" WAVE
TRACK 02 AUDIO
TITLE "The Dream Dissolves"
PERFORMER "Ayreon"
REM COMPOSER ""
ISRC NLB931700643
INDEX 01 00:00:00
FILE "Ayreon - The Source (CD4) [FLAC] {2017}\03 Deathcry Of A Race.wav" WAVE
TRACK 03 AUDIO
TITLE "Deathcry Of A Race"
PERFORMER "Ayreon"
REM COMPOSER ""
ISRC NLB931700644
INDEX 01 00:00:00
FILE "Ayreon - The Source (CD4) [FLAC] {2017}\04 Into The Ocean.wav" WAVE
TRACK 04 AUDIO
TITLE "Into The Ocean"
PERFORMER "Ayreon"
REM COMPOSER ""
ISRC NLB931700645
INDEX 01 00:00:00
FILE "Ayreon - The Source (CD4) [FLAC] {2017}\05 Bay Of Dreams.wav" WAVE
TRACK 05 AUDIO
TITLE "Bay Of Dreams"
PERFORMER "Ayreon"
REM COMPOSER ""
ISRC NLB931700646
INDEX 01 00:00:00
FILE "Ayreon - The Source (CD4) [FLAC] {2017}\06 Planet Y Is Alive!.wav" WAVE
TRACK 06 AUDIO
TITLE "Planet Y Is Alive!"
PERFORMER "Ayreon"
REM COMPOSER ""
ISRC NLB931700647
INDEX 01 00:00:00
FILE "Ayreon - The Source (CD4) [FLAC] {2017}\07 The Source Will Flow.wav" WAVE
TRACK 07 AUDIO
TITLE "The Source Will Flow"
PERFORMER "Ayreon"
REM COMPOSER ""
ISRC NLB931700648
INDEX 01 00:00:00
FILE "Ayreon - The Source (CD4) [FLAC] {2017}\08 Journey To Forever.wav" WAVE
TRACK 08 AUDIO
TITLE "Journey To Forever"
PERFORMER "Ayreon"
REM COMPOSER ""
ISRC NLB931700649
INDEX 01 00:00:00
FILE "Ayreon - The Source (CD4) [FLAC] {2017}\09 The Human Compulsion.wav" WAVE
TRACK 09 AUDIO
TITLE "The Human Compulsion"
PERFORMER "Ayreon"
REM COMPOSER ""
ISRC NLB931700650
INDEX 01 00:00:00
FILE "Ayreon - The Source (CD4) [FLAC] {2017}\10 March Of The Machines.wav" WAVE
TRACK 10 AUDIO
TITLE "March Of The Machines"
PERFORMER "Ayreon"
REM COMPOSER ""
ISRC NLB931700651
INDEX 01 00:00:00

CUETools log

[Date: 21.04.2017 13:32:18; Version: 2.1.6]
[CTDB TOCID: p2uTfQcFRdBzgyIZwwfE.UPRccE-] found.
Track | CTDB Status
1 | ( 6/41) Accurately ripped
2 | ( 6/41) Accurately ripped
3 | ( 6/41) Accurately ripped
4 | ( 6/41) Accurately ripped
5 | ( 6/41) Accurately ripped
6 | ( 6/41) Accurately ripped
7 | ( 6/41) Accurately ripped
8 | ( 6/41) Accurately ripped
9 | ( 6/41) Accurately ripped
10 | ( 6/41) Accurately ripped
[AccurateRip ID: 00139344-0097bef7-840a6e0a] disk not present in database.
Track Peak [ CRC32 ] [W/O NULL] [ LOG ]
-- 97,8 [7C7D5D50] [B1742F76]
01 97,8 [723E65C3] [3E69AEBC] CRC32
02 97,7 [9C22DA9B] [557A329A] CRC32
03 97,7 [6B440E5B] [9A82E7E9] CRC32
04 97,6 [D10B32E9] [31841575] CRC32
05 97,7 [3986F85A] [0615196C] CRC32
06 97,7 [8007CF9A] [FBA154C1] CRC32
07 97,6 [0E213CA4] [7E5B0360] CRC32
08 97,7 [F3201D38] [8374D53D] CRC32
09 97,6 [30E2128A] [BF1DD765] CRC32
10 97,7 [F003CA7E] [0A6BD9C5] CRC32

To download the file disable ad blocking, and reload the page.

disable adblock How to disable ad blocking?

Download by magnet link 1.17 GB Download Torrent

Login using:

Similar topics

(Progressive Psy-Trance) VA - Goa Culture Vol. 24 (2017), MP3, 320 kbps
 307 MB   0 | 0   13-Apr-17 04:19   2


   
Current time is: 23-Oct 07:01 :: All times are UTC ± 0