Rage / 11CD

Жанр: Heavy, Power, Speed
Носитель: CD
Страна-производитель диска (релиза): Russia
Год издания: 1986-2001
Издатель (лейбл): Agat
Страна исполнителя (группы): Germany
Аудиокодек: FLAC (*.flac)
Тип рипа: image+.cue
Битрейт аудио: lossless
Источник (релизер): _Janick_
Наличие сканов в содержимом раздачи: да

1986 - Reign Of Fear + Best Of All G.U.N. Years - Vol. I

01. Scared To Death (4:27)
02. Deceiver (3:35)
03. Reign Of Fear (3:51)
04. Hand Of Glory (3:25)
05. Raw Energy (3:26)
06. Echoes Of Evil (4:47)
07. Chaste Flesh (4:51)
08. Suicide (4:02)
09. Machinery (4:21)
10. Scaffold (9:14)
11. Straight To Hell (4:32)
12. Days Of December (4:36)
13. Back In Time (4:20)
14. Alive But Dead (4:59)
15. Deep In The Blackest Hole (4:23)
16. The Mirror In Your Eyes (3:44)
17. Black In Mind (4:09)
18. Six Feet Under Ground (3:15)

Лог создания рипа

Exact Audio Copy V1.3 from 2. September 2016
EAC extraction logfile from 19. April 2017, 19:55
Rage / Reign Of Fear + Best Of All G.U.N. Years - Vol. I
Used drive : ASUS DRW-24B3ST Adapter: 1 ID: 0
Read mode : Secure
Utilize accurate stream : Yes
Defeat audio cache : Yes
Make use of C2 pointers : No
Read offset correction : 6
Overread into Lead-In and Lead-Out : No
Fill up missing offset samples with silence : Yes
Delete leading and trailing silent blocks : No
Null samples used in CRC calculations : Yes
Used interface : Installed external ASPI interface
Used output format : User Defined Encoder
Selected bitrate : 1024 kBit/s
Quality : High
Add ID3 tag : No
Command line compressor : C:\Program Files (x86)\Exact Audio Copy\FLAC\FLAC.EXE
Additional command line options : -V -8 -T "Date=%year%" -T "Genre=%genre%" %source%
TOC of the extracted CD
Track | Start | Length | Start sector | End sector
---------------------------------------------------------
1 | 0:00.00 | 4:27.23 | 0 | 20047
2 | 4:27.23 | 3:35.00 | 20048 | 36172
3 | 8:02.23 | 3:51.37 | 36173 | 53534
4 | 11:53.60 | 3:25.37 | 53535 | 68946
5 | 15:19.22 | 3:26.00 | 68947 | 84396
6 | 18:45.22 | 4:46.38 | 84397 | 105884
7 | 23:31.60 | 4:51.00 | 105885 | 127709
8 | 28:22.60 | 4:01.38 | 127710 | 145822
9 | 32:24.23 | 4:21.00 | 145823 | 165397
10 | 36:45.23 | 9:13.55 | 165398 | 206927
11 | 45:59.03 | 4:32.37 | 206928 | 227364
12 | 50:31.40 | 4:35.52 | 227365 | 248041
13 | 55:07.17 | 4:20.22 | 248042 | 267563
14 | 59:27.39 | 4:58.51 | 267564 | 289964
15 | 64:26.15 | 4:23.37 | 289965 | 309726
16 | 68:49.52 | 3:44.00 | 309727 | 326526
17 | 72:33.52 | 4:08.48 | 326527 | 345174
18 | 76:42.25 | 3:15.01 | 345175 | 359800
Range status and errors
Selected range
Filename C:\CD Rip By deminbek\Rage - Reign Of Fear + Best Of All G.U.N. Years - Vol. I.wav
Peak level 99.9 %
Extraction speed 6.8 X
Range quality 100.0 %
Test CRC D70F93CE
Copy CRC D70F93CE
Copy OK
No errors occurred
AccurateRip summary
Track 1 accurately ripped (confidence 2) [AC0DD217] (AR v1)
Track 2 accurately ripped (confidence 2) [AB3BFC88] (AR v1)
Track 3 accurately ripped (confidence 2) [824945AA] (AR v1)
Track 4 accurately ripped (confidence 2) [6B2E61A0] (AR v1)
Track 5 accurately ripped (confidence 2) [559FA37E] (AR v1)
Track 6 accurately ripped (confidence 2) [A823508D] (AR v1)
Track 7 accurately ripped (confidence 2) [4F3C51AF] (AR v1)
Track 8 accurately ripped (confidence 2) [20E8EC91] (AR v1)
Track 9 accurately ripped (confidence 2) [29C5E6D0] (AR v1)
Track 10 accurately ripped (confidence 2) [9E1310C5] (AR v1)
Track 11 accurately ripped (confidence 2) [6709CCF6] (AR v1)
Track 12 accurately ripped (confidence 2) [113ABBBE] (AR v1)
Track 13 accurately ripped (confidence 2) [A456827F] (AR v1)
Track 14 accurately ripped (confidence 2) [058E9B1C] (AR v1)
Track 15 accurately ripped (confidence 2) [4A193ABC] (AR v1)
Track 16 accurately ripped (confidence 2) [6005B33B] (AR v1)
Track 17 accurately ripped (confidence 2) [EA639318] (AR v1)
Track 18 accurately ripped (confidence 2) [7E4A7C4E] (AR v1)
All tracks accurately ripped
End of status report
---- CUETools DB Plugin V2.1.6
[CTDB TOCID: g4j9ShcVowp6tmq8yWSStmuf.gg-] disk not present in database
Submit result: g4j9ShcVowp6tmq8yWSStmuf.gg- has been uploaded
==== Log checksum 96593461158E2C61D4EF6D0C05A912850F9AF339CF1BB17DECB806BCB9AF21DE ====

1987 - Execution Guaranteed + Best Of All G.U.N. Years - Vol. II

01. Dawn by Law (3:22)
02. Execution Guaranteed (6:49)
03. Before the Storm (The Secret Affair) (4:49)
04. Streetwolf (6:05)
05. Deadly Error (5:07)
06. Hatred (3:56)
07. Grapes of Wrath (5:13)
08. Mental Decay (5:52)
09. When You're Dead (4:33)
10. Higher Than the Sky (4:20)
11. The Crawling Chaos (4:42)
12. Just Another Wasted Day (4:53)
13. From the Cradle to the Grave (4:53)
14. Medley (15:23)

Лог создания рипа

Exact Audio Copy V1.3 from 2. September 2016
EAC extraction logfile from 19. April 2017, 20:27
Rage / Execution Guaranteed + Best Of All G.U.N. Years - Vol. II
Used drive : ASUS DRW-24B3ST Adapter: 1 ID: 0
Read mode : Secure
Utilize accurate stream : Yes
Defeat audio cache : Yes
Make use of C2 pointers : No
Read offset correction : 6
Overread into Lead-In and Lead-Out : No
Fill up missing offset samples with silence : Yes
Delete leading and trailing silent blocks : No
Null samples used in CRC calculations : Yes
Used interface : Installed external ASPI interface
Used output format : User Defined Encoder
Selected bitrate : 1024 kBit/s
Quality : High
Add ID3 tag : No
Command line compressor : C:\Program Files (x86)\Exact Audio Copy\FLAC\FLAC.EXE
Additional command line options : -V -8 -T "Date=%year%" -T "Genre=%genre%" %source%
TOC of the extracted CD
Track | Start | Length | Start sector | End sector
---------------------------------------------------------
1 | 0:00.00 | 3:22.00 | 0 | 15149
2 | 3:22.00 | 6:49.15 | 15150 | 45839
3 | 10:11.15 | 4:48.67 | 45840 | 67506
4 | 15:00.07 | 6:04.38 | 67507 | 94844
5 | 21:04.45 | 5:06.55 | 94845 | 117849
6 | 26:11.25 | 3:56.37 | 117850 | 135586
7 | 30:07.62 | 5:13.02 | 135587 | 159063
8 | 35:20.64 | 5:51.39 | 159064 | 185427
9 | 41:12.28 | 4:33.09 | 185428 | 205911
10 | 45:45.37 | 4:20.00 | 205912 | 225411
11 | 50:05.37 | 4:42.00 | 225412 | 246561
12 | 54:47.37 | 4:52.38 | 246562 | 268499
13 | 59:40.00 | 4:53.01 | 268500 | 290475
14 | 64:33.01 | 15:23.37 | 290476 | 359737
Range status and errors
Selected range
Filename C:\CD Rip By deminbek\Rage - Execution Guaranteed + Best Of All G.U.N. Years - Vol. II.wav
Peak level 99.9 %
Extraction speed 6.8 X
Range quality 100.0 %
Test CRC 324A087C
Copy CRC 324A087C
Copy OK
No errors occurred
AccurateRip summary
Track 1 accurately ripped (confidence 3) [5B0ADFED] (AR v1)
Track 2 accurately ripped (confidence 3) [525FE2B9] (AR v1)
Track 3 accurately ripped (confidence 3) [E968E1A8] (AR v1)
Track 4 accurately ripped (confidence 3) [9972F73D] (AR v1)
Track 5 accurately ripped (confidence 3) [EF6097A8] (AR v1)
Track 6 accurately ripped (confidence 3) [59189295] (AR v1)
Track 7 accurately ripped (confidence 3) [EEDBD5AA] (AR v1)
Track 8 accurately ripped (confidence 2) [F7498DFB] (AR v1)
Track 9 accurately ripped (confidence 3) [C2427FD2] (AR v1)
Track 10 accurately ripped (confidence 3) [92FD1C2F] (AR v1)
Track 11 accurately ripped (confidence 3) [33047032] (AR v1)
Track 12 accurately ripped (confidence 3) [D1E27A3F] (AR v1)
Track 13 accurately ripped (confidence 3) [25A5608B] (AR v1)
Track 14 accurately ripped (confidence 3) [822B09B0] (AR v1)
All tracks accurately ripped
End of status report
---- CUETools DB Plugin V2.1.6
[CTDB TOCID: zcjEmc2wohz.4xKgT1vJqB73mn0-] found
Submit result: zcjEmc2wohz.4xKgT1vJqB73mn0- has been confirmed
Track | CTDB Status
1 | (2/2) Accurately ripped
2 | (2/2) Accurately ripped
3 | (2/2) Accurately ripped
4 | (2/2) Accurately ripped
5 | (2/2) Accurately ripped
6 | (2/2) Accurately ripped
7 | (2/2) Accurately ripped
8 | (2/2) Accurately ripped
9 | (2/2) Accurately ripped
10 | (2/2) Accurately ripped
11 | (2/2) Accurately ripped
12 | (2/2) Accurately ripped
13 | (2/2) Accurately ripped
14 | (2/2) Accurately ripped
==== Log checksum 642C6FA8CD2A13D566E5EF34FEA2774281783D1878CB968125EE760929AE2475 ====

1988 - Perfect Man + The Heretic (Victor Smolski)

01. Wasteland (3:28)
02. In The Darkest Hour (3:16)
03. Animal Instinct (3:47)
04. Perfect Man (3:30)
05. Sinister Thinking (3:13)
06. Supersonic Hydromatic (3:32)
07. Don't Fear The Winter (3:26)
08. Death In The Afternoon (3:56)
09. A Pilgrim's Path (4:26)
10. Time And Place (4:15)
11. Round Trip (3:25)
12. Between The Lines (3:17)
13. Symbols Of Our Fear (3:32)
14. Neurotic (3:04)
15. Baptism Of Fire (Smolski's bonus) (4:25)
16. The Testamony (Smolski's bonus) (3:37)
17. Hex Of The Six Strings (Smolski's bonus) (7:53)
18. The Necromancer (Smolski's bonus) (4:33)
19. Witches Hammer (Smolski's bonus) (7:26)

Лог создания рипа

Exact Audio Copy V1.3 from 2. September 2016
EAC extraction logfile from 19. April 2017, 21:15
Rage / Perfect Man + The Heretic (Victor Smolski)
Used drive : ASUS DRW-24B3ST Adapter: 1 ID: 0
Read mode : Secure
Utilize accurate stream : Yes
Defeat audio cache : Yes
Make use of C2 pointers : No
Read offset correction : 6
Overread into Lead-In and Lead-Out : No
Fill up missing offset samples with silence : Yes
Delete leading and trailing silent blocks : No
Null samples used in CRC calculations : Yes
Used interface : Installed external ASPI interface
Used output format : User Defined Encoder
Selected bitrate : 1024 kBit/s
Quality : High
Add ID3 tag : No
Command line compressor : C:\Program Files (x86)\Exact Audio Copy\FLAC\FLAC.EXE
Additional command line options : -V -8 -T "Date=%year%" -T "Genre=%genre%" %source%
TOC of the extracted CD
Track | Start | Length | Start sector | End sector
---------------------------------------------------------
1 | 0:00.00 | 3:27.73 | 0 | 15597
2 | 3:27.73 | 3:15.73 | 15598 | 30295
3 | 6:43.71 | 3:46.40 | 30296 | 47285
4 | 10:30.36 | 3:30.36 | 47286 | 63071
5 | 14:00.72 | 3:13.01 | 63072 | 77547
6 | 17:13.73 | 3:32.01 | 77548 | 93448
7 | 20:45.74 | 3:25.59 | 93449 | 108882
8 | 24:11.58 | 3:56.32 | 108883 | 126614
9 | 28:08.15 | 4:25.47 | 126615 | 146536
10 | 32:33.62 | 4:14.53 | 146537 | 165639
11 | 36:48.40 | 3:24.38 | 165640 | 180977
12 | 40:13.03 | 3:17.37 | 180978 | 195789
13 | 43:30.40 | 3:32.37 | 195790 | 211726
14 | 47:03.02 | 3:03.47 | 211727 | 225498
15 | 50:06.49 | 4:24.70 | 225499 | 245368
16 | 54:31.44 | 3:36.53 | 245369 | 261621
17 | 58:08.22 | 7:52.42 | 261622 | 297063
18 | 66:00.64 | 4:33.18 | 297064 | 317556
19 | 70:34.07 | 7:25.70 | 317557 | 351001
Range status and errors
Selected range
Filename C:\CD Rip By deminbek\Rage - Perfect Man + The Heretic (Victor Smolski).wav
Peak level 98.8 %
Extraction speed 6.7 X
Range quality 100.0 %
Test CRC 22FE9D35
Copy CRC 22FE9D35
Copy OK
No errors occurred
AccurateRip summary
Track 1 accurately ripped (confidence 1) [BC47DEED] (AR v1)
Track 2 accurately ripped (confidence 1) [52B7064F] (AR v1)
Track 3 accurately ripped (confidence 1) [C750F1CC] (AR v1)
Track 4 accurately ripped (confidence 1) [C38F6144] (AR v1)
Track 5 accurately ripped (confidence 1) [A7433B6C] (AR v1)
Track 6 accurately ripped (confidence 1) [EB95E8D9] (AR v1)
Track 7 accurately ripped (confidence 1) [2E0BBAA3] (AR v1)
Track 8 accurately ripped (confidence 1) [1D8CFFA4] (AR v1)
Track 9 accurately ripped (confidence 1) [E11F08ED] (AR v1)
Track 10 accurately ripped (confidence 1) [8143BCCA] (AR v1)
Track 11 accurately ripped (confidence 1) [FD18DDF4] (AR v1)
Track 12 accurately ripped (confidence 1) [37C49044] (AR v1)
Track 13 accurately ripped (confidence 1) [172A60E6] (AR v1)
Track 14 accurately ripped (confidence 1) [FBBA6512] (AR v1)
Track 15 accurately ripped (confidence 1) [20CC1373] (AR v1)
Track 16 accurately ripped (confidence 1) [4B7B459A] (AR v1)
Track 17 accurately ripped (confidence 1) [88630978] (AR v1)
Track 18 accurately ripped (confidence 1) [B1F6FDF2] (AR v1)
Track 19 accurately ripped (confidence 1) [07E6762D] (AR v1)
All tracks accurately ripped
End of status report
---- CUETools DB Plugin V2.1.6
[CTDB TOCID: 0em.YGUD3FxF4OHcT_xCZPs1PWQ-] found
Submit result: 0em.YGUD3FxF4OHcT_xCZPs1PWQ- has been confirmed
Track | CTDB Status
1 | (4/4) Accurately ripped
2 | (4/4) Accurately ripped
3 | (4/4) Accurately ripped
4 | (4/4) Accurately ripped
5 | (4/4) Accurately ripped
6 | (4/4) Accurately ripped
7 | (4/4) Accurately ripped
8 | (4/4) Accurately ripped
9 | (4/4) Accurately ripped
10 | (4/4) Accurately ripped
11 | (4/4) Accurately ripped
12 | (4/4) Accurately ripped
13 | (4/4) Accurately ripped
14 | (4/4) Accurately ripped
15 | (4/4) Accurately ripped
16 | (4/4) Accurately ripped
17 | (4/4) Accurately ripped
18 | (4/4) Accurately ripped
19 | (4/4) Accurately ripped
==== Log checksum 5CF9E47EB25559E5E17B99BC3AE65F92DBDC288267178E27A6CA0F2B8B198E82 ====

1989 - Secrets In A Weird World + Beyond The Wall

01. Intro ['Opus 32 No.3' Serge Prokofiev] (0:51)
02. Time Waits For Noone (4:50)
03. Make My Day (3:40)
04. The Inner Search (4:44)
05. Invisible Horizons (4:37)
06. She (5:22)
07. Light Into The Darkness (4:52)
08. Talk To Grandpa (2:47)
09. Distant Voices (5:51)
10. Without A Trace (9:11)
11. Lost Side Of The World (4:47)
12. Bury All Life ['Beyond The Wall' 1992 EP] (5:35)
13. On The Edge ['Beyond The Wall' 1992 EP] (4:16)
14. I Want You ['Beyond The Wall' 1992 EP] (3:41)
15. Nothing To Lose ['Beyond The Wall' 1992 EP] (4:14)
16. Last Goodby ['Beyond The Wall' 1992 EP] (4:23)
17. Light Into The Darkness (Acc. Vers.) ['Beyond The Wall' 1992 EP] (5:39)

Лог создания рипа

Exact Audio Copy V1.3 from 2. September 2016
EAC extraction logfile from 19. April 2017, 20:51
Rage / Secrets In A World + Beyond The Wall
Used drive : ASUS DRW-24B3ST Adapter: 1 ID: 0
Read mode : Secure
Utilize accurate stream : Yes
Defeat audio cache : Yes
Make use of C2 pointers : No
Read offset correction : 6
Overread into Lead-In and Lead-Out : No
Fill up missing offset samples with silence : Yes
Delete leading and trailing silent blocks : No
Null samples used in CRC calculations : Yes
Used interface : Installed external ASPI interface
Used output format : User Defined Encoder
Selected bitrate : 1024 kBit/s
Quality : High
Add ID3 tag : No
Command line compressor : C:\Program Files (x86)\Exact Audio Copy\FLAC\FLAC.EXE
Additional command line options : -V -8 -T "Date=%year%" -T "Genre=%genre%" %source%
TOC of the extracted CD
Track | Start | Length | Start sector | End sector
---------------------------------------------------------
1 | 0:00.00 | 0:51.33 | 0 | 3857
2 | 0:51.33 | 4:49.71 | 3858 | 25603
3 | 5:41.29 | 3:39.48 | 25604 | 42076
4 | 9:21.02 | 4:43.42 | 42077 | 63343
5 | 14:04.44 | 4:37.01 | 63344 | 84119
6 | 18:41.45 | 5:21.64 | 84120 | 108258
7 | 24:03.34 | 4:52.23 | 108259 | 130181
8 | 28:55.57 | 2:47.35 | 130182 | 142741
9 | 31:43.17 | 5:50.58 | 142742 | 169049
10 | 37:34.00 | 9:11.01 | 169050 | 210375
11 | 46:45.01 | 4:47.05 | 210376 | 231905
12 | 51:32.06 | 5:35.04 | 231906 | 257034
13 | 57:07.10 | 4:15.41 | 257035 | 276200
14 | 61:22.51 | 3:41.22 | 276201 | 292797
15 | 65:03.73 | 4:14.02 | 292798 | 311849
16 | 69:18.00 | 4:22.57 | 311850 | 331556
17 | 73:40.57 | 5:39.32 | 331557 | 357013
Range status and errors
Selected range
Filename C:\CD Rip By deminbek\Rage - Secrets In A World + Beyond The Wall.wav
Peak level 98.2 %
Extraction speed 6.7 X
Range quality 100.0 %
Test CRC 1051487C
Copy CRC 1051487C
Copy OK
No errors occurred
AccurateRip summary
Track 1 accurately ripped (confidence 2) [D08B0534] (AR v1)
Track 2 accurately ripped (confidence 2) [B443F729] (AR v1)
Track 3 accurately ripped (confidence 2) [95C61117] (AR v1)
Track 4 accurately ripped (confidence 2) [33251C22] (AR v1)
Track 5 accurately ripped (confidence 2) [F0D1DAED] (AR v1)
Track 6 accurately ripped (confidence 2) [AF7E1A75] (AR v1)
Track 7 accurately ripped (confidence 2) [C8804CB5] (AR v1)
Track 8 accurately ripped (confidence 2) [9ED2566B] (AR v1)
Track 9 accurately ripped (confidence 2) [A792267B] (AR v1)
Track 10 accurately ripped (confidence 2) [735DC7C7] (AR v1)
Track 11 accurately ripped (confidence 2) [03C65568] (AR v1)
Track 12 accurately ripped (confidence 2) [4AB9AD03] (AR v1)
Track 13 accurately ripped (confidence 2) [CE729935] (AR v1)
Track 14 accurately ripped (confidence 2) [BBCD56AC] (AR v1)
Track 15 accurately ripped (confidence 2) [599B60F8] (AR v1)
Track 16 accurately ripped (confidence 2) [CB3867C1] (AR v1)
Track 17 accurately ripped (confidence 2) [28AF427B] (AR v1)
All tracks accurately ripped
End of status report
---- CUETools DB Plugin V2.1.6
[CTDB TOCID: SSd77Aeak8Hw4uw1WsRl0LVvRJM-] found
Submit result: SSd77Aeak8Hw4uw1WsRl0LVvRJM- has been confirmed
Track | CTDB Status
1 | (2/2) Accurately ripped
2 | (2/2) Accurately ripped
3 | (2/2) Accurately ripped
4 | (2/2) Accurately ripped
5 | (2/2) Accurately ripped
6 | (2/2) Accurately ripped
7 | (2/2) Accurately ripped
8 | (2/2) Accurately ripped
9 | (2/2) Accurately ripped
10 | (2/2) Accurately ripped
11 | (2/2) Accurately ripped
12 | (2/2) Accurately ripped
13 | (2/2) Accurately ripped
14 | (2/2) Accurately ripped
15 | (2/2) Accurately ripped
16 | (2/2) Accurately ripped
17 | (2/2) Accurately ripped
==== Log checksum 840C7CC8159B4F05AC23D003EC1129E681697692E058D2459012883523A9253D ====

1990 - Reflections Of A Shadow + Invisible Horizons

01. Introduction (A Bit More Of Green) (1:31)
02. That's Human Bondage (4:28)
03. True Face In Everyone (5:13)
04. Flowers That Fade In My Hand (7:40)
05. Reflections Of A Shadow (3:56)
06. Can't Get Out [Intro] (0:41)
07. Can't Get Out (4:25)
08. Waiting For The Moon (4:42)
09. Faith (5:43)
10. Saddle The Wind (4:08)
11. Dust (4:50)
12. Nobody Knows (3:51)
13. Wild Seed (5:29)
14. Invisible Horizons (4:36)
15. Lost Side Of The World (4:45)
16. Law And Order (3:04)
17. Mirror (6:19)

Лог создания рипа

Exact Audio Copy V1.3 from 2. September 2016
EAC extraction logfile from 19. April 2017, 21:38
Rage / Reflections Of A Shadow + Invisible Horizons
Used drive : ASUS DRW-24B3ST Adapter: 1 ID: 0
Read mode : Secure
Utilize accurate stream : Yes
Defeat audio cache : Yes
Make use of C2 pointers : No
Read offset correction : 6
Overread into Lead-In and Lead-Out : No
Fill up missing offset samples with silence : Yes
Delete leading and trailing silent blocks : No
Null samples used in CRC calculations : Yes
Used interface : Installed external ASPI interface
Used output format : User Defined Encoder
Selected bitrate : 1024 kBit/s
Quality : High
Add ID3 tag : No
Command line compressor : C:\Program Files (x86)\Exact Audio Copy\FLAC\FLAC.EXE
Additional command line options : -V -8 -T "Date=%year%" -T "Genre=%genre%" %source%
TOC of the extracted CD
Track | Start | Length | Start sector | End sector
---------------------------------------------------------
1 | 0:00.00 | 1:31.11 | 0 | 6835
2 | 1:31.11 | 4:28.37 | 6836 | 26972
3 | 5:59.48 | 5:13.01 | 26973 | 50448
4 | 11:12.49 | 7:40.01 | 50449 | 84949
5 | 18:52.50 | 3:55.74 | 84950 | 102648
6 | 22:48.49 | 0:41.15 | 102649 | 105738
7 | 23:29.64 | 4:24.38 | 105739 | 125576
8 | 27:54.27 | 4:42.00 | 125577 | 146726
9 | 32:36.27 | 5:43.01 | 146727 | 172452
10 | 38:19.28 | 4:07.74 | 172453 | 191051
11 | 42:27.27 | 4:50.37 | 191052 | 212838
12 | 47:17.64 | 3:51.00 | 212839 | 230163
13 | 51:08.64 | 5:29.32 | 230164 | 254870
14 | 56:38.21 | 4:36.01 | 254871 | 275571
15 | 61:14.22 | 4:45.05 | 275572 | 296951
16 | 65:59.27 | 3:04.32 | 296952 | 310783
17 | 69:03.59 | 6:18.40 | 310784 | 339173
Range status and errors
Selected range
Filename C:\CD Rip By deminbek\Rage - Reflections Of A Shadow + Invisible Horizons.wav
Peak level 98.9 %
Extraction speed 6.6 X
Range quality 100.0 %
Test CRC 1FFAAED3
Copy CRC 1FFAAED3
Copy OK
No errors occurred
AccurateRip summary
Track 1 accurately ripped (confidence 3) [8FF62E12] (AR v1)
Track 2 accurately ripped (confidence 3) [252F92AB] (AR v1)
Track 3 accurately ripped (confidence 3) [4DFEA5BB] (AR v1)
Track 4 accurately ripped (confidence 3) [CD4B3D2E] (AR v1)
Track 5 accurately ripped (confidence 3) [E8CAC859] (AR v1)
Track 6 accurately ripped (confidence 3) [19851C6A] (AR v1)
Track 7 accurately ripped (confidence 3) [D40D94DC] (AR v1)
Track 8 accurately ripped (confidence 3) [DAEA755A] (AR v1)
Track 9 accurately ripped (confidence 3) [9C25E58A] (AR v1)
Track 10 accurately ripped (confidence 3) [D0CCAD99] (AR v1)
Track 11 accurately ripped (confidence 3) [E2C205EC] (AR v1)
Track 12 accurately ripped (confidence 3) [D4527984] (AR v1)
Track 13 accurately ripped (confidence 3) [898A66A4] (AR v1)
Track 14 accurately ripped (confidence 3) [7F38E706] (AR v1)
Track 15 accurately ripped (confidence 3) [29C6A6E5] (AR v1)
Track 16 accurately ripped (confidence 3) [072F39E5] (AR v1)
Track 17 accurately ripped (confidence 3) [16FAD932] (AR v1)
All tracks accurately ripped
End of status report
---- CUETools DB Plugin V2.1.6
[CTDB TOCID: b2d8xaaazwZhRudN4eABd.MAgZA-] disk not present in database
Submit result: b2d8xaaazwZhRudN4eABd.MAgZA- has been uploaded
==== Log checksum 8A4168C5D71D8797CD3DB44EB7778A9DA3B8278E8BD00DA5C75803785452C1E7 ====

1992 - Trapped! + Extended Power

01. Shame On You (4:52)
02. Solitary Man (3:39)
03. Enough Is Enough (6:45)
04. Medicine (3:45)
05. Questions (3:57)
06. Take Me To The Water (6:01)
07. Power & Greed (4:28)
08. The Body Talks (4:36)
09. Not Forever (3:38)
10. Beyond The Wall Of Sleep (4:06)
11. Baby, I'm Your Nightmare (5:24)
12. Fast As A Shark (3:05)
13. Difference (5:01)
14. Woman (3:49)
15. Ashes (5:03)
16. Bootlefield (2:39)
17. Waiting For The Moon (4:42)
18. What's Up ? (3:31)
19. End (0:07)

Лог создания рипа

Exact Audio Copy V1.3 from 2. September 2016
EAC extraction logfile from 19. April 2017, 19:31
Rage / Trapped! + Extended Power
Used drive : ASUS DRW-24B3ST Adapter: 1 ID: 0
Read mode : Secure
Utilize accurate stream : Yes
Defeat audio cache : Yes
Make use of C2 pointers : No
Read offset correction : 6
Overread into Lead-In and Lead-Out : No
Fill up missing offset samples with silence : Yes
Delete leading and trailing silent blocks : No
Null samples used in CRC calculations : Yes
Used interface : Installed external ASPI interface
Used output format : User Defined Encoder
Selected bitrate : 1024 kBit/s
Quality : High
Add ID3 tag : No
Command line compressor : C:\Program Files (x86)\Exact Audio Copy\FLAC\FLAC.EXE
Additional command line options : -V -8 -T "Date=%year%" -T "Genre=%genre%" %source%
TOC of the extracted CD
Track | Start | Length | Start sector | End sector
---------------------------------------------------------
1 | 0:00.00 | 4:52.24 | 0 | 21923
2 | 4:52.24 | 3:38.65 | 21924 | 38338
3 | 8:31.14 | 6:44.60 | 38339 | 68698
4 | 15:15.74 | 3:44.68 | 68699 | 85566
5 | 19:00.67 | 3:57.10 | 85567 | 103351
6 | 22:58.02 | 6:01.12 | 103352 | 130438
7 | 28:59.14 | 4:27.42 | 130439 | 150505
8 | 33:26.56 | 4:35.47 | 150506 | 171177
9 | 38:02.28 | 3:38.04 | 171178 | 187531
10 | 41:40.32 | 4:05.50 | 187532 | 205956
11 | 45:46.07 | 5:23.70 | 205957 | 230251
12 | 51:10.02 | 3:04.40 | 230252 | 244091
13 | 54:14.42 | 5:00.65 | 244092 | 266656
14 | 59:15.32 | 3:48.53 | 266657 | 283809
15 | 63:04.10 | 5:03.20 | 283810 | 306554
16 | 68:07.30 | 2:39.05 | 306555 | 318484
17 | 70:46.35 | 4:42.25 | 318485 | 339659
18 | 75:28.60 | 3:30.40 | 339660 | 355449
19 | 78:59.25 | 0:07.12 | 355450 | 355986
Range status and errors
Selected range
Filename C:\CD Rip By deminbek\Rage - Trapped! + Extended Power.wav
Peak level 98.6 %
Extraction speed 6.7 X
Range quality 100.0 %
Test CRC 523C9B76
Copy CRC 523C9B76
Copy OK
No errors occurred
AccurateRip summary
Track 1 accurately ripped (confidence 1) [3B1245D6] (AR v2)
Track 2 accurately ripped (confidence 1) [77E7F35D] (AR v2)
Track 3 accurately ripped (confidence 1) [00AB9706] (AR v2)
Track 4 accurately ripped (confidence 1) [64D3AD8D] (AR v2)
Track 5 accurately ripped (confidence 1) [7F0E1ED6] (AR v2)
Track 6 accurately ripped (confidence 1) [941248AA] (AR v2)
Track 7 accurately ripped (confidence 1) [CD5AF916] (AR v2)
Track 8 accurately ripped (confidence 1) [985E7D69] (AR v2)
Track 9 accurately ripped (confidence 1) [B99FA616] (AR v2)
Track 10 accurately ripped (confidence 1) [B2440F64] (AR v2)
Track 11 accurately ripped (confidence 1) [BF7A66F1] (AR v2)
Track 12 accurately ripped (confidence 1) [97097E4E] (AR v2)
Track 13 accurately ripped (confidence 1) [95BD8E61] (AR v2)
Track 14 accurately ripped (confidence 1) [CC24E58E] (AR v2)
Track 15 accurately ripped (confidence 1) [B2879DF3] (AR v2)
Track 16 accurately ripped (confidence 1) [C3A81976] (AR v2)
Track 17 accurately ripped (confidence 1) [86243237] (AR v2)
Track 18 accurately ripped (confidence 1) [2E97C24B] (AR v2)
Track 19 accurately ripped (confidence 1) [5D8776BC] (AR v2)
All tracks accurately ripped
End of status report
---- CUETools DB Plugin V2.1.6
[CTDB TOCID: KHEHCzrLr2JQDN17pv1UovqW0Z8-] disk not present in database
Submit result: KHEHCzrLr2JQDN17pv1UovqW0Z8- has been uploaded
==== Log checksum BC28CC0505291932F96F23AB20C766A758DCBE253C307CCB2669B3E8F664A19E ====

1993 - The Missing Link + Depraved To Black

01. Firestorm (4:59)
02. Nevermore (4:29)
03. Refuge (3:40)
04. The Pit and the Pendulum (4:19)
05. From the Underworld (3:09)
06. Certain Days (5:46)
07. Who Dares (4:30)
08. Wake me When I'm Dead (5:22)
09. Lost in the Ice (9:50)
10. Her Diary's Black Pages (3:35)
11. The Missing Link (4:25)
12. Raw Caress (5:28)
13. Down to the Bone (5:03)
14. Depraved to Black (4:39)
15. Prayers of Steel (Live) (4:58)
16. Faster than Hell (Live) (2:45)

Лог создания рипа

Exact Audio Copy V1.3 from 2. September 2016
EAC extraction logfile from 19. April 2017, 19:08
Rage / The Missing Link + Depraved To Black
Used drive : ASUS DRW-24B3ST Adapter: 1 ID: 0
Read mode : Secure
Utilize accurate stream : Yes
Defeat audio cache : Yes
Make use of C2 pointers : No
Read offset correction : 6
Overread into Lead-In and Lead-Out : No
Fill up missing offset samples with silence : Yes
Delete leading and trailing silent blocks : No
Null samples used in CRC calculations : Yes
Used interface : Installed external ASPI interface
Used output format : User Defined Encoder
Selected bitrate : 1024 kBit/s
Quality : High
Add ID3 tag : No
Command line compressor : C:\Program Files (x86)\Exact Audio Copy\FLAC\FLAC.EXE
Additional command line options : -V -8 -T "Date=%year%" -T "Genre=%genre%" %source%
TOC of the extracted CD
Track | Start | Length | Start sector | End sector
---------------------------------------------------------
1 | 0:00.00 | 4:58.41 | 0 | 22390
2 | 4:58.41 | 4:29.33 | 22391 | 42598
3 | 9:27.74 | 3:40.10 | 42599 | 59108
4 | 13:08.09 | 4:19.37 | 59109 | 78570
5 | 17:27.46 | 3:09.23 | 78571 | 92768
6 | 20:36.69 | 5:46.37 | 92769 | 118755
7 | 26:23.31 | 4:30.03 | 118756 | 139008
8 | 30:53.34 | 5:22.14 | 139009 | 163172
9 | 36:15.48 | 9:50.03 | 163173 | 207425
10 | 46:05.51 | 3:34.55 | 207426 | 223530
11 | 49:40.31 | 4:25.17 | 223531 | 243422
12 | 54:05.48 | 5:28.12 | 243423 | 268034
13 | 59:33.60 | 5:03.25 | 268035 | 290784
14 | 64:37.10 | 4:38.50 | 290785 | 311684
15 | 69:15.60 | 4:58.04 | 311685 | 334038
16 | 74:13.64 | 2:45.29 | 334039 | 346442
Range status and errors
Selected range
Filename C:\CD Rip By deminbek\Rage - The Missing Link + Depraved To Black.wav
Peak level 98.7 %
Extraction speed 6.7 X
Range quality 100.0 %
Test CRC B8FAF007
Copy CRC B8FAF007
Copy OK
No errors occurred
AccurateRip summary
Track 1 accurately ripped (confidence 2) [4AA8C89D] (AR v1)
Track 2 accurately ripped (confidence 2) [0873D99F] (AR v1)
Track 3 accurately ripped (confidence 2) [B00CB46E] (AR v1)
Track 4 accurately ripped (confidence 2) [9A62899E] (AR v1)
Track 5 accurately ripped (confidence 2) [ECF5EE28] (AR v1)
Track 6 accurately ripped (confidence 2) [E7A5C566] (AR v1)
Track 7 accurately ripped (confidence 2) [1DF29468] (AR v1)
Track 8 accurately ripped (confidence 2) [FF1CB76E] (AR v1)
Track 9 accurately ripped (confidence 2) [995C2BE2] (AR v1)
Track 10 accurately ripped (confidence 2) [AF42C2F2] (AR v1)
Track 11 accurately ripped (confidence 2) [F0744F9F] (AR v1)
Track 12 accurately ripped (confidence 2) [3452B2F8] (AR v1)
Track 13 accurately ripped (confidence 2) [F88D5679] (AR v1)
Track 14 accurately ripped (confidence 2) [705794B8] (AR v1)
Track 15 accurately ripped (confidence 2) [BC573BB1] (AR v1)
Track 16 accurately ripped (confidence 2) [506AC6F3] (AR v1)
All tracks accurately ripped
End of status report
---- CUETools DB Plugin V2.1.6
[CTDB TOCID: zdBEJ8fdCO5NqIvq5nXC1JSMiYY-] disk not present in database
Submit result: zdBEJ8fdCO5NqIvq5nXC1JSMiYY- has been uploaded
==== Log checksum 8843FBCD511B52EB15870366D174C8090340CD44D18A33957C3A810F3E451E4C ====

1994 - 10 Years In Rage + Prayers Of Steel (Avenger)

01. Vertigo (3:35)
02. She Killed and Smilied (4:05)
03. Destiniation Days (5:09)
04. Take my Blood (4:17)
05. No Sign of Life (7:24)
06. Submission (3:51)
07. The Unknown (4:44)
08. Dangerous Heritage (4:13)
09. Battlefield (2:45)
10. South Cross Union (3:38)
11. Prayers of Steel (6:11)
12. Halloween (3:51)
13. Faster than Hell (3:18)
14. Adoration (3:30)
15. Rise of the Creature (5:25)
16. Sword Made of Steel (5:04)
17. Bloodlust (4:49)
18. Assorted by Satan (4:03)

Лог создания рипа

Exact Audio Copy V1.3 from 2. September 2016
EAC extraction logfile from 19. April 2017, 18:45
Rage / 10 Years In Rage + Players Of Steel (Avenger)
Used drive : ASUS DRW-24B3ST Adapter: 1 ID: 0
Read mode : Secure
Utilize accurate stream : Yes
Defeat audio cache : Yes
Make use of C2 pointers : No
Read offset correction : 6
Overread into Lead-In and Lead-Out : No
Fill up missing offset samples with silence : Yes
Delete leading and trailing silent blocks : No
Null samples used in CRC calculations : Yes
Used interface : Installed external ASPI interface
Used output format : User Defined Encoder
Selected bitrate : 1024 kBit/s
Quality : High
Add ID3 tag : No
Command line compressor : C:\Program Files (x86)\Exact Audio Copy\FLAC\FLAC.EXE
Additional command line options : -V -8 -T "Date=%year%" -T "Genre=%genre%" %source%
TOC of the extracted CD
Track | Start | Length | Start sector | End sector
---------------------------------------------------------
1 | 0:00.00 | 3:35.05 | 0 | 16129
2 | 3:35.05 | 4:04.58 | 16130 | 34487
3 | 7:39.63 | 5:09.11 | 34488 | 57673
4 | 12:48.74 | 4:16.64 | 57674 | 76937
5 | 17:05.63 | 7:23.74 | 76938 | 110236
6 | 24:29.62 | 3:51.16 | 110237 | 127577
7 | 28:21.03 | 4:44.01 | 127578 | 148878
8 | 33:05.04 | 4:13.02 | 148879 | 167855
9 | 37:18.06 | 2:44.63 | 167856 | 180218
10 | 40:02.69 | 3:38.17 | 180219 | 196585
11 | 43:41.11 | 6:10.42 | 196586 | 224377
12 | 49:51.53 | 3:51.01 | 224378 | 241703
13 | 53:42.54 | 3:18.02 | 241704 | 256555
14 | 57:00.56 | 3:30.37 | 256556 | 272342
15 | 60:31.18 | 5:25.22 | 272343 | 296739
16 | 65:56.40 | 5:04.26 | 296740 | 319565
17 | 71:00.66 | 4:48.68 | 319566 | 341233
18 | 75:49.59 | 4:02.38 | 341234 | 359421
Range status and errors
Selected range
Filename C:\CD Rip By deminbek\Rage - 10 Years In Rage + Players Of Steel (Avenger).wav
Peak level 98.9 %
Extraction speed 6.8 X
Range quality 100.0 %
Test CRC 3D6C2CA8
Copy CRC 3D6C2CA8
Copy OK
No errors occurred
AccurateRip summary
Track 1 not present in database
Track 2 not present in database
Track 3 not present in database
Track 4 not present in database
Track 5 not present in database
Track 6 not present in database
Track 7 not present in database
Track 8 not present in database
Track 9 not present in database
Track 10 not present in database
Track 11 not present in database
Track 12 not present in database
Track 13 not present in database
Track 14 not present in database
Track 15 not present in database
Track 16 not present in database
Track 17 not present in database
Track 18 not present in database
None of the tracks are present in the AccurateRip database
End of status report
---- CUETools DB Plugin V2.1.6
[CTDB TOCID: jtlJqpkr_7bUW9e7DP3Wqqe0D0Y-] found
Submit result: jtlJqpkr_7bUW9e7DP3Wqqe0D0Y- has been confirmed
Track | CTDB Status
1 | (2/2) Accurately ripped
2 | (2/2) Accurately ripped
3 | (2/2) Accurately ripped
4 | (2/2) Accurately ripped
5 | (2/2) Accurately ripped
6 | (2/2) Accurately ripped
7 | (2/2) Accurately ripped
8 | (2/2) Accurately ripped
9 | (2/2) Accurately ripped
10 | (2/2) Accurately ripped
11 | (2/2) Accurately ripped
12 | (2/2) Accurately ripped
13 | (2/2) Accurately ripped
14 | (2/2) Accurately ripped
15 | (2/2) Accurately ripped
16 | (2/2) Accurately ripped
17 | (2/2) Accurately ripped
18 | (2/2) Accurately ripped
==== Log checksum 00849DF0D1981EE2431084CC0A4777A95877DE831B8EA2C5AAE0FC8AF3D85D2B ====

1995 - Black In Mind + Bonus Collection

01. Black In Mind (4:08)
02. The Crawling Chaos (4:46)
03. Alive But Dead (4:56)
04. Sent By The Devil (5:00)
05. Shadows Out Of Time (5:40)
06. Spider's Web (3:22)
07. In A Nameless Time (10:11)
08. The Icehold Hand Of Destiny (4:06)
09. Forever (4:45)
10. Until I Die (4:35)
11. My Rage (2:42)
12. The Price Of War (4:17)
13. Start (4:31)
14. Alll This Time (5:35)
15. How We Treat Each Other (3:57)
16. The Sleep (4:00)
17. Solitary Man (3:27)

Лог создания рипа

Exact Audio Copy V1.3 from 2. September 2016
EAC extraction logfile from 19. April 2017, 18:21
Rage / Black In Mind + Bonus Collection
Used drive : ASUS DRW-24B3ST Adapter: 1 ID: 0
Read mode : Secure
Utilize accurate stream : Yes
Defeat audio cache : Yes
Make use of C2 pointers : No
Read offset correction : 6
Overread into Lead-In and Lead-Out : No
Fill up missing offset samples with silence : Yes
Delete leading and trailing silent blocks : No
Null samples used in CRC calculations : Yes
Used interface : Installed external ASPI interface
Used output format : User Defined Encoder
Selected bitrate : 1024 kBit/s
Quality : High
Add ID3 tag : No
Command line compressor : C:\Program Files (x86)\Exact Audio Copy\FLAC\FLAC.EXE
Additional command line options : -V -8 -T "Date=%year%" -T "Genre=%genre%" %source%
TOC of the extracted CD
Track | Start | Length | Start sector | End sector
---------------------------------------------------------
1 | 0:00.00 | 4:07.39 | 0 | 18563
2 | 4:07.39 | 4:46.00 | 18564 | 40013
3 | 8:53.39 | 4:56.23 | 40014 | 62236
4 | 13:49.62 | 4:59.52 | 62237 | 84713
5 | 18:49.39 | 5:40.10 | 84714 | 110223
6 | 24:29.49 | 3:22.10 | 110224 | 125383
7 | 27:51.59 | 10:11.00 | 125384 | 171208
8 | 38:02.59 | 4:05.45 | 171209 | 189628
9 | 42:08.29 | 4:45.35 | 189629 | 211038
10 | 46:53.64 | 4:35.25 | 211039 | 231688
11 | 51:29.14 | 2:42.03 | 231689 | 243841
12 | 54:11.17 | 4:16.67 | 243842 | 263108
13 | 58:28.09 | 4:31.34 | 263109 | 283467
14 | 62:59.43 | 5:35.09 | 283468 | 308601
15 | 68:34.52 | 3:56.41 | 308602 | 326342
16 | 72:31.18 | 4:00.26 | 326343 | 344368
17 | 76:31.44 | 3:27.00 | 344369 | 359893
Range status and errors
Selected range
Filename C:\CD Rip By deminbek\Rage - Black In Mind + Bonus Collection.wav
Peak level 99.3 %
Extraction speed 6.8 X
Range quality 100.0 %
Test CRC 5C0FE186
Copy CRC 5C0FE186
Copy OK
No errors occurred
AccurateRip summary
Track 1 accurately ripped (confidence 1) [F790E0A9] (AR v2)
Track 2 accurately ripped (confidence 1) [ECF97B7D] (AR v2)
Track 3 accurately ripped (confidence 1) [0DFFCC5A] (AR v2)
Track 4 accurately ripped (confidence 1) [3135E20A] (AR v2)
Track 5 accurately ripped (confidence 1) [4B532471] (AR v2)
Track 6 accurately ripped (confidence 1) [1D46E4AD] (AR v2)
Track 7 accurately ripped (confidence 1) [1A1FD0D0] (AR v2)
Track 8 accurately ripped (confidence 1) [F377318D] (AR v2)
Track 9 accurately ripped (confidence 1) [B11C75F1] (AR v2)
Track 10 accurately ripped (confidence 1) [DA037FEB] (AR v2)
Track 11 accurately ripped (confidence 1) [73AFC757] (AR v2)
Track 12 accurately ripped (confidence 1) [C73E1A5A] (AR v2)
Track 13 accurately ripped (confidence 1) [09303580] (AR v2)
Track 14 accurately ripped (confidence 1) [7EAFBD2E] (AR v2)
Track 15 accurately ripped (confidence 1) [087BB965] (AR v2)
Track 16 accurately ripped (confidence 1) [9FDC9D25] (AR v2)
Track 17 accurately ripped (confidence 1) [36CA1B02] (AR v2)
All tracks accurately ripped
End of status report
---- CUETools DB Plugin V2.1.6
[CTDB TOCID: McosNIdCU0mbzD86iyh.ml9M9aE-] found
Submit result: McosNIdCU0mbzD86iyh.ml9M9aE- has been confirmed
Track | CTDB Status
1 | (2/2) Accurately ripped
2 | (2/2) Accurately ripped
3 | (2/2) Accurately ripped
4 | (2/2) Accurately ripped
5 | (2/2) Accurately ripped
6 | (2/2) Accurately ripped
7 | (2/2) Accurately ripped
8 | (2/2) Accurately ripped
9 | (2/2) Accurately ripped
10 | (2/2) Accurately ripped
11 | (2/2) Accurately ripped
12 | (2/2) Accurately ripped
13 | (2/2) Accurately ripped
14 | (2/2) Accurately ripped
15 | (2/2) Accurately ripped
16 | (2/2) Accurately ripped
17 | (2/2) Accurately ripped
==== Log checksum 6D14E3001DDA262771FF24FD68B2E16C31DF337FB5865994857C7F2D08BCE2BD ====

1998 - XIII + In Vain- Edition II

01. Overture (Instrumental) (1:58)
02. From the Cradle to the Grave (4:53)
03. Days of December (4:37)
04. Sign of Heaven (4:17)
05. Incomplete (5:13)
06. Turn the Page (5:00)
07. Heartblood (6:21)
08. Over and Over (3:49)
09. In Vain (I Won't Go Down) (5:19)
10. Immortal Sin (5:24)
11. Paint it Black (4:33)
12. Just Alone (6:24)
13. Another Wasted Day (4:53)
14. In Vain (I Won't Go Down) (3:40)
15. Sent By The Devil (4:51)
16. Higher Then The Sky (5:18)
17. Motorbreath [Metallica cover] (3:21)

Лог создания рипа

Exact Audio Copy V1.3 from 2. September 2016
EAC extraction logfile from 19. April 2017, 13:19
Rage / XIII - In Vain: Edition III
Used drive : ASUS DRW-24B3ST Adapter: 1 ID: 0
Read mode : Secure
Utilize accurate stream : Yes
Defeat audio cache : Yes
Make use of C2 pointers : No
Read offset correction : 6
Overread into Lead-In and Lead-Out : No
Fill up missing offset samples with silence : Yes
Delete leading and trailing silent blocks : No
Null samples used in CRC calculations : Yes
Used interface : Installed external ASPI interface
Used output format : User Defined Encoder
Selected bitrate : 1024 kBit/s
Quality : High
Add ID3 tag : No
Command line compressor : C:\Program Files (x86)\Exact Audio Copy\FLAC\FLAC.EXE
Additional command line options : -V -8 -T "Date=%year%" -T "Genre=%genre%" %source%
TOC of the extracted CD
Track | Start | Length | Start sector | End sector
---------------------------------------------------------
1 | 0:00.00 | 1:57.39 | 0 | 8813
2 | 1:57.39 | 4:53.00 | 8814 | 30788
3 | 6:50.39 | 4:37.37 | 30789 | 51600
4 | 11:28.01 | 4:17.20 | 51601 | 70895
5 | 15:45.21 | 5:12.65 | 70896 | 94360
6 | 20:58.11 | 4:59.38 | 94361 | 116823
7 | 25:57.49 | 6:21.05 | 116824 | 145403
8 | 32:18.54 | 3:48.38 | 145404 | 162541
9 | 36:07.17 | 5:19.15 | 162542 | 186481
10 | 41:26.32 | 5:24.37 | 186482 | 210818
11 | 46:50.69 | 4:33.21 | 210819 | 231314
12 | 51:24.15 | 6:24.18 | 231315 | 260132
13 | 57:48.33 | 4:52.38 | 260133 | 282070
14 | 62:40.71 | 3:40.37 | 282071 | 298607
15 | 66:21.33 | 4:51.19 | 298608 | 320451
16 | 71:12.52 | 5:17.73 | 320452 | 344299
17 | 76:30.50 | 3:21.00 | 344300 | 359374
Range status and errors
Selected range
Filename C:\CD Rip By deminbek\Rage - XIII - In Vain- Edition III.wav
Peak level 100.0 %
Extraction speed 6.7 X
Range quality 100.0 %
Test CRC 441E1938
Copy CRC 441E1938
Copy OK
No errors occurred
AccurateRip summary
Track 1 accurately ripped (confidence 1) [11F8E516] (AR v1)
Track 2 accurately ripped (confidence 1) [841555E0] (AR v1)
Track 3 accurately ripped (confidence 1) [19C72D3D] (AR v1)
Track 4 accurately ripped (confidence 1) [4E51F6D6] (AR v1)
Track 5 accurately ripped (confidence 1) [4205828E] (AR v1)
Track 6 accurately ripped (confidence 1) [B72AFE0C] (AR v1)
Track 7 accurately ripped (confidence 1) [D8E8BD96] (AR v1)
Track 8 accurately ripped (confidence 1) [39725DF9] (AR v1)
Track 9 accurately ripped (confidence 1) [5620BCE1] (AR v1)
Track 10 cannot be verified as accurate (confidence 1) [84ADAAFD], AccurateRip returned [0E76C28C] (AR v2)
Track 11 accurately ripped (confidence 1) [7A6AB5CB] (AR v1)
Track 12 cannot be verified as accurate (confidence 1) [9FDBFB09], AccurateRip returned [68EC7A0D] (AR v2)
Track 13 accurately ripped (confidence 1) [164EB885] (AR v1)
Track 14 accurately ripped (confidence 1) [E934313D] (AR v1)
Track 15 accurately ripped (confidence 1) [608A45D8] (AR v1)
Track 16 accurately ripped (confidence 1) [9574CA2D] (AR v1)
Track 17 accurately ripped (confidence 1) [6AF2D44F] (AR v1)
15 трек(и) скопированы точно
2 трек(и) не удалось проверить на точность
Some tracks could not be verified as accurate
End of status report
---- CUETools DB Plugin V2.1.6
[CTDB TOCID: V7InObqJt1E04LqEQNaCzXSqYU0-] disk not present in database
Submit result: V7InObqJt1E04LqEQNaCzXSqYU0- has been uploaded
==== Log checksum 526188C415B8905A6092666AAF2E89B8049055D251EF65EB92690D8A9F59625F ====

2001 - Welcome To The Other Side + Refuge

01. Trauma (0:50)
02. Paint The Devil On The Wall (5:07)
03. The Mirror in Your Eyes (3:44)
04. R.I.P. (Tribute To Dishonour Part 1) (2:13)
05. One More Time (Tribute To Dishonour Part 2) (5:46)
06. Requiem (Tribute To Dishonhour Part 3) (1:16)
07. I'm Crucified (Tribute To Dishonour Part 4) (5:38)
08. No Lies (3:10)
09. Point Of No Return (5:20)
10. Leave It All Behind (4:49)
11. Deep In The Night (4:07)
12. Welcome To The Other Side (4:23)
13. Lunatic (0:52)
14. Riders On The Moonlight (4:13)
15. Straight To Hell (4:33)
16. After The End (4:45)
17. Sister Demon (3:52)
18. Refuge ['Refuge' 1993 EP] (3:39)
19. Truth Hits Everybody ['Refuge' 1993 EP] (2:26)
20. I Can't Control Myself ['Refuge' 1993 EP] (2:48)
21. Beyond The Pale ['Refuge' 1993 EP] (6:25)

Лог создания рипа

Exact Audio Copy V1.3 from 2. September 2016
EAC extraction logfile from 19. April 2017, 12:32
Rage / Welcome To The Other Side + Refuge
Used drive : ASUS DRW-24B3ST Adapter: 1 ID: 0
Read mode : Secure
Utilize accurate stream : Yes
Defeat audio cache : Yes
Make use of C2 pointers : No
Read offset correction : 6
Overread into Lead-In and Lead-Out : No
Fill up missing offset samples with silence : Yes
Delete leading and trailing silent blocks : No
Null samples used in CRC calculations : Yes
Used interface : Installed external ASPI interface
Used output format : User Defined Encoder
Selected bitrate : 1024 kBit/s
Quality : High
Add ID3 tag : No
Command line compressor : C:\Program Files (x86)\Exact Audio Copy\FLAC\FLAC.EXE
Additional command line options : -V -8 -T "Date=%year%" -T "Genre=%genre%" %source%
TOC of the extracted CD
Track | Start | Length | Start sector | End sector
---------------------------------------------------------
1 | 0:00.00 | 0:50.32 | 0 | 3781
2 | 0:50.32 | 5:07.20 | 3782 | 26826
3 | 5:57.52 | 3:44.00 | 26827 | 43626
4 | 9:41.52 | 2:13.25 | 43627 | 53626
5 | 11:55.02 | 5:45.58 | 53627 | 79559
6 | 17:40.60 | 1:16.37 | 79560 | 85296
7 | 18:57.22 | 5:38.18 | 85297 | 110664
8 | 24:35.40 | 3:10.22 | 110665 | 124936
9 | 27:45.62 | 5:19.47 | 124937 | 148908
10 | 33:05.34 | 4:49.06 | 148909 | 170589
11 | 37:54.40 | 4:06.60 | 170590 | 189099
12 | 42:01.25 | 4:23.03 | 189100 | 208827
13 | 46:24.28 | 0:51.45 | 208828 | 212697
14 | 47:15.73 | 4:12.67 | 212698 | 231664
15 | 51:28.65 | 4:32.41 | 231665 | 252105
16 | 56:01.31 | 4:45.00 | 252106 | 273480
17 | 60:46.31 | 3:51.70 | 273481 | 290875
18 | 64:38.26 | 3:39.01 | 290876 | 307301
19 | 68:17.27 | 2:25.59 | 307302 | 318235
20 | 70:43.11 | 2:48.37 | 318236 | 330872
21 | 73:31.48 | 6:25.00 | 330873 | 359747
Range status and errors
Selected range
Filename C:\CD Rip By deminbek\Rage - Welcome To The Other Side + Refuge.wav
Peak level 100.0 %
Extraction speed 9.3 X
Range quality 100.0 %
Test CRC 0C8FD7F9
Copy CRC 0C8FD7F9
Copy OK
No errors occurred
AccurateRip summary
Track 1 accurately ripped (confidence 1) [3966A349] (AR v1)
Track 2 accurately ripped (confidence 2) [F82430F0] (AR v1)
Track 3 accurately ripped (confidence 1) [B6D2D524] (AR v1)
Track 4 accurately ripped (confidence 1) [B2CCA0C5] (AR v1)
Track 5 accurately ripped (confidence 1) [5A414101] (AR v1)
Track 6 accurately ripped (confidence 1) [36C5F008] (AR v1)
Track 7 accurately ripped (confidence 1) [EE458B50] (AR v1)
Track 8 accurately ripped (confidence 1) [7D98DC10] (AR v1)
Track 9 accurately ripped (confidence 1) [E3930882] (AR v1)
Track 10 accurately ripped (confidence 1) [AE975833] (AR v1)
Track 11 accurately ripped (confidence 1) [13E604AB] (AR v1)
Track 12 accurately ripped (confidence 1) [E450BA96] (AR v1)
Track 13 accurately ripped (confidence 1) [AAA6D3E0] (AR v1)
Track 14 accurately ripped (confidence 1) [DEAE5204] (AR v1)
Track 15 accurately ripped (confidence 1) [0964A467] (AR v1)
Track 16 accurately ripped (confidence 2) [EBFDF733] (AR v1)
Track 17 accurately ripped (confidence 1) [D04AD108] (AR v1)
Track 18 accurately ripped (confidence 1) [D7D304B3] (AR v1)
Track 19 accurately ripped (confidence 1) [CC50E54D] (AR v1)
Track 20 accurately ripped (confidence 1) [887B7C84] (AR v1)
Track 21 accurately ripped (confidence 1) [F8DD3720] (AR v1)
All tracks accurately ripped
End of status report
---- CUETools DB Plugin V2.1.6
[CTDB TOCID: VqodgXAI5UkpO16NfyX95PNBJXs-] disk not present in database
Submit result: VqodgXAI5UkpO16NfyX95PNBJXs- has been uploaded
==== Log checksum ABF14FD4579A3C78F43E585BE77AA979D7B29DEED2F78D971D79898E8720BAC2 ====
в этой коллекции присутствуют не все Агатовские издания, не хватает, по-моему трёх сдвоенных

To download the file disable ad blocking, and reload the page.

disable adblock How to disable ad blocking?

Download by magnet link 6.48 GB Download Torrent

Login using:

Загрузка...

Similar topics

(Speed/Heavy/Power Metal) Rocka Rollas - Celtic Kings - 2018, MP3, 320 kbps
 110 MB   0 | 0   01-Apr-18 18:55   0


   
Current time is: 16-Dec 06:30 :: All times are UTC + 3