-Arthemis - Blood • Fury • Domination (Japanese Edition)- Жанр: Power/Heavy/Thrash Metal
Носитель: CD
Год издания: 2017
Страна исполнителя: Italy (Verona, Veneto)
Страна-производитель диска: Japan
Издатель: UFR Records
Номер по каталогу: QIHC-20001
Аудиокодек: FLAC (*.flac)
Тип рипа: image+.cue
Битрейт аудио: lossless
Продолжительность: 00:52:23
Источник (релизер): Собственный CD
Наличие сканов: Да (Complete 600 DPI)
Доп. информация: Encyclopaedia Metallum
-

Треклист

01. Undead
02. Black Sun
03. Blood Red Sky
04. Blistering Eyes
05. If I Fall
06. Warcry
07. Into the Arena
08. Dark Fire
09. Firetribe
10. Inner-Fury Unleashed
11. Rituals
12. United We Rise (Bonus Track)
13. Alone (Acoustic Version) (Bonus Track)
-

Состав


Fabio Dessi - Vocals: Giorgio Terenziani - Bass:
Andrea Martongelli - Guitars: Francesco Tresca - Drums:
-

Лог создания рипа

Exact Audio Copy V1.3 from 2. September 2016
EAC extraction logfile from 19. April 2017, 19:20
Arthemis / Blood - Fury - Domination (Japan)
Used drive : MATSHITADVD-RAM UJ8G6 Adapter: 1 ID: 0
Read mode : Secure
Utilize accurate stream : Yes
Defeat audio cache : Yes
Make use of C2 pointers : No
Read offset correction : 103
Overread into Lead-In and Lead-Out : No
Fill up missing offset samples with silence : Yes
Delete leading and trailing silent blocks : No
Null samples used in CRC calculations : Yes
Used interface : Native Win32 interface for Win NT & 2000
Used output format : User Defined Encoder
Selected bitrate : 1024 kBit/s
Quality : High
Add ID3 tag : No
Command line compressor : C:\Program Files (x86)\Exact Audio Copy\FLAC\FLAC.EXE
Additional command line options : -V -8 -T "Date=%year%" -T"Genre=%genre%" -T"COMMENT=Ripped by Ilijan - ilko" -8 -V %source%
TOC of the extracted CD
Track | Start | Length | Start sector | End sector
---------------------------------------------------------
1 | 0:00.00 | 3:51.30 | 0 | 17354
2 | 3:51.30 | 3:37.42 | 17355 | 33671
3 | 7:28.72 | 4:33.18 | 33672 | 54164
4 | 12:02.15 | 3:31.30 | 54165 | 70019
5 | 15:33.45 | 4:14.74 | 70020 | 89143
6 | 19:48.44 | 4:49.45 | 89144 | 110863
7 | 24:38.14 | 3:58.62 | 110864 | 128775
8 | 28:37.01 | 4:06.63 | 128776 | 147288
9 | 32:43.64 | 4:13.45 | 147289 | 166308
10 | 36:57.34 | 3:34.11 | 166309 | 182369
11 | 40:31.45 | 3:14.44 | 182370 | 196963
12 | 43:46.14 | 3:52.38 | 196964 | 214401
13 | 47:38.52 | 4:45.12 | 214402 | 235788
Range status and errors
Selected range
Filename D:\ilko\Arthemis - Blood - Fury - Domination (Japan).wav
Peak level 98.8 %
Extraction speed 4.1 X
Range quality 100.0 %
Test CRC 04E83746
Copy CRC 04E83746
Copy OK
No errors occurred
AccurateRip summary
Track 1 not present in database
Track 2 not present in database
Track 3 not present in database
Track 4 not present in database
Track 5 not present in database
Track 6 not present in database
Track 7 not present in database
Track 8 not present in database
Track 9 not present in database
Track 10 not present in database
Track 11 not present in database
Track 12 not present in database
Track 13 not present in database
None of the tracks are present in the AccurateRip database
End of status report
---- CUETools DB Plugin V2.1.6
[CTDB TOCID: AkVthAMzgYwYhUYNLCHRRv4MmtY-] disk not present in database
Submit result: AkVthAMzgYwYhUYNLCHRRv4MmtY- has been uploaded
==== Log checksum 4C75E30377F976FB0803DBB00F780A2CA4E277CEE59073034CC989E330A46030 ====
-

To download the file disable ad blocking, and reload the page.

disable adblock How to disable ad blocking?

Download by magnet link 483 MB Download Torrent

Login using:

Similar topics

(Power | Heavy | Thrash Metal) Nine Stitches - Drunk - 1994, MP3, 320 kbps
 100 MB   0 | 0   15-Jun-18 16:10   0


   
Current time is: 16-Oct 08:37 :: All times are UTC ± 0