Страна исполнителя (группы): Italy
Жанр : Heavy Metal || Носитель : CD || Год издания : 2005 - 2011
Аудиокодек: WavPack (*.wv)&APE (*.ape) || Тип рипа: image+.cue
Битрейт аудио: lossless || Продолжительность: 02:30:09
Наличие сканов в содержимом раздачи: да

2005 - In the Name of God (Reissued-2006); 01:03:31

Аудиокодек: WavPack (*.wv)
Издатель (лейбл): My Graveyard Productions
Номер по каталогу: MGP003
Страна-производитель диска (релиза): Italy
Источник (релизер): FireSnake ( спасибо )
Треклист:
01. Where Reigns The Sword (05:09)
02. In The Name Of God (06:11)
03. Screaming Shadows (06:01)
04. Damned Soul (08:37)
05. Broken Promises (part I) (04:55)
06. Broken Promises (part II) (06:56)
07. The Holy Grail (05:13)
08. The Shits Are Everywhere (06:22)
09. Open The Doors (09:06)
10. The Holy Grail (piano reprise) (01:29)
11. Dark Shadow (bonus track) (03:29)

Лог создания рипа

Exact Audio Copy V0.99 prebeta 5 from 4. May 2009
EAC extraction logfile from 26. February 2011, 19:07
Screaming Shadows / In The Name Of God
Used drive : Optiarc DVD RW AD-7260S Adapter: 3 ID: 0
Read mode : Secure
Utilize accurate stream : Yes
Defeat audio cache : Yes
Make use of C2 pointers : No
Read offset correction : 48
Overread into Lead-In and Lead-Out : No
Fill up missing offset samples with silence : Yes
Delete leading and trailing silent blocks : No
Null samples used in CRC calculations : Yes
Used interface : Installed external ASPI interface
Used output format : User Defined Encoder
Selected bitrate : 1024 kBit/s
Quality : High
Add ID3 tag : No
Command line compressor : D:\Program Files\Exact Audio Copy\WavPack\wavpack.exe
Additional command line options : -hhx6 -w "Artist=%a" -w "Album=%g" -w "Year=%y" -w "Genre=%m" -w "Cuesheet=@*.cue" %s %d
TOC of the extracted CD
Track | Start | Length | Start sector | End sector
---------------------------------------------------------
1 | 0:00.00 | 5:09.03 | 0 | 23177
2 | 5:09.03 | 6:11.43 | 23178 | 51045
3 | 11:20.46 | 6:01.46 | 51046 | 78166
4 | 17:22.17 | 8:37.28 | 78167 | 116969
5 | 25:59.45 | 4:55.23 | 116970 | 139117
6 | 30:54.68 | 6:56.02 | 139118 | 170319
7 | 37:50.70 | 5:13.67 | 170320 | 193861
8 | 43:04.62 | 6:22.22 | 193862 | 222533
9 | 49:27.09 | 9:06.08 | 222534 | 263491
10 | 58:33.17 | 1:29.30 | 263492 | 270196
11 | 60:02.47 | 3:29.13 | 270197 | 285884
Range status and errors
Selected range
Filename H:\SCREAMING SHADOWS [2006] [CD] In The Name Of God [EAC-WV]\Screaming Shadows - In The Name Of God.wav
Peak level 100.0 %
Range quality 100.0 %
Copy CRC 9609127E
Copy OK
No errors occurred
AccurateRip summary
Track 1 not present in database
Track 2 not present in database
Track 3 not present in database
Track 4 not present in database
Track 5 not present in database
Track 6 not present in database
Track 7 not present in database
Track 8 not present in database
Track 9 not present in database
Track 10 not present in database
Track 11 not present in database
None of the tracks are present in the AccurateRip database
End of status report

Скриншот спектра частот

Состав

Francesco Marras: guitar
Andrea Giribaldi: guitar and keyboard
Antonio Doro: bass
Flavio Fancellu: drums
Luigi Usai: vocal

2009 - New Era of Shadows ; 00:39:46

Аудиокодек: APE (*.ape)
Издатель (лейбл): My Graveyard Productions
Номер по каталогу: MGP-037
Страна-производитель диска (релиза): Italy
Источник (релизер): exploded ( спасибо )
Треклист:
1. Blood and Dust 05:40
2. Point of Light 04:46
3. New Era of Shadows 03:50
4. The Way of the Warrior 04:33
5. Echoes in the Shades 00:54
6. What the Hell Is Goin' on 06:38
7. Lady Hawk 03:18
8. Break the Chains 05:03
9. Desperate Cry 05:00

Лог создания рипа

EAC extraction logfile from 20. May 2009, 19:28 for CD
Screaming Shadows / New Era Of Shadows
Used drive : HL-DT-STDVDRAM GH20NS10 Adapter: 0 ID: 1
Read mode : Secure with NO C2, accurate stream, disable cache
Read offset correction : 667
Overread into Lead-In and Lead-Out : No
Used output format : C:\Program Files\Exact Audio Copy\MAC.EXE (Monkey's Audio Lossless Encoder)
High Lossless Compression
Other options :
Fill up missing offset samples with silence : Yes
Delete leading and trailing silent blocks : No
Native Win32 interface for Win NT & 2000
Range status and errors
Selected range
Filename Q:\- Lossless to Sort\Screaming Shadows.wav
Peak level 100.0 %
Range quality 100.0 %
CRC 87248E1A
Copy OK
No errors occured
End of status report

Скриншот спектра частот

Состав

Antonio Doro Bass
Francesco Marras Guitars
Efisio Pregio Drums
Daniele Ledda Vocals

2011 - Night Keeper ; 00:46:52

Аудиокодек: WavPack (*.wv)
Издатель (лейбл): Jolly Roger Records
Номер по каталогу: JRR028
Страна-производитель диска (релиза): Italy
Источник (релизер): FireSnake ( спасибо )
Треклист:
01. Holy Knights (04:24)
02. Planet X (05:25)
03. Midnight (03:40)
04. Who Dares Wins (03:10)
05. In The Dawn Of Time (06:01)
06. Black Rain (01:38)
07. Night Keeper (03:57)
08. Angel Of Darkness (01:04)
09. Free Again (04:31)
10. Lord Of The Sea (05:26)
11. Cherokee Spirit (00:56)
12. Wild Horses (06:35)

Лог создания рипа

Exact Audio Copy V0.99 prebeta 5 from 4. May 2009
EAC extraction logfile from 5. November 2011, 1:46
Screaming Shadows / Night Keeper
Used drive : Optiarc DVD RW AD-7260S Adapter: 3 ID: 0
Read mode : Secure
Utilize accurate stream : Yes
Defeat audio cache : Yes
Make use of C2 pointers : No
Read offset correction : 48
Overread into Lead-In and Lead-Out : No
Fill up missing offset samples with silence : Yes
Delete leading and trailing silent blocks : No
Null samples used in CRC calculations : Yes
Used interface : Installed external ASPI interface
Used output format : User Defined Encoder
Selected bitrate : 1024 kBit/s
Quality : High
Add ID3 tag : No
Command line compressor : D:\Program Files\Exact Audio Copy\WavPack\wavpack.exe
Additional command line options : -hhx6 -w "Artist=%a" -w "Album=%g" -w "Year=%y" -w "Genre=%m" -w "Cuesheet=@*.cue" %s %d
TOC of the extracted CD
Track | Start | Length | Start sector | End sector
---------------------------------------------------------
1 | 0:00.00 | 4:24.12 | 0 | 19811
2 | 4:24.12 | 5:25.05 | 19812 | 44191
3 | 9:49.17 | 3:40.53 | 44192 | 60744
4 | 13:29.70 | 3:10.27 | 60745 | 75021
5 | 16:40.22 | 6:01.61 | 75022 | 102157
6 | 22:42.08 | 1:38.09 | 102158 | 109516
7 | 24:20.17 | 3:57.06 | 109517 | 127297
8 | 28:17.23 | 1:04.59 | 127298 | 132156
9 | 29:22.07 | 4:31.74 | 132157 | 152555
10 | 33:54.06 | 5:26.25 | 152556 | 177030
11 | 39:20.31 | 0:56.58 | 177031 | 181288
12 | 40:17.14 | 6:35.24 | 181289 | 210937
Range status and errors
Selected range
Filename H:\SCREAMING SHADOWS [2011] [CD] Night Keeper [EAC-WV]\Screaming Shadows - Night Keeper.wav
Peak level 98.9 %
Range quality 100.0 %
Test CRC 88706846
Copy CRC 88706846
Copy OK
No errors occurred
AccurateRip summary
Track 1 not present in database
Track 2 not present in database
Track 3 not present in database
Track 4 not present in database
Track 5 not present in database
Track 6 not present in database
Track 7 not present in database
Track 8 not present in database
Track 9 not present in database
Track 10 not present in database
Track 11 not present in database
Track 12 not present in database
None of the tracks are present in the AccurateRip database
End of status report

Скриншот спектра частот

Состав

Gianluigi Girardi (guest): vocals
Francesko Marras: guitars
Antonio Doro: bass
Mattia Stancioiu (guest): drums

To download the file disable ad blocking, and reload the page.

disable adblock How to disable ad blocking?

Download by magnet link 1.14 GB Download Torrent

Login using:

Загрузка...

Similar topics

(Heavy Metal) Furious - Dead Mark - 2017, MP3, 320 kbps
 179 MB   0 | 0   26-May-17 21:27   0
(Heavy / Power Metal) Afterdreams - Nightmare - 2017, MP3, 320 kbps
 111 MB   0 | 0   26-May-17 21:27   1
(Heavy Metal, Groove Metal) Blaxem - Who Cares - 2017, MP3, 320 kbps
 86 MB   0 | 0   26-May-17 21:27   0
(Heavy Metal/Progressive) Wine Guardian - Onirica - 2017, MP3, 320 kbps
 115 MB   0 | 0   26-May-17 21:27   0


   
Current time is: 18-Dec 20:08 :: All times are UTC + 3