Keen Hue / Juicy Fruit Lucy
Жанр: Heavy Metal
Страна-производитель диска (релиза): Germany
Год издания: 1993
Издатель (лейбл): Black Mark Prod.
Номер по каталогу: BMCD41
Страна исполнителя (группы): Sweden
Аудиокодек: FLAC (*.flac)
Тип рипа: image+.cue
Битрейт аудио: lossless
Продолжительность: 00:49:03
Источник (релизер): Свой рип
Наличие сканов в содержимом раздачи: да
Треклист:
1. My Favourite Waste of Time
2. Juicy Fruit Lucy
3. Bad Sign
4. Coming Home
5. Hey Hi Hidi Ho
6. Tell No Tales
7. Bad Reputation
8. I Will Make You Feel Alright
9. Into the Night
10. Hard Life
11. Pray for the Rescue

Лог создания рипа

Exact Audio Copy V1.0 beta 6 from 9. April 2015
EAC extraction logfile from 17. April 2017, 18:22
Keen Hue / Juicy Fruit Lucy
Used drive : Optiarc DVD RW AD-7700S Adapter: 1 ID: 1
Read mode : Secure
Utilize accurate stream : Yes
Defeat audio cache : Yes
Make use of C2 pointers : No
Read offset correction : 48
Overread into Lead-In and Lead-Out : No
Fill up missing offset samples with silence : Yes
Delete leading and trailing silent blocks : No
Null samples used in CRC calculations : Yes
Used interface : Native Win32 interface for Win NT & 2000
Used output format : User Defined Encoder
Selected bitrate : 1024 kBit/s
Quality : High
Add ID3 tag : No
Command line compressor : C:\Program Files (x86)\Exact Audio Copy\FLAC\FLAC.EXE
Additional command line options : -V -8 -T "Date=%year%" -T "Genre=%genre%" %source%
TOC of the extracted CD
Track | Start | Length | Start sector | End sector
---------------------------------------------------------
1 | 0:00.00 | 4:02.12 | 0 | 18161
2 | 4:02.12 | 5:01.13 | 18162 | 40749
3 | 9:03.25 | 3:56.45 | 40750 | 58494
4 | 12:59.70 | 5:12.60 | 58495 | 81954
5 | 18:12.55 | 3:51.65 | 81955 | 99344
6 | 22:04.45 | 5:16.45 | 99345 | 123089
7 | 27:21.15 | 4:17.10 | 123090 | 142374
8 | 31:38.25 | 4:52.40 | 142375 | 164314
9 | 36:30.65 | 4:00.12 | 164315 | 182326
10 | 40:31.02 | 3:51.43 | 182327 | 199694
11 | 44:22.45 | 4:39.40 | 199695 | 220659
Range status and errors
Selected range
Filename C:\Users\Олег\Desktop\Keen Hue - Juicy Fruit Lucy.wav
Peak level 100.0 %
Extraction speed 4.5 X
Range quality 100.0 %
Test CRC DEE6FEC2
Copy CRC DEE6FEC2
Copy OK
No errors occurred
AccurateRip summary
Track 1 accurately ripped (confidence 1) [561FBCD3] (AR v2)
Track 2 accurately ripped (confidence 1) [68C635C0] (AR v2)
Track 3 accurately ripped (confidence 1) [198CD5C4] (AR v2)
Track 4 accurately ripped (confidence 1) [47C3A5EA] (AR v2)
Track 5 accurately ripped (confidence 1) [581A717B] (AR v2)
Track 6 accurately ripped (confidence 1) [8BE057B2] (AR v2)
Track 7 accurately ripped (confidence 1) [4FA8339A] (AR v2)
Track 8 accurately ripped (confidence 1) [5C21B809] (AR v2)
Track 9 accurately ripped (confidence 1) [EA723799] (AR v2)
Track 10 accurately ripped (confidence 1) [93544359] (AR v2)
Track 11 accurately ripped (confidence 1) [61ABE466] (AR v2)
All tracks accurately ripped
End of status report
---- CUETools DB Plugin V2.1.6
[CTDB TOCID: cvHCQVE0SD5zOiHQhZfNSgmnjYs-] found
Submit result: cvHCQVE0SD5zOiHQhZfNSgmnjYs- has been confirmed
Track | CTDB Status
1 | (1/1) Accurately ripped
2 | (1/1) Accurately ripped
3 | (1/1) Accurately ripped
4 | (1/1) Accurately ripped
5 | (1/1) Accurately ripped
6 | (1/1) Accurately ripped
7 | (1/1) Accurately ripped
8 | (1/1) Accurately ripped
9 | (1/1) Accurately ripped
10 | (1/1) Accurately ripped
11 | (1/1) Accurately ripped
==== Log checksum C9704CB5196715E1752CA9F431E3B0A6183D7F422F9F712BB5B9C4B54C1F483B ====

Состав

Mats Frimodigs - Vocals (ex One Way Street)
Stefan Morén - Guitars, backing vocals (ex UNITED)
Kent Jansson - Bass, backing vocals (ex Six Feet Under)
Ake Nystrom - Guitar
Peter Ericksson - Drums
Per Andersson - Keyboards, backing vocals

To download the file disable ad blocking, and reload the page.

disable adblock How to disable ad blocking?

Download by magnet link 379 MB Download Torrent

Login using:

Similar topics

(Heavy Metal) Konnen (Können) - The Aphelion Project - 2017, MP3, 320 kbps
 102 MB   0 | 0   25-Jul-17 03:15   0


   
Current time is: 16-Oct 08:40 :: All times are UTC ± 0