Ozzy Osbourne / The Secret Songs
Жанр: Heavy Metal
Носитель: CD
Страна-производитель диска (релиза): Чехия ?
Год издания: 1996?
Издатель (лейбл): Unofficial Release
Страна исполнителя (группы): UK
Аудиокодек: FLAC (*.flac)
Тип рипа: image+.cue
Битрейт аудио: lossless
Продолжительность: 74:49
Источник (релизер): собственный сd
Наличие сканов в содержимом раздачи: да
Треклист:
1 Don't Blame Me (from Japanese No More Tears)
2 Party With The Animals (from Japanese No More Tears)
3 Living With The Enemy (from Perry Mason CD-single)
4 The Whole Worlds Falling Down (from Japanese Ozzmosis )
5 Voodoo Dancer (from See You on The Other Side CD-single )
6 Amiee (from See You on The Other Side CD-single)
7 Slow Down (from Bark At The Moon 12"-single )
8 Liar (from Bible Of Ozz, special Japanese version of No Rest For The Wicked)
9 One Up The B Side (from Bark At ТЪе Moon 12"-single )
10 Hero (unlisted hidden bonus track on the original 1988 release No Rest For The Wicked )
11 Purple Haze (from Stairway To Heaven / Highway To Hell )
12 Lead Clones (with Gary Moore from Gary Moore's After The War album)
13 Ain't No Nice Guy (with Lemmy from Motorhead's March Or Die album, Slash plays the guitar solo )
14 Close My Eyes Forever (with Lita Ford from Lita Ford's Lita album )
15 You Lookin At Me (from Crazy Train 7"single)
16 You Said It All (from Mr. Crowley 7"single)

Лог создания рипа

X Lossless Decoder version 20160920 (149.2)
XLD extraction logfile from 2017-04-15 15:04:35 +0300
Ozzy Osbourne / The Secret Songs
Used drive : OPTIARC DVD RW AD-5630A (revision 2CH9)
Media type : Pressed CD
Ripper mode : XLD Secure Ripper
Disable audio cache : OK for the drive with a cache less than 1375KiB
Make use of C2 pointers : NO
Read offset correction : 48
Max retry count : 20
Gap status : Analyzed, Appended
TOC of the extracted CD
Track | Start | Length | Start sector | End sector
---------------------------------------------------------
1 | 00:00:00 | 05:00:32 | 0 | 22531
2 | 05:00:32 | 04:19:32 | 22532 | 41988
3 | 09:19:64 | 05:32:69 | 41989 | 66957
4 | 14:52:58 | 05:07:12 | 66958 | 89994
5 | 19:59:70 | 05:25:62 | 89995 | 114431
6 | 25:25:57 | 04:46:11 | 114432 | 135892
7 | 30:11:68 | 04:19:31 | 135893 | 155348
8 | 34:31:24 | 04:28:50 | 155349 | 175498
9 | 38:59:74 | 03:29:56 | 175499 | 191229
10 | 42:29:55 | 04:48:57 | 191230 | 212886
11 | 47:18:37 | 04:17:66 | 212887 | 232227
12 | 51:36:28 | 15:00:72 | 232228 | 299799
13 | 66:37:25 | 04:08:22 | 299800 | 318421
14 | 70:45:47 | 03:57:50 | 318422 | 336246
AccurateRip Summary
Disc not found in AccurateRip DB.
All Tracks
Filename : /Users/dima/Documents/The Secret Songs.flac
Album gain : -8.52 dB
Peak : 1.000000
CRC32 hash (test run) : D3C0E46D
CRC32 hash : D3C0E46D
CRC32 hash (skip zero) : D894B272
Statistics
Read error : 0
Jitter error (maybe fixed) : 0
Retry sector count : 22
Damaged sector count : 0
Track 01
Pre-gap length : 00:02:00
Track gain : -7.54 dB
Peak : 0.999969
CRC32 hash (test run) : 2D131039
CRC32 hash : 2D131039
CRC32 hash (skip zero) : DC60FD29
AccurateRip v1 signature : F541F32B
AccurateRip v2 signature : 51535999
->Track not present in AccurateRip database.
Statistics
Read error : 0
Jitter error (maybe fixed) : 0
Retry sector count : 0
Damaged sector count : 0
Track 02
Pre-gap length : 00:02:00
Track gain : -7.30 dB
Peak : 0.996460
CRC32 hash (test run) : 5141E0FF
CRC32 hash : 5141E0FF
CRC32 hash (skip zero) : FECA2FB4
AccurateRip v1 signature : 1A6A091B
AccurateRip v2 signature : EC0DC8AB
->Track not present in AccurateRip database.
Statistics
Read error : 0
Jitter error (maybe fixed) : 0
Retry sector count : 0
Damaged sector count : 0
Track 03
Pre-gap length : 00:02:00
Track gain : -9.67 dB
Peak : 1.000000
CRC32 hash (test run) : 0C9BCADE
CRC32 hash : 0C9BCADE
CRC32 hash (skip zero) : 6E863381
AccurateRip v1 signature : 9595ED80
AccurateRip v2 signature : A966EDD9
->Track not present in AccurateRip database.
Statistics
Read error : 0
Jitter error (maybe fixed) : 0
Retry sector count : 0
Damaged sector count : 0
Track 04
Pre-gap length : 00:02:00
Track gain : -9.37 dB
Peak : 1.000000
CRC32 hash (test run) : C1B59463
CRC32 hash : C1B59463
CRC32 hash (skip zero) : DD90B370
AccurateRip v1 signature : 61F5FCAB
AccurateRip v2 signature : C1F8E859
->Track not present in AccurateRip database.
Statistics
Read error : 0
Jitter error (maybe fixed) : 0
Retry sector count : 0
Damaged sector count : 0
Track 05
Pre-gap length : 00:02:00
Track gain : -8.79 dB
Peak : 0.999969
CRC32 hash (test run) : D929CC7F
CRC32 hash : D929CC7F
CRC32 hash (skip zero) : B4E81450
AccurateRip v1 signature : 4E247FEB
AccurateRip v2 signature : FCF3AF2E
->Track not present in AccurateRip database.
Statistics
Read error : 0
Jitter error (maybe fixed) : 0
Retry sector count : 0
Damaged sector count : 0
Track 06
Pre-gap length : 00:02:00
Track gain : -8.73 dB
Peak : 0.999969
CRC32 hash (test run) : B5462FC5
CRC32 hash : B5462FC5
CRC32 hash (skip zero) : 9BF0580E
AccurateRip v1 signature : 19E15DA0
AccurateRip v2 signature : 96AEFF16
->Track not present in AccurateRip database.
Statistics
Read error : 0
Jitter error (maybe fixed) : 0
Retry sector count : 0
Damaged sector count : 0
Track 07
Pre-gap length : 00:02:00
Track gain : -6.99 dB
Peak : 0.963989
CRC32 hash (test run) : BDAD8B44
CRC32 hash : BDAD8B44
CRC32 hash (skip zero) : 840269E9
AccurateRip v1 signature : B0FB3D1F
AccurateRip v2 signature : EC0041A0
->Track not present in AccurateRip database.
Statistics
Read error : 0
Jitter error (maybe fixed) : 0
Retry sector count : 0
Damaged sector count : 0
Track 08
Pre-gap length : 00:02:00
Track gain : -6.89 dB
Peak : 0.955536
CRC32 hash (test run) : E6708B30
CRC32 hash : E6708B30
CRC32 hash (skip zero) : 49EF2AB4
AccurateRip v1 signature : E6CE407E
AccurateRip v2 signature : 9958EC8F
->Track not present in AccurateRip database.
Statistics
Read error : 0
Jitter error (maybe fixed) : 0
Retry sector count : 0
Damaged sector count : 0
Track 09
Pre-gap length : 00:02:00
Track gain : -8.65 dB
Peak : 0.974487
CRC32 hash (test run) : D74DB47F
CRC32 hash : D74DB47F
CRC32 hash (skip zero) : BDA4CDFF
AccurateRip v1 signature : A1A2576A
AccurateRip v2 signature : B12CBF85
->Track not present in AccurateRip database.
Statistics
Read error : 0
Jitter error (maybe fixed) : 0
Retry sector count : 0
Damaged sector count : 0
Track 10
Pre-gap length : 00:02:00
Track gain : -7.22 dB
Peak : 0.969238
CRC32 hash (test run) : 3AF0418F
CRC32 hash : 3AF0418F
CRC32 hash (skip zero) : 3215F7D7
AccurateRip v1 signature : 48E5B5C1
AccurateRip v2 signature : E9C3E2F5
->Track not present in AccurateRip database.
Statistics
Read error : 0
Jitter error (maybe fixed) : 0
Retry sector count : 0
Damaged sector count : 0
Track 11
Pre-gap length : 00:02:00
Track gain : -7.88 dB
Peak : 0.974518
CRC32 hash (test run) : 425DE49F
CRC32 hash : 425DE49F
CRC32 hash (skip zero) : A6E73E73
AccurateRip v1 signature : C5822CE3
AccurateRip v2 signature : 044011C9
->Track not present in AccurateRip database.
Statistics
Read error : 0
Jitter error (maybe fixed) : 0
Retry sector count : 0
Damaged sector count : 0
Track 12
Pre-gap length : 00:02:00
Track gain : -7.92 dB
Peak : 0.984528
CRC32 hash (test run) : 86961394
CRC32 hash : 86961394
CRC32 hash (skip zero) : 015D6F0F
AccurateRip v1 signature : FC928E19
AccurateRip v2 signature : 9C2648A0
->Track not present in AccurateRip database.
Statistics
Read error : 0
Jitter error (maybe fixed) : 0
Retry sector count : 0
Damaged sector count : 0
Track 13
Pre-gap length : 00:02:00
Track gain : -7.05 dB
Peak : 0.975861
CRC32 hash (test run) : 4F12801F
CRC32 hash : 4F12801F
CRC32 hash (skip zero) : C45B2387
AccurateRip v1 signature : 56C7199F
AccurateRip v2 signature : 9CF53D99
->Track not present in AccurateRip database.
Statistics
Read error : 0
Jitter error (maybe fixed) : 0
Retry sector count : 0
Damaged sector count : 0
Track 14
Pre-gap length : 00:02:00
Track gain : -9.49 dB
Peak : 0.991089
CRC32 hash (test run) : E722506D
CRC32 hash : E722506D
CRC32 hash (skip zero) : 0A2B0A27
AccurateRip v1 signature : 23295C97
AccurateRip v2 signature : 9CD1602D
->Track not present in AccurateRip database.
Statistics
Read error : 0
Jitter error (maybe fixed) : 0
Retry sector count : 22
Damaged sector count : 0
No errors occurred
End of status report

Содержание индексной карты (.CUE)

TITLE "The Secret Songs"
PERFORMER "Ozzy Osbourne"
REM GENRE "Metal"
REM DISCID BC11830E
REM REPLAYGAIN_ALBUM_GAIN -8.52 dB
REM REPLAYGAIN_ALBUM_PEAK 1.000000
FILE "The Secret Songs.flac" WAVE
TRACK 01 AUDIO
TITLE "Don't Blame Me"
REM REPLAYGAIN_TRACK_GAIN -7.54 dB
REM REPLAYGAIN_TRACK_PEAK 0.999969
INDEX 01 00:00:00
TRACK 02 AUDIO
TITLE "Party With The Animals"
REM REPLAYGAIN_TRACK_GAIN -7.30 dB
REM REPLAYGAIN_TRACK_PEAK 0.996460
INDEX 00 04:58:32
INDEX 01 05:00:32
TRACK 03 AUDIO
TITLE "Living With The Enemy"
REM REPLAYGAIN_TRACK_GAIN -9.67 dB
REM REPLAYGAIN_TRACK_PEAK 1.000000
INDEX 00 09:17:64
INDEX 01 09:19:64
TRACK 04 AUDIO
TITLE "The Whole World's Falling Down"
REM REPLAYGAIN_TRACK_GAIN -9.37 dB
REM REPLAYGAIN_TRACK_PEAK 1.000000
INDEX 00 14:50:58
INDEX 01 14:52:58
TRACK 05 AUDIO
TITLE "Voodoo Dancer"
REM REPLAYGAIN_TRACK_GAIN -8.79 dB
REM REPLAYGAIN_TRACK_PEAK 0.999969
INDEX 00 19:57:70
INDEX 01 19:59:70
TRACK 06 AUDIO
TITLE "Amiee"
REM REPLAYGAIN_TRACK_GAIN -8.73 dB
REM REPLAYGAIN_TRACK_PEAK 0.999969
INDEX 00 25:23:57
INDEX 01 25:25:57
TRACK 07 AUDIO
TITLE "Slow Down"
REM REPLAYGAIN_TRACK_GAIN -6.99 dB
REM REPLAYGAIN_TRACK_PEAK 0.963989
INDEX 00 30:09:68
INDEX 01 30:11:68
TRACK 08 AUDIO
TITLE "Liar"
REM REPLAYGAIN_TRACK_GAIN -6.89 dB
REM REPLAYGAIN_TRACK_PEAK 0.955536
INDEX 00 34:29:24
INDEX 01 34:31:24
TRACK 09 AUDIO
TITLE "One Up The B Side"
REM REPLAYGAIN_TRACK_GAIN -8.65 dB
REM REPLAYGAIN_TRACK_PEAK 0.974487
INDEX 00 38:57:74
INDEX 01 38:59:74
TRACK 10 AUDIO
TITLE "Hero"
REM REPLAYGAIN_TRACK_GAIN -7.22 dB
REM REPLAYGAIN_TRACK_PEAK 0.969238
INDEX 00 42:27:55
INDEX 01 42:29:55
TRACK 11 AUDIO
TITLE "Purple Haze"
REM REPLAYGAIN_TRACK_GAIN -7.88 dB
REM REPLAYGAIN_TRACK_PEAK 0.974518
INDEX 00 47:16:37
INDEX 01 47:18:37
TRACK 12 AUDIO
TITLE "Lead Clones, Ain't No Nice Guy,Close My Eyes Foreverer"
REM REPLAYGAIN_TRACK_GAIN -7.92 dB
REM REPLAYGAIN_TRACK_PEAK 0.984528
INDEX 00 51:34:28
INDEX 01 51:36:28
TRACK 13 AUDIO
TITLE "You Lookin At Me"
REM REPLAYGAIN_TRACK_GAIN -7.05 dB
REM REPLAYGAIN_TRACK_PEAK 0.975861
INDEX 00 66:35:25
INDEX 01 66:37:25
TRACK 14 AUDIO
TITLE "You Said It All"
REM REPLAYGAIN_TRACK_GAIN -9.49 dB
REM REPLAYGAIN_TRACK_PEAK 0.991089
INDEX 00 70:43:47
INDEX 01 70:45:47

Об исполнителе (группе)

Сами знаете кто

Об альбоме (сборнике)

Неофициальное издание. Содержит редкие вещи, невошедшие в альбомы . Это B- cайды с синглов, бонусы с японских изданиий и композиции , исполненные Оззи на альбомах других исполнителей ( Gary Moore, Lita Ford , Motorhead) . Дополнительно, Purple Haze -ковер Хендрикса со сборника Stairway to Heaven/Highway to Hell 1989 г. и
Hero в оригинальном издании No Rest for the Wicked скрытый бонусный трек .
Происхождение диска неизвестно, был куплен лет десять назад в Праге в маленьком магазинчике. В сети указывается 1996 год выхода компиляции, похоже на правду , все вещи там выпущены именно до этого года

To download the file disable ad blocking, and reload the page.

disable adblock How to disable ad blocking?

Download by magnet link 757 MB Download Torrent

Login using:

Similar topics



   
Current time is: 16-Oct 07:29 :: All times are UTC ± 0