N.O.W.(Holy Mother) / Tabloid Crush
Жанр: Heavy Metal, Melodic Hardcore
Носитель: CD
Страна-производитель диска (релиза): Germany
Год издания: 1996
Издатель (лейбл): Cream Records
Номер по каталогу: CREAM 009
Страна исполнителя (группы): USA
Аудиокодек: FLAC (*.flac)
Тип рипа: image+.cue
Битрейт аудио: lossless
Продолжительность: 42:20.000 (112 014 000 samples)
Источник (релизер): ********
Наличие сканов в содержимом раздачи: нет
Треклист:
Spit
In The Gutter
Electric Love
Yesterday
Disconnected
Machine World
Time Of The Season
Hole In The Sky
Shoot The News
Spanish Skies
Prince Of The Garden

Лог создания рипа

Exact Audio Copy V0.99 prebeta 5 from 4. May 2009
Отчёт EAC об извлечении, выполненном 7. октября 2009, 13:17
N.O.W. / Tabloid Crush
Дисковод: _NEC DVD_RW ND-3500AG Adapter: 3 ID: 0
Режим чтения : Достоверность
Использование точного потока : Да
Отключение кэша аудио : Да
Использование указателей C2 : Нет
Коррекция смещения при чтении : 48
Способность читать области Lead-in и Lead-out : Нет
Заполнение пропущенных сэмплов тишиной : Да
Удаление блоков с тишиной в начале и конце : Нет
При вычислениях CRC использовались нулевые сэмплы : Да
Интерфейс : Установленный внешний ASPI-интерфейс
Выходной формат : Внутренние WAV-операции
Формат сэмплов : 44.100 Гц; 16 бит; стерео
TOC извлечённого CD
Трек | Старт | Длительность | Начальный сектор | Конечный сектор
---------------------------------------------------------------------
1 | 0:00.00 | 2:54.55 | 0 | 13104
2 | 2:54.55 | 4:05.25 | 13105 | 31504
3 | 7:00.05 | 3:02.10 | 31505 | 45164
4 | 10:02.15 | 4:39.45 | 45165 | 66134
5 | 14:41.60 | 3:31.55 | 66135 | 82014
6 | 18:13.40 | 3:53.40 | 82015 | 99529
7 | 22:07.05 | 3:27.17 | 99530 | 115071
8 | 25:34.22 | 4:44.65 | 115072 | 136436
9 | 30:19.12 | 2:46.33 | 136437 | 148919
10 | 33:05.45 | 4:52.67 | 148920 | 170886
11 | 37:58.37 | 4:21.38 | 170887 | 190499
Характеристики диапазона извлечения и сообщения об ошибках
Выбранный диапазон
Имя файла D:\N.O.W. - Tabloid Crush.wav
Пиковый уровень 98.8 %
Качество диапазона 99.9 %
CRC теста D692522E
CRC копии D692522E
Копирование... OK
Ошибок не произошло
AccurateRip: сводка
Трек 1 точное извлечение (доверие 1) [123E519D]
Трек 2 точное извлечение (доверие 1) [E9A36615]
Трек 3 точное извлечение (доверие 1) [E1BA007E]
Трек 4 точное извлечение (доверие 1) [7034E794]
Трек 5 точное извлечение (доверие 1) [C90886D0]
Трек 6 точное извлечение (доверие 1) [C2F1A003]
Трек 7 точное извлечение (доверие 1) [91CA72C9]
Трек 8 точное извлечение (доверие 1) [C4A40575]
Трек 9 точное извлечение (доверие 1) [E02CFDC8]
Трек 10 точное извлечение (доверие 1) [CCD84D9B]
Трек 11 точное извлечение (доверие 1) [1E3A6A6B]
Все треки извлечены точно
Конец отчёта

Содержание индексной карты (.CUE)

REM GENRE "Hard Metal"
REM DATE 1996
REM DISCID 9309EC0B
REM COMMENT "ExactAudioCopy v0.99pb5"
PERFORMER "N.O.W."
TITLE "Tabloid Crush"
FILE "N.O.W. - Tabloid Crush.flac" WAVE
TRACK 01 AUDIO
TITLE "Spit"
PERFORMER "N.O.W."
INDEX 01 00:00:00
TRACK 02 AUDIO
TITLE "In The Gutter"
PERFORMER "N.O.W."
INDEX 01 02:54:55
TRACK 03 AUDIO
TITLE "Electric Love"
PERFORMER "N.O.W."
INDEX 01 07:00:05
TRACK 04 AUDIO
TITLE "Yesterday"
PERFORMER "N.O.W."
INDEX 00 10:01:67
INDEX 01 10:02:15
TRACK 05 AUDIO
TITLE "Disconnected"
PERFORMER "N.O.W."
INDEX 01 14:41:60
TRACK 06 AUDIO
TITLE "Machine World"
PERFORMER "N.O.W."
INDEX 00 18:13:17
INDEX 01 18:13:40
TRACK 07 AUDIO
TITLE "Time Of The Season"
PERFORMER "N.O.W."
INDEX 00 22:06:62
INDEX 01 22:07:05
TRACK 08 AUDIO
TITLE "Hole In The Sky"
PERFORMER "N.O.W."
INDEX 01 25:34:22
TRACK 09 AUDIO
TITLE "Shoot The News"
PERFORMER "N.O.W."
INDEX 00 30:19:07
INDEX 01 30:19:12
TRACK 10 AUDIO
TITLE "Spanish Skies"
PERFORMER "N.O.W."
INDEX 00 33:05:37
INDEX 01 33:05:45
TRACK 11 AUDIO
TITLE "Prince Of The Garden"
PERFORMER "N.O.W."
INDEX 00 37:57:12
INDEX 01 37:58:37

To download the file disable ad blocking, and reload the page.

disable adblock How to disable ad blocking?

Download by magnet link 303 MB Download Torrent

Login using:

Загрузка...

Similar topics



   
Current time is: 13-Dec 07:02 :: All times are UTC + 3