Eyes Of Shiva / Eyes of Soul
Жанр: Power Metal
Носитель: CD
Страна-производитель диска (релиза): Spain
Год издания: 2004
Издатель (лейбл): Locomotive Music
Номер по каталогу: LM192
Страна исполнителя (группы): Brazil
Аудиокодек: FLAC (*.flac)
Тип рипа: image+.cue
Битрейт аудио: lossless
Продолжительность: 00:42:34
Источник (релизер): Свой рип
Наличие сканов в содержимом раздачи: да
Треклист:
1. Essence
2. Eagle of the Sun
3. Lampiao
4. Psychos of the New Millennium
5. Pride
6. Eyes of Soul
7. World Tomorrow
8. Future
9. Alone
10. Just A Miracle

Лог создания рипа

Exact Audio Copy V1.0 beta 6 from 9. April 2015
EAC extraction logfile from 14. April 2017, 17:22
Eyes Of Shiva / Eyes Of Soul
Used drive : Optiarc DVD RW AD-7700S Adapter: 1 ID: 1
Read mode : Secure
Utilize accurate stream : Yes
Defeat audio cache : Yes
Make use of C2 pointers : No
Read offset correction : 48
Overread into Lead-In and Lead-Out : No
Fill up missing offset samples with silence : Yes
Delete leading and trailing silent blocks : No
Null samples used in CRC calculations : Yes
Used interface : Native Win32 interface for Win NT & 2000
Used output format : User Defined Encoder
Selected bitrate : 1024 kBit/s
Quality : High
Add ID3 tag : No
Command line compressor : C:\Program Files (x86)\Exact Audio Copy\FLAC\FLAC.EXE
Additional command line options : -V -8 -T "Date=%year%" -T "Genre=%genre%" %source%
TOC of the extracted CD
Track | Start | Length | Start sector | End sector
---------------------------------------------------------
1 | 0:00.00 | 1:38.46 | 0 | 7395
2 | 1:38.46 | 4:31.72 | 7396 | 27792
3 | 6:10.43 | 5:07.68 | 27793 | 50885
4 | 11:18.36 | 5:15.33 | 50886 | 74543
5 | 16:33.69 | 3:52.12 | 74544 | 91955
6 | 20:26.06 | 5:08.51 | 91956 | 115106
7 | 25:34.57 | 5:00.67 | 115107 | 137673
8 | 30:35.49 | 4:19.41 | 137674 | 157139
9 | 34:55.15 | 3:32.26 | 157140 | 173065
10 | 38:27.41 | 4:05.35 | 173066 | 191475
Range status and errors
Selected range
Filename C:\Users\Олег\Desktop\Eyes Of Shiva - Eyes Of Soul.wav
Peak level 99.9 %
Extraction speed 4.3 X
Range quality 100.0 %
Test CRC E37187EA
Copy CRC E37187EA
Copy OK
No errors occurred
AccurateRip summary
Track 1 accurately ripped (confidence 2) [1ED8A99A] (AR v1)
Track 2 accurately ripped (confidence 2) [D8606897] (AR v1)
Track 3 accurately ripped (confidence 2) [B0CC3142] (AR v1)
Track 4 accurately ripped (confidence 2) [D1CA777A] (AR v1)
Track 5 accurately ripped (confidence 2) [95AD2959] (AR v1)
Track 6 accurately ripped (confidence 2) [1E7912AE] (AR v1)
Track 7 accurately ripped (confidence 2) [495384D6] (AR v1)
Track 8 accurately ripped (confidence 2) [23B69AA5] (AR v1)
Track 9 accurately ripped (confidence 2) [C80F69C0] (AR v1)
Track 10 accurately ripped (confidence 2) [90AFF9AD] (AR v1)
All tracks accurately ripped
End of status report
---- CUETools DB Plugin V2.1.6
[CTDB TOCID: QBY17lFVcWbaQ9Q3GygpifJkWTs-] found
Submit result: QBY17lFVcWbaQ9Q3GygpifJkWTs- has been confirmed
Track | CTDB Status
1 | (2/2) Accurately ripped
2 | (2/2) Accurately ripped
3 | (2/2) Accurately ripped
4 | (2/2) Accurately ripped
5 | (2/2) Accurately ripped
6 | (2/2) Accurately ripped
7 | (2/2) Accurately ripped
8 | (2/2) Accurately ripped
9 | (2/2) Accurately ripped
10 | (2/2) Accurately ripped
==== Log checksum D8F1AF20BA92B74D0FF81CBE0EAE424C7BEE0365C086153EAD9AAA968

Состав

Andre Ferrari - Vocals
Ricardo Gil - Guitar
Renato Mendes - Guitar
Gustavo Boni - Bass
Ricardo Longhi - Drums
Guest musician:
Kiko Loureiro (Angra) - 2nd Guitar Solo in 8 #track
Pixu Flores - All Percussions
Bruno Maia - Flute in -1& 6 #Tracks

To download the file disable ad blocking, and reload the page.

disable adblock How to disable ad blocking?

Download by magnet link 369 MB Download Torrent

Login using:

Загрузка...

Similar topics

(Power Metal) Powerized - The Mirror\'s Eye - 2018, MP3, 320 kbps
 164 MB   0 | 0   17-Mar-18 21:05   5
(Power Metal) [CD] Eyes Of Shiva - Deep - 2006, FLAC (image+.cue), lossless
 405 MB   0 | 0   26-May-17 18:02   0


   
Current time is: 18-Dec 20:52 :: All times are UTC + 3