Dirty Deeds / Real World
Жанр: Heavy Metal
Носитель: CD
Страна-производитель диска (релиза): UK
Год издания: 1999
Издатель (лейбл): Beast Records Ltd.
Номер по каталогу: BTDCD3
Страна исполнителя (группы): UK
Аудиокодек: FLAC (*.flac)
Тип рипа: image+.cue
Битрейт аудио: lossless
Продолжительность: 51:00
Источник (релизер): pomydor (lossless-galaxy)
Наличие сканов в содержимом раздачи: да
Треклист:
01. Welcome To The Real World 05:33
02. Kill The Pain 05:00
03. Long Way Down 05:22
04. Nightmare 05:09
05. Telepathy 05:06
06. Hell On Earth 05:16
07. Killing Time 04:48
08. Judgement Day 05:06
09. Cyber Babe 04:41
10. Never Give In 04:56

Лог создания рипа

Exact Audio Copy V0.99 prebeta 5 from 4. May 2009
Отчёт EAC об извлечении, выполненном 2. мая 2011, 13:12
Dirty Deeds / Real World
Дисковод: TSSTcorpCDDVDW SH-S223C Adapter: 3 ID: 0
Режим чтения : Достоверность
Использование точного потока : Да
Отключение кэша аудио : Да
Использование указателей C2 : Нет
Коррекция смещения при чтении : 697
Способность читать области Lead-in и Lead-out : Нет
Заполнение пропущенных сэмплов тишиной : Да
Удаление блоков с тишиной в начале и конце : Нет
При вычислениях CRC использовались нулевые сэмплы : Да
Интерфейс : Встроенный Win32-интерфейс для Win NT/2000
Выходной формат : Внутренние WAV-операции
Формат сэмплов : 44.100 Гц; 16 бит; стерео
TOC извлечённого CD
Трек | Старт | Длительность | Начальный сектор | Конечный сектор
---------------------------------------------------------------------
1 | 0:00.00 | 5:33.37 | 0 | 25011
2 | 5:33.37 | 5:00.27 | 25012 | 47538
3 | 10:33.64 | 5:22.18 | 47539 | 71706
4 | 15:56.07 | 5:09.23 | 71707 | 94904
5 | 21:05.30 | 5:06.10 | 94905 | 117864
6 | 26:11.40 | 5:16.02 | 117865 | 141566
7 | 31:27.42 | 4:48.23 | 141567 | 163189
8 | 36:15.65 | 5:06.10 | 163190 | 186149
9 | 41:22.00 | 4:41.57 | 186150 | 207281
10 | 46:03.57 | 4:56.30 | 207282 | 229511
Характеристики диапазона извлечения и сообщения об ошибках
Выбранный диапазон
Имя файла C:\Users\pomydor\Music\Dirty Deeds - Real World.wav
Пиковый уровень 98.8 %
Качество диапазона 100.0 %
CRC теста 2BDCB60C
CRC копии 2BDCB60C
Копирование... OK
Ошибок не произошло
AccurateRip: сводка
Трек 1 точность не определена (достоверность 1) [D60FF985], AccurateRip вернул [89E446DE]
Трек 2 точность не определена (достоверность 1) [56E09FC8], AccurateRip вернул [E51BA5C9]
Трек 3 точность не определена (достоверность 1) [96F4C505], AccurateRip вернул [0EFF059A]
Трек 4 точность не определена (достоверность 1) [550CC7C5], AccurateRip вернул [3A032E8E]
Трек 5 точность не определена (достоверность 1) [86187BF8], AccurateRip вернул [BE11D16B]
Трек 6 точность не определена (достоверность 1) [E6A69AFD], AccurateRip вернул [23463B07]
Трек 7 точность не определена (достоверность 1) [AA507729], AccurateRip вернул [0B7134E5]
Трек 8 точность не определена (достоверность 1) [75978A57], AccurateRip вернул [9973D796]
Трек 9 точность не определена (достоверность 1) [40FA929A], AccurateRip вернул [4D1EEDBD]
Трек 10 точность не определена (достоверность 1) [B49C193D], AccurateRip вернул [36EB08D8]
Ни один трек не прошёл проверки на точность
В вашей базе может быть иной вариант штамповки диска
Конец отчёта

Содержание индексной карты (.CUE)

REM GENRE "Heavy Metal"
REM DATE 1999
REM DISCID A20BF40A
REM COMMENT "ExactAudioCopy v0.99pb5"
PERFORMER "Dirty Deeds"
TITLE "Real World"
FILE "Dirty Deeds - Real World.flac" WAVE
TRACK 01 AUDIO
TITLE "Welcome To The Real World"
PERFORMER "Dirty Deeds"
INDEX 01 00:00:00
TRACK 02 AUDIO
TITLE "Kill The Pain"
PERFORMER "Dirty Deeds"
INDEX 00 05:32:07
INDEX 01 05:33:37
TRACK 03 AUDIO
TITLE "Long Way Down"
PERFORMER "Dirty Deeds"
INDEX 00 10:32:25
INDEX 01 10:33:64
TRACK 04 AUDIO
TITLE "Nightmare"
PERFORMER "Dirty Deeds"
INDEX 00 15:54:40
INDEX 01 15:56:07
TRACK 05 AUDIO
TITLE "Telepathy"
PERFORMER "Dirty Deeds"
INDEX 00 21:04:45
INDEX 01 21:05:30
TRACK 06 AUDIO
TITLE "Hell On Earth"
PERFORMER "Dirty Deeds"
INDEX 00 26:10:47
INDEX 01 26:11:40
TRACK 07 AUDIO
TITLE "Killing Time"
PERFORMER "Dirty Deeds"
INDEX 00 31:27:32
INDEX 01 31:27:42
TRACK 08 AUDIO
TITLE "Judgement Day"
PERFORMER "Dirty Deeds"
INDEX 00 36:14:22
INDEX 01 36:15:65
TRACK 09 AUDIO
TITLE "Cyber Babe"
PERFORMER "Dirty Deeds"
INDEX 00 41:19:60
INDEX 01 41:22:00
TRACK 10 AUDIO
TITLE "Never Give In"
PERFORMER "Dirty Deeds"
INDEX 00 46:01:22
INDEX 01 46:03:57

Лог проверки качества

-----------------------
DON'T MODIFY THIS FILE
-----------------------
PERFORMER: auCDtect Task Manager, ver. 1.5.1RC4 build 1.5.1.5
Copyright (c) 2008-2010 y-soft. All rights reserved
http://y-soft.org
ANALYZER: auCDtect: CD records authenticity detector, version 0.8.2
Copyright (c) 2004 Oleg Berngardt. All rights reserved.
Copyright (c) 2004 Alexander Djourik. All rights reserved.
FILE: Dirty Deeds - Real World.flac
Size: 385676210 Hash: 8CA4B612DB31493494D51B6F090F8D63 Accuracy: -m0
Conclusion: CDDA 100%
Signature: 724B1AE694484548EA38A219D75FE2550E6D101C

Скриншот спектра частот

https://ibb.co/cjHhLa

Об альбоме (сборнике)

Второй альбом придворной группы Стива Харриса, играющая у него дома во времена семейных застольев...

Состав

Pete Franklin - lead vocals, rhythm guitar
Tony Newton - bass, backing vocals
Barry Fitzgibbon - lead guitar, backing vocals
Dave Cavill - drums, percussion

To download the file disable ad blocking, and reload the page.

disable adblock How to disable ad blocking?

Download by magnet link 410 MB Download Torrent

Login using:

Similar topics

(Heavy Metal, Groove Metal) Blaxem - Who Cares - 2017, MP3, 320 kbps
 86 MB   0 | 0   26-May-17 18:27   0
(Heavy Metal/Progressive) Wine Guardian - Onirica - 2017, MP3, 320 kbps
 115 MB   0 | 0   26-May-17 18:27   0
(Blackened Heavy Metal) Ophicvs - Machine Gun Reaper - 2017, MP3, 320 kbps
 109 MB   0 | 0   26-May-17 18:27   0
(Heavy Metal) Cremator - The Coming Of War - 2017, MP3, 320 kbps
 114 MB   0 | 0   26-May-17 18:27   0


   
Current time is: 16-Oct 08:10 :: All times are UTC ± 0