Emerald Edge / Surreal
Жанр: Progressive Metal
Носитель: CD
Год издания: 2017
Издатель (лейбл): Emerald Edge
Страна исполнителя (группы): Germany
Аудиокодек: FLAC (*.flac)
Тип рипа: image+.cue
Битрейт аудио: lossless
Продолжительность: 01:10:24
Источник (релизер): workutagin
Наличие сканов в содержимом раздачи: да
Треклист:
01. Ladder of Some Dream
02. Lost (Chapter II)
03. Am I
04. Be Careful on the Secret Path
05. Power & Love
06. House of Cards
07. In the Eye of the Beholder
08. Surreal
http://www.emeraldedge.de/
http://www.metal-archives.com/bands/Emerald_Edge/39883

Лог создания рипа

Exact Audio Copy V1.0 beta 4 from 7. December 2014
EAC extraction logfile from 11. April 2017, 20:01
Emerald Edge / Surreal
Used drive : HL-DT-STDVDRAM GU40N Adapter: 0 ID: 1
Read mode : Secure
Utilize accurate stream : Yes
Defeat audio cache : Yes
Make use of C2 pointers : No
Read offset correction : 103
Overread into Lead-In and Lead-Out : No
Fill up missing offset samples with silence : Yes
Delete leading and trailing silent blocks : No
Null samples used in CRC calculations : Yes
Used interface : Installed external ASPI interface
Used output format : User Defined Encoder
Selected bitrate : 1024 kBit/s
Quality : High
Add ID3 tag : No
Command line compressor : C:\Program Files (x86)\AudioConverter\AudioConverter.exe
Additional command line options : FLAC
TOC of the extracted CD
Track | Start | Length | Start sector | End sector
---------------------------------------------------------
1 | 0:00.00 | 5:31.74 | 0 | 24898
2 | 5:31.74 | 11:02.64 | 24899 | 74612
3 | 16:34.63 | 7:27.01 | 74613 | 108138
4 | 24:01.64 | 8:25.17 | 108139 | 146030
5 | 32:27.06 | 6:15.47 | 146031 | 174202
6 | 38:42.53 | 8:41.10 | 174203 | 213287
7 | 47:23.63 | 6:32.65 | 213288 | 242752
8 | 53:56.53 | 16:26.66 | 242753 | 316768
Range status and errors
Selected range
Filename C:\Users\workutagin\Desktop\Emerald Edge - Surreal 2017\Emerald Edge - Surreal.wav
Peak level 98.9 %
Extraction speed 2.2 X
Range quality 100.0 %
Test CRC B9558079
Copy CRC B9558079
Copy OK
No errors occurred
AccurateRip summary
Track 1 not present in database
Track 2 not present in database
Track 3 not present in database
Track 4 not present in database
Track 5 not present in database
Track 6 not present in database
Track 7 not present in database
Track 8 not present in database
None of the tracks are present in the AccurateRip database
End of status report
==== Log checksum 589AB734CEAE8E8EA1AD1B43C9C7C6EA9466A6C50A3B86F38E6CEA191D622B92 ====

To download the file disable ad blocking, and reload the page.

disable adblock How to disable ad blocking?

Download by magnet link 522 MB Download Torrent

Login using:

Загрузка...

Similar topics



   
Current time is: 16-Dec 07:22 :: All times are UTC + 3