Жанр: Heavy/Power Metal
Носитель: CD
Страна-производитель диска (релиза): Germany, Japan, Austria, Poland
Год издания: 1982-2017
Издатель (лейбл): Noise, Koch Rec, Nuclear Blast, Victor, AFM
Страна исполнителя (группы): Germany
Аудио кодек: FLAC (*.flac)
Тип рипа: image+.cue
Битрейт аудио: lossless
Источник (релизер): Krolis5, Igor-By, ilijаn, metallium, kikel, MMT
Наличие сканов в содержимом раздачи: да
-

1982 - Wild 'n' Evil

1989 - Wild 'n' Evil [Koch Rec., 322 158 F1, Austria]

01. Loser of Love (2:59)
02. No Speed Limit (2:58)
03. Murder (4:06)
04. Ridin' The White Horses (3:44)
05. Lost In A Dream (3:39)
06. Heat Of The Nite (3:29)
07. F.T.A. (3:41)
08. Silly Thing (3:06)
09. Shakin' The Devil's Hand (4:55)
10. The Sin (5:31)
11. Trouble (5:36)

Лог создания рипа

Exact Audio Copy V1.0 beta 3 from 29. August 2011
Отчёт EAC об извлечении, выполненном 28. февраля 2014, 18:17
Sinner / Wild 'n' Evil
Дисковод: PIONEER BD-ROM BDCTD03RS Adapter: 0 ID: 1
Режим чтения : Достоверность
Использование точного потока : Да
Отключение кэша аудио : Да
Использование указателей C2 : Нет
Коррекция смещения при чтении : 667
Способность читать области Lead-in и Lead-out : Нет
Заполнение пропущенных сэмплов тишиной : Да
Удаление блоков с тишиной в начале и конце : Нет
При вычислениях CRC использовались нулевые сэмплы : Да
Интерфейс : Установленный внешний ASPI-интерфейс
Выходной формат : Пользовательский кодировщик
Выбранный битрейт : 128 kBit/s
Качество : Высокий
Добавление ID3-тега : Нет
Утилита сжатия : C:\Program Files (x86)\Exact Audio Copy\Flac\flac.exe
Дополнительные параметры : -V -8 -T "Date=%year%" -T "Genre=%genre%" %source%
TOC извлечённого CD
Трек | Старт | Длительность | Начальный сектор | Конечный сектор
---------------------------------------------------------------------
1 | 0:00.00 | 2:58.47 | 0 | 13396
2 | 2:58.47 | 2:57.65 | 13397 | 26736
3 | 5:56.37 | 4:05.53 | 26737 | 45164
4 | 10:02.15 | 3:44.15 | 45165 | 61979
5 | 13:46.30 | 3:39.37 | 61980 | 78441
6 | 17:25.67 | 3:28.73 | 78442 | 94114
7 | 20:54.65 | 3:41.25 | 94115 | 110714
8 | 24:36.15 | 3:05.70 | 110715 | 124659
9 | 27:42.10 | 4:55.17 | 124660 | 146801
10 | 32:37.27 | 5:31.15 | 146802 | 171641
11 | 38:08.42 | 5:36.05 | 171642 | 196846
Характеристики диапазона извлечения и сообщения об ошибках
Выбранный диапазон
Имя файла C:\temp\Sinner - Wild 'n' Evil - Koch-Records 322 158 F1.wav
Пиковый уровень 86.7 %
Скорость извлечения 4.5 X
Качество диапазона 100.0 %
CRC теста 26C2A27C
CRC копии 26C2A27C
Копирование... OK
Ошибок не произошло
AccurateRip: сводка
Трек 1 точность не определена (достоверность 1) [19558EC7], AccurateRip вернул [5F460478] (AR v2)
Трек 2 точность не определена (достоверность 1) [9B7B9709], AccurateRip вернул [93C0A097] (AR v2)
Трек 3 точность не определена (достоверность 1) [8A5FFC80], AccurateRip вернул [9808C16C] (AR v2)
Трек 4 точность не определена (достоверность 1) [4B0234ED], AccurateRip вернул [138842F5] (AR v2)
Трек 5 точность не определена (достоверность 1) [66B15502], AccurateRip вернул [444E4383] (AR v2)
Трек 6 точность не определена (достоверность 1) [D144CFD6], AccurateRip вернул [E9436984] (AR v2)
Трек 7 точность не определена (достоверность 1) [5A26DD47], AccurateRip вернул [28B1E82B] (AR v2)
Трек 8 точность не определена (достоверность 1) [154D9BAF], AccurateRip вернул [1BE14360] (AR v2)
Трек 9 точность не определена (достоверность 1) [3A2B445F], AccurateRip вернул [1FF3AF30] (AR v2)
Трек 10 точность не определена (достоверность 1) [EB977B9C], AccurateRip вернул [492D0D72] (AR v2)
Трек 11 точность не определена (достоверность 1) [B4FE8246], AccurateRip вернул [4457B379] (AR v2)
Ни один трек не прошёл проверки на точность
В вашей базе может быть иной вариант штамповки диска
Конец отчёта
==== Контрольная сумма отчёта 08CD288031208AA9D8D622716A0E7A1774278067504759BDBD13AE993035996F ====

1983 - Fast Decision

1989 - Fast Decision [Koch Rec., 322 159 F1, Austria]

01. Runnin' Wild (3:29)
02. Crazy (3:05)
03. Prelude No. 7 (0:55)
04. Magic (3:10)
05. One Last Look (4:21)
06. Fast Decision (3:59)
07. Trouble Boys (2:25)
08. In The City (3:25)
09. Chains (2:41)
10. Rockin' (3:57)

Лог создания рипа

Exact Audio Copy V0.99 prebeta 1 from 25. May 2007
EAC extraction logfile from 25. July 2012, 20:14
Sinner / Fast Decision
Used drive : Optiarc DVD RW AD-7201S Adapter: 1 ID: 1
Read mode : Secure
Utilize accurate stream : Yes
Defeat audio cache : Yes
Make use of C2 pointers : No
Read offset correction : 48
Overread into Lead-In and Lead-Out : No
Fill up missing offset samples with silence : Yes
Delete leading and trailing silent blocks : No
Used interface : Installed external ASPI interface
Used output format : Internal WAV Routines
Sample format : 44.100 Hz; 16 Bit; Stereo
TOC of the extracted CD
Track | Start | Length | Start sector | End sector
---------------------------------------------------------
1 | 0:00.00 | 3:28.57 | 0 | 15656
2 | 3:28.57 | 3:05.03 | 15657 | 29534
3 | 6:33.60 | 0:55.13 | 29535 | 33672
4 | 7:28.73 | 3:09.38 | 33673 | 47885
5 | 10:38.36 | 4:20.74 | 47886 | 67459
6 | 14:59.35 | 3:59.05 | 67460 | 85389
7 | 18:58.40 | 2:24.38 | 85390 | 96227
8 | 21:23.03 | 3:24.74 | 96228 | 111601
9 | 24:48.02 | 2:40.53 | 111602 | 123654
10 | 27:28.55 | 3:56.54 | 123655 | 141408
Range status and errors
Selected range
Filename D:\Перезалив Рипы на Darksage\Sinner - Fast Decision.wav
Peak level 100.0 %
Range quality 99.9 %
Copy CRC 2829074E
Copy OK
No errors occurred
End of status report

1984 - Danger Zone

1994 - Danger Zone [Noise, N 0013-2, Germany]

01. Danger Zone (3:37)
02. No Place In Heaven (3:38)
03. Scene Of Crime (3:40)
04. Lupo Manaro (3:51)
05. Fast, Hard & Loud (2:54)
06. The Shiver (4:02)
07. Razor Blade (3:15)
08. Shadow In The Night (3:00)
09. Wild Winds (2:59)
10. Rattlesnake (2:59)
11. (0:35)

Лог создания рипа

Exact Audio Copy V1.0 beta 3 from 29. August 2011
Отчёт EAC об извлечении, выполненном 3. марта 2014, 9:57
Sinner / Danger Zone
Дисковод: ATAPI iHAS122 W Adapter: 0 ID: 0
Режим чтения : Достоверность
Использование точного потока : Да
Отключение кэша аудио : Да
Использование указателей C2 : Нет
Коррекция смещения при чтении : 48
Способность читать области Lead-in и Lead-out : Нет
Заполнение пропущенных сэмплов тишиной : Да
Удаление блоков с тишиной в начале и конце : Нет
При вычислениях CRC использовались нулевые сэмплы : Да
Интерфейс : Встроенный Win32-интерфейс для Win NT/2000
Выходной формат : Пользовательский кодировщик
Выбранный битрейт : 128 kBit/s
Качество : Высокий
Добавление ID3-тега : Нет
Утилита сжатия : C:\Program Files (x86)\Exact Audio Copy\Flac\flac.exe
Дополнительные параметры : -V -8 -T "Date=%year%" -T "Genre=%genre%" %source%
TOC извлечённого CD
Трек | Старт | Длительность | Начальный сектор | Конечный сектор
---------------------------------------------------------------------
1 | 0:00.00 | 3:37.07 | 0 | 16281
2 | 3:37.07 | 3:37.58 | 16282 | 32614
3 | 7:14.65 | 3:40.00 | 32615 | 49114
4 | 10:54.65 | 3:51.05 | 49115 | 66444
5 | 14:45.70 | 2:54.25 | 66445 | 79519
6 | 17:40.20 | 4:02.25 | 79520 | 97694
7 | 21:42.45 | 3:14.70 | 97695 | 112314
8 | 24:57.40 | 3:00.12 | 112315 | 125826
9 | 27:57.52 | 2:59.18 | 125827 | 139269
10 | 30:56.70 | 2:58.40 | 139270 | 152659
11 | 33:55.35 | 0:34.40 | 152660 | 155249
Характеристики диапазона извлечения и сообщения об ошибках
Выбранный диапазон
Имя файла C:\temp\Sinner - 1984(1994) - Danger Zone - Noise N 0013-2.wav
Пиковый уровень 98.8 %
Скорость извлечения 5.6 X
Качество диапазона 99.9 %
CRC теста FC5ACAA7
CRC копии FC5ACAA7
Копирование... OK
Ошибок не произошло
AccurateRip: сводка
Трек 1 : извлечено точно (доверие 2) [957D9C2E] (AR v2)
Трек 2 : извлечено точно (доверие 2) [BAC2E9F5] (AR v2)
Трек 3 : извлечено точно (доверие 2) [566E2356] (AR v2)
Трек 4 : извлечено точно (доверие 2) [AE2E3A89] (AR v2)
Трек 5 : извлечено точно (доверие 2) [726A1FBB] (AR v2)
Трек 6 : извлечено точно (доверие 2) [96767AC4] (AR v2)
Трек 7 : извлечено точно (доверие 2) [10EF7B63] (AR v2)
Трек 8 : извлечено точно (доверие 2) [ECF48632] (AR v2)
Трек 9 : извлечено точно (доверие 2) [90E1389B] (AR v2)
Трек 10 : извлечено точно (доверие 2) [028452E6] (AR v2)
Трек 11 : извлечено точно (доверие 2) [3FA435D7] (AR v2)
Все треки извлечены точно
Конец отчёта
==== Контрольная сумма отчёта F081B7EDDCD737A865935A2A4DA500FF7D3579CE431641F4F473677EDDF6610C ====

2008 - Danger Zone [Noise Records, Germany]

01. Danger Zone (3:39)
02. No Place In Heaven (3:40)
03. Scene Of Crime (3:42)
04. Lupo Manaro (3:53)
05. Fast, Hard & Loud (2:56)
06. The Shiver (4:05)
07. Razor Blade (3:17)
08. Shadow In The Night (3:02)
09. Wild Winds (3:01)
10. Rattlesnake (3:00)
11. Outro (Dancer II) (0:37)

Лог создания рипа

Exact Audio Copy V0.99 prebeta 1 from 25. May 2007
EAC extraction logfile from 13. March 2012, 19:53
Sinner / Danger Zone
Used drive : Optiarc DVD RW AD-7201S Adapter: 1 ID: 1
Read mode : Secure
Utilize accurate stream : Yes
Defeat audio cache : Yes
Make use of C2 pointers : No
Read offset correction : 48
Overread into Lead-In and Lead-Out : No
Fill up missing offset samples with silence : Yes
Delete leading and trailing silent blocks : No
Used interface : Installed external ASPI interface
Used output format : Internal WAV Routines
Sample format : 44.100 Hz; 16 Bit; Stereo
TOC of the extracted CD
Track | Start | Length | Start sector | End sector
---------------------------------------------------------
1 | 0:00.00 | 3:39.07 | 0 | 16431
2 | 3:39.07 | 3:39.58 | 16432 | 32914
3 | 7:18.65 | 3:41.72 | 32915 | 49561
4 | 11:00.62 | 3:53.03 | 49562 | 67039
5 | 14:53.65 | 2:56.02 | 67040 | 80241
6 | 17:49.67 | 4:04.48 | 80242 | 98589
7 | 21:54.40 | 3:17.00 | 98590 | 113364
8 | 25:11.40 | 3:02.12 | 113365 | 127026
9 | 28:13.52 | 3:01.15 | 127027 | 140616
10 | 31:14.67 | 3:00.33 | 140617 | 154149
11 | 34:15.25 | 0:37.10 | 154150 | 156934
Range status and errors
Selected range
Filename E:\CUE\Sinner - Danger Zone.wav
Peak level 98.8 %
Range quality 100.0 %
Copy CRC 5F22F2CF
Copy OK
No errors occurred
End of status report

1985 - Touch Of Sin

1994 - Touch Of Sin [Noise, N 0026-2, France]

01. Born To Rock (4:01)
02. Emerald (3:54)
03. Bad Girl (3:52)
04. Shout! (3:42)
05. The Storm Broke Loose (4:16)
06. Out Of Control (3:44)
07. Too Late To Run Away (3:45)
08. Hand Of Fate (3:49)
09. Masquerade (3:18)
10. Open Arms (4:10)
11. Fast Decision (4:01)
12. Knife In My Heart (4:55)

Лог создания рипа

Exact Audio Copy V1.0 beta 3 from 29. August 2011
Отчёт EAC об извлечении, выполненном 28. февраля 2014, 21:29
Sinner / Touch Of Sin
Дисковод: PIONEER BD-ROM BDCTD03RS Adapter: 0 ID: 1
Режим чтения : Достоверность
Использование точного потока : Да
Отключение кэша аудио : Да
Использование указателей C2 : Нет
Коррекция смещения при чтении : 667
Способность читать области Lead-in и Lead-out : Нет
Заполнение пропущенных сэмплов тишиной : Да
Удаление блоков с тишиной в начале и конце : Нет
При вычислениях CRC использовались нулевые сэмплы : Да
Интерфейс : Установленный внешний ASPI-интерфейс
Выходной формат : Пользовательский кодировщик
Выбранный битрейт : 128 kBit/s
Качество : Высокий
Добавление ID3-тега : Нет
Утилита сжатия : C:\Program Files (x86)\Exact Audio Copy\Flac\flac.exe
Дополнительные параметры : -V -8 -T "Date=%year%" -T "Genre=%genre%" %source%
TOC извлечённого CD
Трек | Старт | Длительность | Начальный сектор | Конечный сектор
---------------------------------------------------------------------
1 | 0:00.00 | 4:01.22 | 0 | 18096
2 | 4:01.22 | 3:54.18 | 18097 | 35664
3 | 7:55.40 | 3:52.05 | 35665 | 53069
4 | 11:47.45 | 3:41.72 | 53070 | 69716
5 | 15:29.42 | 4:15.60 | 69717 | 88901
6 | 19:45.27 | 3:43.65 | 88902 | 105691
7 | 23:29.17 | 3:45.28 | 105692 | 122594
8 | 27:14.45 | 3:49.00 | 122595 | 139769
9 | 31:03.45 | 3:18.07 | 139770 | 154626
10 | 34:21.52 | 4:10.18 | 154627 | 173394
11 | 38:31.70 | 4:00.67 | 173395 | 191461
12 | 42:32.62 | 4:54.73 | 191462 | 213584
Характеристики диапазона извлечения и сообщения об ошибках
Выбранный диапазон
Имя файла C:\temp\Sinner - 1985(1994) - Touch Of Sin - Noise N 0026-2.wav
Пиковый уровень 94.7 %
Скорость извлечения 4.6 X
Качество диапазона 100.0 %
CRC теста 0E8F3319
CRC копии 0E8F3319
Копирование... OK
Ошибок не произошло
AccurateRip: сводка
Трек 1 : извлечено точно (доверие 2) [CB0E738B] (AR v1)
Трек 2 : извлечено точно (доверие 2) [9CCC006B] (AR v1)
Трек 3 : извлечено точно (доверие 2) [4332E200] (AR v1)
Трек 4 : извлечено точно (доверие 2) [91BD8DF8] (AR v1)
Трек 5 : извлечено точно (доверие 2) [B35608D1] (AR v1)
Трек 6 : извлечено точно (доверие 2) [C900C4DE] (AR v1)
Трек 7 : извлечено точно (доверие 2) [F0FC37A2] (AR v1)
Трек 8 : извлечено точно (доверие 2) [76DFF80B] (AR v1)
Трек 9 : извлечено точно (доверие 2) [4FF696EF] (AR v1)
Трек 10 : извлечено точно (доверие 2) [ED240E69] (AR v1)
Трек 11 : извлечено точно (доверие 2) [6F80F252] (AR v1)
Трек 12 : извлечено точно (доверие 2) [9DC6FCFE] (AR v1)
Все треки извлечены точно
Конец отчёта
==== Контрольная сумма отчёта E438056FF92EAEBC2CC6A31A28176359122B99ECCE056A8576D322B20EF6E67D ====

1999 - Danger Zone & Touch Of Sin [Victor, VICP-60780, Japan]

01. Danger Zone (3:37)
02. No Place in Heaven (3:38)
03. Scene of a Crime (3:40)
04. Lupo Manaro (3:51)
05. Fast, Hard & Loud (2:54)
06. The Shiver (4:03)
07. Razor Blade (3:15)
08. Shadow in the Night (3:00)
09. Wild Winds (2:59)
10. Rattlesnake (2:58)
11. Outro (Danger II) (0:37)
12. Born to Rock (4:01)
13. Emerald (3:54)
14. Bad Girl (3:52)
15. Shout! (3:42)
16. The Storm Broke Loose (4:15)
17. Out of Control (3:44)
18. Too Late to Runaway (3:46)
19. Hand of Fate (3:49)
20. Masquerade (3:18)
21. Open Arms (4:10)
22. Fast Decision (3:59)

Лог создания рипа

Exact Audio Copy V0.99 prebeta 4 from 23. January 2008
EAC extraction logfile from 15. March 2009, 15:26
Sinner / Danger Zone & Touch of Sin
Used drive : LITE-ON DVDRW LH-20A1S Adapter: 5 ID: 1
Read mode : Secure
Utilize accurate stream : Yes
Defeat audio cache : Yes
Make use of C2 pointers : No
Read offset correction : 6
Overread into Lead-In and Lead-Out : No
Fill up missing offset samples with silence : Yes
Delete leading and trailing silent blocks : No
Null samples used in CRC calculations : Yes
Used interface : Installed external ASPI interface
Used output format : Monkey's Audio Lossless Encoder v3.99 DLL
Sample format : High Lossless Compression
TOC of the extracted CD
Track | Start | Length | Start sector | End sector
---------------------------------------------------------
1 | 0:00.00 | 3:37.07 | 0 | 16281
2 | 3:37.07 | 3:37.58 | 16282 | 32614
3 | 7:14.65 | 3:39.72 | 32615 | 49111
4 | 10:54.62 | 3:51.03 | 49112 | 66439
5 | 14:45.65 | 2:54.02 | 66440 | 79491
6 | 17:39.67 | 4:02.48 | 79492 | 97689
7 | 21:42.40 | 3:15.00 | 97690 | 112314
8 | 24:57.40 | 3:00.12 | 112315 | 125826
9 | 27:57.52 | 2:59.15 | 125827 | 139266
10 | 30:56.67 | 2:58.33 | 139267 | 152649
11 | 33:55.25 | 0:37.10 | 152650 | 155434
12 | 34:32.35 | 4:00.67 | 155435 | 173501
13 | 38:33.27 | 3:54.05 | 173502 | 191056
14 | 42:27.32 | 3:51.70 | 191057 | 208451
15 | 46:19.27 | 3:42.35 | 208452 | 225136
16 | 50:01.62 | 4:15.25 | 225137 | 244286
17 | 54:17.12 | 3:43.65 | 244287 | 261076
18 | 58:01.02 | 3:45.40 | 261077 | 277991
19 | 61:46.42 | 3:49.13 | 277992 | 295179
20 | 65:35.55 | 3:18.05 | 295180 | 310034
21 | 68:53.60 | 4:09.67 | 310035 | 328776
22 | 73:03.52 | 3:58.63 | 328777 | 346689
Range status and errors
Selected range
Filename M:\Sinner\1984-1985. Danger Zone & Touch of Sin\Sinner - Danger Zone & Touch of Sin.ape
Peak level 100.0 %
Range quality 100.0 %
Test CRC EF92F594
Copy CRC EF92F594
Copy OK
No errors occurred
End of status report

2008 - Touch Of Sin [Noise Records, Germany]

01. Born To Rock (4:03)
02. Emerald (3:56)
03. Bad Girl (3:54)
04. Shout! (3:44)
05. The Storm Broke Loose (4:17)
06. Out Of Control (3:46)
07. Too Late To Run Away (3:48)
08. Hand Of Fate (3:51)
09. Masquerade (3:20)
10. Open Arms (4:12)
11. Fast Decision (3:59)

Лог создания рипа

Exact Audio Copy V0.99 prebeta 1 from 25. May 2007
EAC extraction logfile from 25. July 2012, 20:40
Sinner / Touch of Sin
Used drive : Optiarc DVD RW AD-7201S Adapter: 1 ID: 1
Read mode : Secure
Utilize accurate stream : Yes
Defeat audio cache : Yes
Make use of C2 pointers : No
Read offset correction : 48
Overread into Lead-In and Lead-Out : No
Fill up missing offset samples with silence : Yes
Delete leading and trailing silent blocks : No
Used interface : Installed external ASPI interface
Used output format : Internal WAV Routines
Sample format : 44.100 Hz; 16 Bit; Stereo
TOC of the extracted CD
Track | Start | Length | Start sector | End sector
---------------------------------------------------------
1 | 0:00.00 | 4:02.67 | 0 | 18216
2 | 4:02.67 | 3:56.05 | 18217 | 35921
3 | 7:58.72 | 3:53.70 | 35922 | 53466
4 | 11:52.67 | 3:44.35 | 53467 | 70301
5 | 15:37.27 | 4:17.25 | 70302 | 89601
6 | 19:54.52 | 3:45.65 | 89602 | 106541
7 | 23:40.42 | 3:47.40 | 106542 | 123606
8 | 27:28.07 | 3:51.13 | 123607 | 140944
9 | 31:19.20 | 3:20.05 | 140945 | 155949
10 | 34:39.25 | 4:11.67 | 155950 | 174841
11 | 38:51.17 | 3:58.63 | 174842 | 192754
Range status and errors
Selected range
Filename D:\Перезалив Рипы на Darksage\Sinner - Touch of Sin.wav
Peak level 100.0 %
Range quality 100.0 %
Copy CRC 0621A879
Copy OK
No errors occurred
End of status report

1986 - Comin' Out Fighting

1994 - Comin' Out Fighting [Noise, N 0049-2, France]

01. Hypnotized (4:32)
02. Faster Than Light (4:57)
03. Comin' Out Fighting (3:06)
04. Age Of Rock (3:41)
05. Rebel Yell (4:00)
06. Lost In A Minute (2:49)
07. Don't Tell Me (That The Love Has Gone) (4:01)
08. Germany Rocks (4:05)
09. Playing With Fire (3:37)
10. Madhouse (3:44)

Лог создания рипа

Exact Audio Copy V1.0 beta 3 from 29. August 2011
Отчёт EAC об извлечении, выполненном 1. марта 2014, 13:10
Sinner / Comin' Out Fighting
Дисковод: PIONEER BD-ROM BDCTD03RS Adapter: 0 ID: 1
Режим чтения : Достоверность
Использование точного потока : Да
Отключение кэша аудио : Да
Использование указателей C2 : Нет
Коррекция смещения при чтении : 667
Способность читать области Lead-in и Lead-out : Нет
Заполнение пропущенных сэмплов тишиной : Да
Удаление блоков с тишиной в начале и конце : Нет
При вычислениях CRC использовались нулевые сэмплы : Да
Интерфейс : Установленный внешний ASPI-интерфейс
Выходной формат : Пользовательский кодировщик
Выбранный битрейт : 128 kBit/s
Качество : Высокий
Добавление ID3-тега : Нет
Утилита сжатия : C:\Program Files (x86)\Exact Audio Copy\Flac\flac.exe
Дополнительные параметры : -V -8 -T "Date=%year%" -T "Genre=%genre%" %source%
TOC извлечённого CD
Трек | Старт | Длительность | Начальный сектор | Конечный сектор
---------------------------------------------------------------------
1 | 0:00.00 | 4:31.55 | 0 | 20379
2 | 4:31.55 | 4:57.30 | 20380 | 42684
3 | 9:29.10 | 3:06.35 | 42685 | 56669
4 | 12:35.45 | 3:40.42 | 56670 | 73211
5 | 16:16.12 | 3:59.73 | 73212 | 91209
6 | 20:16.10 | 2:48.65 | 91210 | 103874
7 | 23:05.00 | 4:01.10 | 103875 | 121959
8 | 27:06.10 | 4:04.62 | 121960 | 140321
9 | 31:10.72 | 3:37.18 | 140322 | 156614
10 | 34:48.15 | 3:44.00 | 156615 | 173414
Характеристики диапазона извлечения и сообщения об ошибках
Выбранный диапазон
Имя файла C:\temp\Sinner - 1986(1994) - Comin' Out Fighting - Noise N 0049-2.wav
Пиковый уровень 98.0 %
Скорость извлечения 4.3 X
Качество диапазона 100.0 %
CRC теста F95AF009
CRC копии F95AF009
Копирование... OK
Ошибок не произошло
AccurateRip: сводка
Трек 1 точность не определена (достоверность 2) [360E0E3F], AccurateRip вернул [5E7C152D] (AR v2)
Трек 2 точность не определена (достоверность 2) [E3B6B1BC], AccurateRip вернул [8F20F18B] (AR v2)
Трек 3 точность не определена (достоверность 2) [5C37CAD1], AccurateRip вернул [283F0B04] (AR v2)
Трек 4 точность не определена (достоверность 2) [62FC25C6], AccurateRip вернул [3255F6A7] (AR v2)
Трек 5 точность не определена (достоверность 2) [2DA5E5EF], AccurateRip вернул [8CC85317] (AR v2)
Трек 6 точность не определена (достоверность 2) [4FDBBCC7], AccurateRip вернул [1CADE6B8] (AR v2)
Трек 7 точность не определена (достоверность 2) [9D59C2E3], AccurateRip вернул [F03EA1AF] (AR v2)
Трек 8 точность не определена (достоверность 2) [86EEA606], AccurateRip вернул [4A514C9C] (AR v2)
Трек 9 точность не определена (достоверность 2) [1787C16C], AccurateRip вернул [8A36C170] (AR v2)
Трек 10 точность не определена (достоверность 2) [FDB46581], AccurateRip вернул [1E54E498] (AR v2)
Ни один трек не прошёл проверки на точность
В вашей базе может быть иной вариант штамповки диска
Конец отчёта
==== Контрольная сумма отчёта A4A15F0924DAB4A62EA289BC1A56D2259A5FB62F7EA8DBDA6A5B8DC0D4CCAABA ====

2008 - Comin' Out Fighting [Noise Records, Germany]

01. Hypnotized (4:34)
02. Faster Than Light (5:00)
03. Comin' Out Fighting (3:08)
04. Age Of Rock (3:43)
05. Rebel Yell (4:02)
06. Lost In A Minute (2:51)
07. Don't Tell Me (That The Love Has Gone) (4:03)
08. Germany Rocks (4:07)
09. Playing With Fire (3:39)
10. Madhouse (3:45)

Лог создания рипа

Exact Audio Copy V0.99 prebeta 5 from 4. May 2009
EAC extraction logfile from 11. February 2013, 22:38
SINNER / COMIN' OUT FIGHTING
Used drive : CD-RW GO-R5232B Adapter: 1 ID: 1
Read mode : Secure
Utilize accurate stream : Yes
Defeat audio cache : Yes
Make use of C2 pointers : No
Read offset correction : 6
Overread into Lead-In and Lead-Out : No
Fill up missing offset samples with silence : Yes
Delete leading and trailing silent blocks : No
Null samples used in CRC calculations : Yes
Used interface : Installed external ASPI interface
Used output format : User Defined Encoder
Selected bitrate : 1024 kBit/s
Quality : High
Add ID3 tag : No
Command line compressor : C:\Program Files\Exact Audio Copy\Flac\flac.exe
Additional command line options : -6 -V %s
TOC of the extracted CD
Track | Start | Length | Start sector | End sector
---------------------------------------------------------
1 | 0:00.00 | 4:33.40 | 0 | 20514
2 | 4:33.40 | 4:59.70 | 20515 | 43009
3 | 9:33.35 | 3:08.37 | 43010 | 57146
4 | 12:41.72 | 3:42.70 | 57147 | 73866
5 | 16:24.67 | 4:01.53 | 73867 | 91994
6 | 20:26.45 | 2:51.15 | 91995 | 104834
7 | 23:17.60 | 4:02.55 | 104835 | 123039
8 | 27:20.40 | 4:07.12 | 123040 | 141576
9 | 31:27.52 | 3:38.65 | 141577 | 157991
10 | 35:06.42 | 3:44.68 | 157992 | 174859
Range status and errors
Selected range
Filename D:\METALLIUM\HMR\[metallium.moole.ru]\SINNER - COMIN' OUT FIGHTING.wav
Peak level 97.9 %
Range quality 100.0 %
Copy CRC F028DAB9
Copy OK
No errors occurred
AccurateRip summary
Track 1 not present in database
Track 2 not present in database
Track 3 not present in database
Track 4 not present in database
Track 5 not present in database
Track 6 not present in database
Track 7 not present in database
Track 8 not present in database
Track 9 not present in database
Track 10 not present in database
None of the tracks are present in the AccurateRip database
End of status report

1987 - Dangerous Charm

1987 - Dangerous Charm [Noise, N 0101-3, W.Germany]

01. Concrete Jungle (3:21)
02. Knife In My Heart (4:55)
03. Dangerous Charm (3:56)
04. Everybody Needs Somebody To Love (4:32)
05. Nobody Rocks Like You (3:51)
06. Tomorrow Doesn't Matter Tonight (4:30)
07. Fight The Fight (3:44)
08. Back In My Arms (3:35)
09. Gipsy (3:10)
10. Desperate Heart (3:09)
11. Last Dance (4:14)

Лог создания рипа

Exact Audio Copy V1.0 beta 3 from 29. August 2011
Отчёт EAC об извлечении, выполненном 1. марта 2014, 13:35
Sinner / Dangerous Charm
Дисковод: PIONEER BD-ROM BDCTD03RS Adapter: 0 ID: 1
Режим чтения : Достоверность
Использование точного потока : Да
Отключение кэша аудио : Да
Использование указателей C2 : Нет
Коррекция смещения при чтении : 667
Способность читать области Lead-in и Lead-out : Нет
Заполнение пропущенных сэмплов тишиной : Да
Удаление блоков с тишиной в начале и конце : Нет
При вычислениях CRC использовались нулевые сэмплы : Да
Интерфейс : Установленный внешний ASPI-интерфейс
Выходной формат : Пользовательский кодировщик
Выбранный битрейт : 128 kBit/s
Качество : Высокий
Добавление ID3-тега : Нет
Утилита сжатия : C:\Program Files (x86)\Exact Audio Copy\Flac\flac.exe
Дополнительные параметры : -V -8 -T "Date=%year%" -T "Genre=%genre%" %source%
TOC извлечённого CD
Трек | Старт | Длительность | Начальный сектор | Конечный сектор
---------------------------------------------------------------------
1 | 0:00.00 | 3:21.25 | 0 | 15099
2 | 3:21.25 | 4:54.50 | 15100 | 37199
3 | 8:16.00 | 3:55.50 | 37200 | 54874
4 | 12:11.50 | 4:32.25 | 54875 | 75299
5 | 16:44.00 | 3:51.25 | 75300 | 92649
6 | 20:35.25 | 4:29.50 | 92650 | 112874
7 | 25:05.00 | 3:44.00 | 112875 | 129674
8 | 28:49.00 | 3:34.47 | 129675 | 145771
9 | 32:23.47 | 3:09.65 | 145772 | 160011
10 | 35:33.37 | 3:09.13 | 160012 | 174199
11 | 38:42.50 | 4:14.00 | 174200 | 193249
Характеристики диапазона извлечения и сообщения об ошибках
Выбранный диапазон
Имя файла C:\temp\Sinner - 1987 - Dangerous Charm - Noise N 0101-3.wav
Пиковый уровень 100.0 %
Скорость извлечения 4.4 X
Качество диапазона 99.9 %
CRC теста 5E8C5DDF
CRC копии 5E8C5DDF
Копирование... OK
Ошибок не произошло
AccurateRip: сводка
Трек 1 : извлечено точно (доверие 2) [7EBA6DD9] (AR v1)
Трек 2 : извлечено точно (доверие 2) [7FE276DB] (AR v1)
Трек 3 : извлечено точно (доверие 2) [EA1F9C32] (AR v1)
Трек 4 точность не определена (достоверность 2) [48924A59], AccurateRip вернул [A8C392B3] (AR v2)
Трек 5 : извлечено точно (доверие 2) [1E6AA564] (AR v1)
Трек 6 : извлечено точно (доверие 2) [AC2F3AC3] (AR v1)
Трек 7 : извлечено точно (доверие 2) [40050C57] (AR v1)
Трек 8 : извлечено точно (доверие 2) [F2B4B38B] (AR v1)
Трек 9 : извлечено точно (доверие 2) [D07A2356] (AR v1)
Трек 10 : извлечено точно (доверие 2) [1C47AE2B] (AR v1)
Трек 11 : извлечено точно (доверие 2) [6E98FC5F] (AR v1)
10 трек(и) скопированы точно
1 трек(и) не удалось проверить на точность
Некоторые треки не прошли проверку на точность
Конец отчёта
==== Контрольная сумма отчёта 6412871B0205DFF91BE24E8203E13288054FC717A20118D994F0B06196886A2E ====

1999 - Comin' Out Fighting & Dangerous Charm [Victor, VICP-60782, Japan]

01. Hypnotized (4:33)
02. Faster Than Light (4:58)
03. Comin' Out Fighting (3:07)
04. Age Of Rock (3:41)
05. Rebel Yell (4:00)
06. Lost In A Minute (2:49)
07. Don't Tell Me (That The Love Is Gone) (4:01)
08. Germany Rocks (4:05)
09. Playing With Fire (3:37)
10. Madhouse (3:45)
11. Concrete Jungle (3:21)
12. Knife In My Heart (4:54)
13. Dangerous Charm (3:56)
14. Everybody (4:32)
15. Tomorrow Doesn't Matter Tonight (4:30)
16. Fight The Fight (3:44)
17. Back In My Arms (3:35)
18. Gipsy (3:11)
19. Last Dance (4:15)
20. Desperate Heart (3:09)

Лог создания рипа

EAC extraction logfile from 5. June 2007, 23:59 for CD
Sinner / Comin out fighting - Dangerous Charm
Used drive : PLEXTOR CD-R PREMIUM Adapter: 1 ID: 0
Read mode : Secure with NO C2, accurate stream, disable cache
Read offset correction : 30
Overread into Lead-In and Lead-Out : No
Used output format : C:\Programmi\Exact Audio Copy\MAC.EXE (Monkey's Audio Lossless Encoder)
High Lossless Compression
Other options :
Fill up missing offset samples with silence : Yes
Delete leading and trailing silent blocks : No
Native Win32 interface for Win NT & 2000
Range status and errors
Selected range
Filename C:\Documents and Settings\oem\Desktop\Sinner - Comin out fighting Dangerous charm\Sinner - Comin out fighting - Dangerous
Charm.wav.wav
Peak level 87.3 %
Range quality 100.0 %
CRC A2E32919
Copy OK
No errors occured
End of status report

2008 - Dangerous Charm [Noise Records, Germany]

01. Concrete Jungle (3:21)
02. Knife In My Heart (4:52)
03. Dangerous Charm (3:57)
04. Everybody Needs Somebody (4:32)
05. Tomorrow Doesn`t Matter Tonight (4:30)
06. Fight The Fight (3:44)
07. Back In My Arms (3:36)
08. Gypsy (3:10)
09. The Last Dance (4:15)
10. Desperate Heart (3:13)

Лог создания рипа

Exact Audio Copy V0.99 prebeta 1 from 25. May 2007
EAC extraction logfile from 25. July 2012, 21:19
Sinner / Dangerous Charm
Used drive : Optiarc DVD RW AD-7201S Adapter: 1 ID: 1
Read mode : Secure
Utilize accurate stream : Yes
Defeat audio cache : Yes
Make use of C2 pointers : No
Read offset correction : 48
Overread into Lead-In and Lead-Out : No
Fill up missing offset samples with silence : Yes
Delete leading and trailing silent blocks : No
Used interface : Installed external ASPI interface
Used output format : Internal WAV Routines
Sample format : 44.100 Hz; 16 Bit; Stereo
TOC of the extracted CD
Track | Start | Length | Start sector | End sector
---------------------------------------------------------
1 | 0:00.00 | 3:21.30 | 0 | 15104
2 | 3:21.30 | 4:52.20 | 15105 | 37024
3 | 8:13.50 | 3:56.60 | 37025 | 54784
4 | 12:10.35 | 4:31.50 | 54785 | 75159
5 | 16:42.10 | 4:30.10 | 75160 | 95419
6 | 21:12.20 | 3:44.00 | 95420 | 112219
7 | 24:56.20 | 3:35.60 | 112220 | 128404
8 | 28:32.05 | 3:10.15 | 128405 | 142669
9 | 31:42.20 | 4:14.50 | 142670 | 161769
10 | 35:56.70 | 3:12.55 | 161770 | 176224
Range status and errors
Selected range
Filename D:\Перезалив Рипы на Darksage\Sinner - Dangerous Charm.wav
Peak level 97.9 %
Range quality 100.0 %
Copy CRC E3DEE569
Copy OK
No errors occurred
End of status report

1990 - Back To The Bullet

1990 - Back To The Bullet [BMG Ariola, 260 949, Germany]

01. Back To The Bullet (2:45)
02. Tear Down The Wall (4:09)
03. Every Second Counts (3:47)
04. Call My Name (5:42)
05. Crazy Horses (3:21)
06. In The Name Of Rock'n'Roll (5:11)
07. Wildest Dreams (3:59)
08. Down Undercover (4:38)
09. Face To Face (4:36)
10. Crying In The Wires (3:34)
11. She's Got The Look (4:20)

Лог создания рипа

Exact Audio Copy V1.0 beta 3 from 29. August 2011
Отчёт EAC об извлечении, выполненном 1. марта 2014, 11:29
Mat Sinner / Back To The Bullet
Дисковод: PIONEER BD-ROM BDCTD03RS Adapter: 0 ID: 1
Режим чтения : Достоверность
Использование точного потока : Да
Отключение кэша аудио : Да
Использование указателей C2 : Нет
Коррекция смещения при чтении : 667
Способность читать области Lead-in и Lead-out : Нет
Заполнение пропущенных сэмплов тишиной : Да
Удаление блоков с тишиной в начале и конце : Нет
При вычислениях CRC использовались нулевые сэмплы : Да
Интерфейс : Установленный внешний ASPI-интерфейс
Выходной формат : Пользовательский кодировщик
Выбранный битрейт : 128 kBit/s
Качество : Высокий
Добавление ID3-тега : Нет
Утилита сжатия : C:\Program Files (x86)\Exact Audio Copy\Flac\flac.exe
Дополнительные параметры : -V -8 -T "Date=%year%" -T "Genre=%genre%" %source%
TOC извлечённого CD
Трек | Старт | Длительность | Начальный сектор | Конечный сектор
---------------------------------------------------------------------
1 | 0:00.33 | 2:45.37 | 33 | 12444
2 | 2:45.70 | 4:09.05 | 12445 | 31124
3 | 6:55.00 | 3:46.65 | 31125 | 48139
4 | 10:41.65 | 5:42.33 | 48140 | 73822
5 | 16:24.23 | 3:20.40 | 73823 | 88862
6 | 19:44.63 | 5:10.55 | 88863 | 112167
7 | 24:55.43 | 3:58.70 | 112168 | 130087
8 | 28:54.38 | 4:37.70 | 130088 | 150932
9 | 33:32.33 | 4:35.72 | 150933 | 171629
10 | 38:08.30 | 3:34.08 | 171630 | 187687
11 | 41:42.38 | 4:19.70 | 187688 | 207182
Характеристики диапазона извлечения и сообщения об ошибках
Выбранный диапазон
Имя файла C:\temp\Mat Sinner - 1990 - Back To The Bullet - BMG Ariola 260 949-222.wav
Пиковый уровень 100.0 %
Скорость извлечения 4.6 X
Качество диапазона 100.0 %
CRC теста 7F397D0C
CRC копии 7F397D0C
Копирование... OK
Ошибок не произошло
AccurateRip: сводка
Трек 1 : извлечено точно (доверие 3) [6136E989] (AR v2)
Трек 2 : извлечено точно (доверие 3) [0179E57D] (AR v2)
Трек 3 : извлечено точно (доверие 3) [28857D81] (AR v2)
Трек 4 : извлечено точно (доверие 3) [509A8B5A] (AR v2)
Трек 5 : извлечено точно (доверие 3) [70BB4E97] (AR v2)
Трек 6 : извлечено точно (доверие 3) [632431BF] (AR v2)
Трек 7 : извлечено точно (доверие 3) [9C10BC6B] (AR v2)
Трек 8 : извлечено точно (доверие 3) [B140FEEB] (AR v2)
Трек 9 : извлечено точно (доверие 3) [108D2D13] (AR v2)
Трек 10 : извлечено точно (доверие 3) [B893DEB8] (AR v2)
Трек 11 : извлечено точно (доверие 3) [872B8B01] (AR v2)
Все треки извлечены точно
Конец отчёта
==== Контрольная сумма отчёта E3D27FAB4E272FF295BB46D90FE52079E8146EA7113BE5F229632454DA81F1AB ====

1990 - Call My Name (CD-Maxi)

01. Call My Name (single version) (4:22)
02. Call My Name (5:41)
03. Back To The Bullet (2:44)
04. She's Got The Look (4:20)

Лог создания рипа

Exact Audio Copy V1.0 beta 3 from 29. August 2011
Отчёт EAC об извлечении, выполненном 1. марта 2014, 12:29
Mat Sinner / Call My Name (CD-Maxi)
Дисковод: PIONEER BD-ROM BDCTD03RS Adapter: 0 ID: 1
Режим чтения : Достоверность
Использование точного потока : Да
Отключение кэша аудио : Да
Использование указателей C2 : Нет
Коррекция смещения при чтении : 667
Способность читать области Lead-in и Lead-out : Нет
Заполнение пропущенных сэмплов тишиной : Да
Удаление блоков с тишиной в начале и конце : Нет
При вычислениях CRC использовались нулевые сэмплы : Да
Интерфейс : Установленный внешний ASPI-интерфейс
Выходной формат : Пользовательский кодировщик
Выбранный битрейт : 128 kBit/s
Качество : Высокий
Добавление ID3-тега : Нет
Утилита сжатия : C:\Program Files (x86)\Exact Audio Copy\Flac\flac.exe
Дополнительные параметры : -V -8 -T "Date=%year%" -T "Genre=%genre%" %source%
TOC извлечённого CD
Трек | Старт | Длительность | Начальный сектор | Конечный сектор
---------------------------------------------------------------------
1 | 0:00.33 | 4:22.17 | 33 | 19699
2 | 4:22.50 | 5:41.13 | 19700 | 45287
3 | 10:03.63 | 2:44.27 | 45288 | 57614
4 | 12:48.15 | 4:20.00 | 57615 | 77114
Характеристики диапазона извлечения и сообщения об ошибках
Выбранный диапазон
Имя файла C:\temp\Mat Sinner - 1990 - Call My Name (CD-Maxi) - BMG Ariola 663 799-211.wav
Пиковый уровень 100.0 %
Скорость извлечения 3.6 X
Качество диапазона 99.9 %
CRC теста 68EDA0AC
CRC копии 68EDA0AC
Копирование... OK
Ошибок не произошло
AccurateRip: сводка
Трек 1 отсутствует в базе данных
Трек 2 отсутствует в базе данных
Трек 3 отсутствует в базе данных
Трек 4 отсутствует в базе данных
Ни одного трека нет в базе AccurateRip
Конец отчёта
==== Контрольная сумма отчёта E83293A46AAC9D648A69B4F56DEB6781152A72EB409B9F92DE7842573EC58AA2 ====

1992 - No More Alibis

1992 - No More Alibis [Mausoleum, 904 008.2, Switzerland]

01. When A Heart Breaks (3:50)
02. Good Times (3:36)
03. Where Were You (5:01)
04. Burning Heart (4:33)
05. Boys In Trouble (4:00)
06. Save Me (3:53)
07. I'm Not Over You Yet (5:13)
08. Thrill Of A Lifetime (5:15)
09. So Excitable (3:30)
10. Don't Wanna Lose You (5:12)
11. Chasing My Dreams (4:38)

Лог создания рипа

Exact Audio Copy V1.0 beta 3 from 29. August 2011
Отчёт EAC об извлечении, выполненном 1. марта 2014, 23:52
Sinner / No More Alibis
Дисковод: PIONEER BD-ROM BDCTD03RS Adapter: 0 ID: 1
Режим чтения : Достоверность
Использование точного потока : Да
Отключение кэша аудио : Да
Использование указателей C2 : Нет
Коррекция смещения при чтении : 667
Способность читать области Lead-in и Lead-out : Нет
Заполнение пропущенных сэмплов тишиной : Да
Удаление блоков с тишиной в начале и конце : Нет
При вычислениях CRC использовались нулевые сэмплы : Да
Интерфейс : Установленный внешний ASPI-интерфейс
Выходной формат : Пользовательский кодировщик
Выбранный битрейт : 128 kBit/s
Качество : Высокий
Добавление ID3-тега : Нет
Утилита сжатия : C:\Program Files (x86)\Exact Audio Copy\Flac\flac.exe
Дополнительные параметры : -V -8 -T "Date=%year%" -T "Genre=%genre%" %source%
TOC извлечённого CD
Трек | Старт | Длительность | Начальный сектор | Конечный сектор
---------------------------------------------------------------------
1 | 0:00.00 | 3:50.00 | 0 | 17249
2 | 3:50.00 | 3:35.50 | 17250 | 33424
3 | 7:25.50 | 5:01.25 | 33425 | 56024
4 | 12:27.00 | 4:33.00 | 56025 | 76499
5 | 17:00.00 | 4:00.00 | 76500 | 94499
6 | 21:00.00 | 3:53.00 | 94500 | 111974
7 | 24:53.00 | 5:13.00 | 111975 | 135449
8 | 30:06.00 | 5:15.00 | 135450 | 159074
9 | 35:21.00 | 3:30.00 | 159075 | 174824
10 | 38:51.00 | 5:12.00 | 174825 | 198224
11 | 44:03.00 | 4:37.60 | 198225 | 219059
Характеристики диапазона извлечения и сообщения об ошибках
Выбранный диапазон
Имя файла C:\temp\Sinner - 1992 - No More Alibis (special limited edition) - Mausoleum 904 008.2.wav
Пиковый уровень 99.9 %
Скорость извлечения 4.6 X
Качество диапазона 100.0 %
CRC теста 181FF86C
CRC копии 181FF86C
Копирование... OK
Ошибок не произошло
AccurateRip: сводка
Трек 1 : извлечено точно (доверие 1) [C4BD1CFD] (AR v2)
Трек 2 : извлечено точно (доверие 1) [EA591764] (AR v2)
Трек 3 : извлечено точно (доверие 1) [3F896002] (AR v2)
Трек 4 : извлечено точно (доверие 1) [43E14C98] (AR v2)
Трек 5 : извлечено точно (доверие 1) [11B63946] (AR v2)
Трек 6 : извлечено точно (доверие 1) [13E33973] (AR v2)
Трек 7 : извлечено точно (доверие 1) [E8FC647C] (AR v2)
Трек 8 : извлечено точно (доверие 1) [6BBD3EF0] (AR v2)
Трек 9 : извлечено точно (доверие 1) [7ACC9AB6] (AR v2)
Трек 10 : извлечено точно (доверие 1) [10230039] (AR v2)
Трек 11 : извлечено точно (доверие 1) [E381E6F9] (AR v2)
Все треки извлечены точно
Конец отчёта
==== Контрольная сумма отчёта 866C8096D9B57C4A5509B735C152D4DA45C658C5F12056559AD65053350B9DED ====

1993 - No More Alibis [Victor, VICP-5228, Japan]

01. When A Heart Breaks (3:50)
02. Good Times (3:35)
03. Where Were You (5:01)
04. Burning Heart (4:33)
05. Boys In Trouble (4:00)
06. Save Me (3:52)
07. I'm Not Over You Yet (5:13)
08. Thrill Of A Lifetime (5:15)
09. So Excitable (3:30)
10. Don't Wanna Lose You (5:12)
11. Chasing My Dreams (4:39)
12. Love Means War (5:43)

Лог создания рипа

Exact Audio Copy V0.99 prebeta 5 from 4. May 2009
EAC extraction logfile from 31. January 2013, 15:51
Unknown Artist / Unknown Title
Used drive : CD-RW GO-R5232B Adapter: 1 ID: 1
Read mode : Secure
Utilize accurate stream : Yes
Defeat audio cache : Yes
Make use of C2 pointers : No
Read offset correction : 6
Overread into Lead-In and Lead-Out : No
Fill up missing offset samples with silence : Yes
Delete leading and trailing silent blocks : No
Null samples used in CRC calculations : Yes
Used interface : Installed external ASPI interface
Used output format : User Defined Encoder
Selected bitrate : 1024 kBit/s
Quality : High
Add ID3 tag : No
Command line compressor : C:\Program Files\Exact Audio Copy\Flac\flac.exe
Additional command line options : -6 -V %s
TOC of the extracted CD
Track | Start | Length | Start sector | End sector
---------------------------------------------------------
1 | 0:00.00 | 3:50.25 | 0 | 17274
2 | 3:50.25 | 3:35.25 | 17275 | 33424
3 | 7:25.50 | 5:01.00 | 33425 | 55999
4 | 12:26.50 | 4:33.20 | 56000 | 76494
5 | 16:59.70 | 4:00.15 | 76495 | 94509
6 | 21:00.10 | 3:52.25 | 94510 | 111934
7 | 24:52.35 | 5:13.35 | 111935 | 135444
8 | 30:05.70 | 5:14.50 | 135445 | 159044
9 | 35:20.45 | 3:30.10 | 159045 | 174804
10 | 38:50.55 | 5:11.55 | 174805 | 198184
11 | 44:02.35 | 4:39.20 | 198185 | 219129
12 | 48:41.55 | 5:42.60 | 219130 | 244839
Range status and errors
Selected range
Filename D:\METALLIUM\[metallium.moole.ru]\Unknown Artist - Unknown Title.wav
Peak level 100.0 %
Range quality 99.9 %
Copy CRC 94371D47
Copy OK
No errors occurred
AccurateRip summary
Track 1 not present in database
Track 2 not present in database
Track 3 not present in database
Track 4 not present in database
Track 5 not present in database
Track 6 not present in database
Track 7 not present in database
Track 8 not present in database
Track 9 not present in database
Track 10 not present in database
Track 11 not present in database
Track 12 not present in database
None of the tracks are present in the AccurateRip database
End of status report

1995 - No More Alibis [Koch Int., 34346-2, Austria]

01. When a Heart Breaks (3:51)
02. Where Were You (4:42)
03. Boys In Trouble (4:00)
04. Burning Heart (4:33)
05. Beds Are Burning (4:21)
06. Thrill Of A Lifetime (5:14)
07. I'm Not Over You Yet (5:13)
08. Good Times (3:36)
09. Save Me (3:52)
10. Chasing My Dreams (4:39)
11. Love Means War (5:37)
12. Rebel At Heart (4:52)
13. Don't Wanna Loose You (4:48)

Лог создания рипа

EAC extraction logfile from 5. June 2007, 23:44 for CD
Sinner / No More Alibis
Used drive : PLEXTOR CD-R PREMIUM Adapter: 1 ID: 0
Read mode : Secure with NO C2, accurate stream, disable cache
Read offset correction : 30
Overread into Lead-In and Lead-Out : No
Used output format : C:\Programmi\Exact Audio Copy\MAC.EXE (Monkey's Audio Lossless Encoder)
High Lossless Compression
Other options :
Fill up missing offset samples with silence : Yes
Delete leading and trailing silent blocks : No
Native Win32 interface for Win NT & 2000
Range status and errors
Selected range
Filename C:\Documents and Settings\oem\Desktop\Sinner - No More Alibis - APE CUE COVERS\Sinner - No More Alibis.wav.wav
Peak level 89.1 %
Range quality 100.0 %
CRC 119CE8B3
Copy OK
No errors occured
End of status report

1993 - Respect

1994 - Respect [Zero Corparation, XRCN-1119, Japany]

01. Respect (5:09)
02. Things Get Started (3:35)
03. Fire In The Dark (4:02)
04. Don't Let This Dream Die Young (4:29)
05. Modern World (4:59)
06. Beds Are Burning (4:22)
07. Little Victory (5:04)
08. Every Little Step (5:31)
09. Believer (3:56)
10. Valley Of Tears (4:02)
11. Shattered Dreams (4:38)
12. Knife In My Heart (4:43)
13. What's So Bad About Feeling Good (4:21)
14. All For One (5:22)
15. Billy's Song (6:07)

Лог создания рипа

Exact Audio Copy V1.3 from 2. September 2016
EAC extraction logfile from 11. April 2017, 7:27
Sinner / Respect [Zero Corparation, XRCN-1119, Japan]
Used drive : ASUS DRW-24B3ST Adapter: 1 ID: 0
Read mode : Secure
Utilize accurate stream : Yes
Defeat audio cache : Yes
Make use of C2 pointers : No
Read offset correction : 6
Overread into Lead-In and Lead-Out : No
Fill up missing offset samples with silence : Yes
Delete leading and trailing silent blocks : No
Null samples used in CRC calculations : Yes
Used interface : Installed external ASPI interface
Used output format : User Defined Encoder
Selected bitrate : 1024 kBit/s
Quality : High
Add ID3 tag : No
Command line compressor : C:\Program Files (x86)\Exact Audio Copy\FLAC\FLAC.EXE
Additional command line options : -V -8 -T "Date=%year%" -T "Genre=%genre%" %source%
TOC of the extracted CD
Track | Start | Length | Start sector | End sector
---------------------------------------------------------
1 | 0:00.00 | 5:08.55 | 0 | 23154
2 | 5:08.55 | 3:34.47 | 23155 | 39251
3 | 8:43.27 | 4:01.63 | 39252 | 57389
4 | 12:45.15 | 4:28.57 | 57390 | 77546
5 | 17:13.72 | 4:59.10 | 77547 | 99981
6 | 22:13.07 | 4:22.15 | 99982 | 119646
7 | 26:35.22 | 5:03.73 | 119647 | 142444
8 | 31:39.20 | 5:30.40 | 142445 | 167234
9 | 37:09.60 | 3:55.60 | 167235 | 184919
10 | 41:05.45 | 4:02.07 | 184920 | 203076
11 | 45:07.52 | 4:38.23 | 203077 | 223949
12 | 49:46.00 | 4:43.17 | 223950 | 245191
13 | 54:29.17 | 4:21.05 | 245192 | 264771
14 | 58:50.22 | 5:22.08 | 264772 | 288929
15 | 64:12.30 | 6:07.20 | 288930 | 316474
Range status and errors
Selected range
Filename C:\CD Rip By deminbek\Sinner - Respect [Zero Corparation, XRCN-1119, Japan].wav
Peak level 100.0 %
Extraction speed 6.6 X
Range quality 100.0 %
Test CRC 7421F9C6
Copy CRC 7421F9C6
Copy OK
No errors occurred
AccurateRip summary
Track 1 accurately ripped (confidence 4) [FA31435B] (AR v2)
Track 2 accurately ripped (confidence 4) [151F54D8] (AR v2)
Track 3 accurately ripped (confidence 4) [F9D80AB0] (AR v2)
Track 4 accurately ripped (confidence 4) [4DFE7BD2] (AR v2)
Track 5 accurately ripped (confidence 4) [20CFCF63] (AR v2)
Track 6 accurately ripped (confidence 4) [4431FF65] (AR v2)
Track 7 accurately ripped (confidence 4) [55F9946B] (AR v2)
Track 8 accurately ripped (confidence 4) [0D0D0D63] (AR v2)
Track 9 accurately ripped (confidence 4) [5CD1A6FB] (AR v2)
Track 10 accurately ripped (confidence 4) [C5534918] (AR v2)
Track 11 accurately ripped (confidence 4) [4AFA9363] (AR v2)
Track 12 accurately ripped (confidence 4) [7DA060C1] (AR v2)
Track 13 accurately ripped (confidence 4) [FD261EB6] (AR v2)
Track 14 accurately ripped (confidence 4) [C2AC3E7C] (AR v2)
Track 15 accurately ripped (confidence 4) [2BAFF1D1] (AR v2)
All tracks accurately ripped
End of status report
---- CUETools DB Plugin V2.1.6
[CTDB TOCID: CPdhYeJBELn6aSFq_TqkqpProEY-] found
Submit result: CPdhYeJBELn6aSFq_TqkqpProEY- has been confirmed
Track | CTDB Status
1 | (11/11) Accurately ripped
2 | (11/11) Accurately ripped
3 | (11/11) Accurately ripped
4 | (11/11) Accurately ripped
5 | (11/11) Accurately ripped
6 | (11/11) Accurately ripped
7 | (11/11) Accurately ripped
8 | (11/11) Accurately ripped
9 | (11/11) Accurately ripped
10 | (11/11) Accurately ripped
11 | (10/11) Accurately ripped
12 | (11/11) Accurately ripped
13 | (11/11) Accurately ripped
14 | (11/11) Accurately ripped
15 | (10/11) Accurately ripped
==== Log checksum 0F099805ECE77749C1E39D657E8C5F8D3FB00F9299DC41A3FEBD31E6F0477F14 ====

1995 - Bottom Line

1995 - Bottom Line [No Bull Rec., 34261-2 PC07, Austria]

01. The Biggest Lie (3:53)
02. Roses Of Yesterday (4:41)
03. When Silence Falls (3:46)
04. All Men Are Heroes (4:15)
05. I Can Stop The Fire (3:40)
06. We'll Make It Alright (4:09)
07. Rage Of A Hurricane (3:19)
08. Mercy Killer (4:37)
09. Dead End Street (3:27)
10. In The Heart Of The Young (5:19)
11. Hearts Of Steel (4:36)
12. Say Goodbye (6:14)

Лог создания рипа

Exact Audio Copy V1.0 beta 3 from 29. August 2011
Отчёт EAC об извлечении, выполненном 1. марта 2014, 16:04
Sinner / Bottom Line
Дисковод: PIONEER BD-ROM BDCTD03RS Adapter: 0 ID: 1
Режим чтения : Достоверность
Использование точного потока : Да
Отключение кэша аудио : Да
Использование указателей C2 : Нет
Коррекция смещения при чтении : 667
Способность читать области Lead-in и Lead-out : Нет
Заполнение пропущенных сэмплов тишиной : Да
Удаление блоков с тишиной в начале и конце : Нет
При вычислениях CRC использовались нулевые сэмплы : Да
Интерфейс : Установленный внешний ASPI-интерфейс
Выходной формат : Пользовательский кодировщик
Выбранный битрейт : 128 kBit/s
Качество : Высокий
Добавление ID3-тега : Нет
Утилита сжатия : C:\Program Files (x86)\Exact Audio Copy\Flac\flac.exe
Дополнительные параметры : -V -8 -T "Date=%year%" -T "Genre=%genre%" %source%
TOC извлечённого CD
Трек | Старт | Длительность | Начальный сектор | Конечный сектор
---------------------------------------------------------------------
1 | 0:00.00 | 3:51.22 | 0 | 17346
2 | 3:51.22 | 4:41.13 | 17347 | 38434
3 | 8:32.35 | 3:45.70 | 38435 | 55379
4 | 12:18.30 | 4:15.15 | 55380 | 74519
5 | 16:33.45 | 3:39.52 | 74520 | 90996
6 | 20:13.22 | 4:08.63 | 90997 | 109659
7 | 24:22.10 | 3:19.35 | 109660 | 124619
8 | 27:41.45 | 4:36.65 | 124620 | 145384
9 | 32:18.35 | 3:27.27 | 145385 | 160936
10 | 35:45.62 | 5:19.23 | 160937 | 184884
11 | 41:05.10 | 4:36.32 | 184885 | 205616
12 | 45:41.42 | 6:14.23 | 205617 | 233689
Характеристики диапазона извлечения и сообщения об ошибках
Выбранный диапазон
Имя файла C:\temp\Sinner - 1995 - Bottom Line - No Bull Records 34261-2 PC07.wav
Пиковый уровень 98.1 %
Скорость извлечения 4.7 X
Качество диапазона 100.0 %
CRC теста EEAFC567
CRC копии EEAFC567
Копирование... OK
Ошибок не произошло
AccurateRip: сводка
Трек 1 : извлечено точно (доверие 3) [D67DE779] (AR v1)
Трек 2 : извлечено точно (доверие 3) [418F075D] (AR v1)
Трек 3 : извлечено точно (доверие 3) [1E142DC4] (AR v1)
Трек 4 : извлечено точно (доверие 3) [D1A123B9] (AR v1)
Трек 5 : извлечено точно (доверие 3) [5E528465] (AR v1)
Трек 6 : извлечено точно (доверие 2) [FE76E827] (AR v1)
Трек 7 : извлечено точно (доверие 3) [5F161B5F] (AR v1)
Трек 8 : извлечено точно (доверие 2) [A4184DFF] (AR v1)
Трек 9 : извлечено точно (доверие 3) [125D5B6E] (AR v1)
Трек 10 : извлечено точно (доверие 2) [CFD32DB1] (AR v1)
Трек 11 : извлечено точно (доверие 2) [ABD2C025] (AR v1)
Трек 12 : извлечено точно (доверие 2) [C4312435] (AR v1)
Все треки извлечены точно
Конец отчёта
==== Контрольная сумма отчёта 3D81FDE16D95D2035DED18944BEF60052EB020C50159EAD38B9FE92E9C6E7AD8 ====

1995 - Bottom Line [Zero Corp., XRCN-1231, Japan]

01. The Biggest Lie (3:52)
02. Roses Of Yesterday (4:41)
03. When Silence Falls (3:46)
04. All Men Are Heroes (4:15)
05. I Can't Stop The Fire (3:40)
06. We'll Make It Allright (4:09)
07. Rage Of A Hurricane (3:19)
08. Mercy Killer (4:37)
09. Dead End Street (3:27)
10. In The Heart Of The Young (5:19)
11. Hearts Of Steel (4:36)
12. Say Goodbye (6:21)
13. Message From Mat Sinner (0:44)

Лог создания рипа

Exact Audio Copy V0.99 prebeta 5 from 4. May 2009
EAC extraction logfile from 2. February 2013, 10:24
Sinner / Bottom Line (Japanese Edition, XRCN-1231)
Used drive : CD-RW GO-R5232B Adapter: 1 ID: 1
Read mode : Secure
Utilize accurate stream : Yes
Defeat audio cache : Yes
Make use of C2 pointers : No
Read offset correction : 6
Overread into Lead-In and Lead-Out : No
Fill up missing offset samples with silence : Yes
Delete leading and trailing silent blocks : No
Null samples used in CRC calculations : Yes
Used interface : Installed external ASPI interface
Used output format : User Defined Encoder
Selected bitrate : 1024 kBit/s
Quality : High
Add ID3 tag : No
Command line compressor : C:\Program Files\Exact Audio Copy\Flac\flac.exe
Additional command line options : -6 -V %s
TOC of the extracted CD
Track | Start | Length | Start sector | End sector
---------------------------------------------------------
1 | 0:00.00 | 3:51.72 | 0 | 17396
2 | 3:51.72 | 4:41.13 | 17397 | 38484
3 | 8:33.10 | 3:45.70 | 38485 | 55429
4 | 12:19.05 | 4:15.15 | 55430 | 74569
5 | 16:34.20 | 3:39.52 | 74570 | 91046
6 | 20:13.72 | 4:08.63 | 91047 | 109709
7 | 24:22.60 | 3:19.35 | 109710 | 124669
8 | 27:42.20 | 4:36.65 | 124670 | 145434
9 | 32:19.10 | 3:27.27 | 145435 | 160986
10 | 35:46.37 | 5:19.23 | 160987 | 184934
11 | 41:05.60 | 4:36.32 | 184935 | 205666
12 | 45:42.17 | 6:20.60 | 205667 | 234226
13 | 52:03.02 | 0:44.08 | 234227 | 237534
Range status and errors
Selected range
Filename D:\METALLIUM\[metallium.moole.ru]\Sinner - Bottom Line (Japanese Edition, XRCN-1231).wav
Peak level 98.1 %
Range quality 99.9 %
Copy CRC 5F788583
Copy OK
No errors occurred
AccurateRip summary
Track 1 not present in database
Track 2 not present in database
Track 3 not present in database
Track 4 not present in database
Track 5 not present in database
Track 6 not present in database
Track 7 not present in database
Track 8 not present in database
Track 9 not present in database
Track 10 not present in database
Track 11 not present in database
Track 12 not present in database
Track 13 not present in database
None of the tracks are present in the AccurateRip database
End of status report

1997 - Judgement Day

1996 - Judgement Day [Zero Corp., XRCN-1286, Japan]

01. Smoke And Mirror (1:42)
02. Used To The Truth (4:59)
03. Blue Tattoo (3:11)
04. White Lightning (4:01)
05. Judgement Day (8:52)
06. Pray For Mercy (4:35)
07. Jump The Gun (4:06)
08. Streets Of Sin (7:24)
09. Deathwalker (3:23)
10. School Of Hard Knocks (5:14)
11. The Fugitive (4:08)
12. Troublemaker (3:54)
13. The River Runs Dry (7:58)

Лог создания рипа

Exact Audio Copy V0.99 prebeta 1 from 25. May 2007
EAC extraction logfile from 25. July 2012, 21:56
Sinner / Judgement Day
Used drive : Optiarc DVD RW AD-7201S Adapter: 1 ID: 1
Read mode : Secure
Utilize accurate stream : Yes
Defeat audio cache : Yes
Make use of C2 pointers : No
Read offset correction : 48
Overread into Lead-In and Lead-Out : No
Fill up missing offset samples with silence : Yes
Delete leading and trailing silent blocks : No
Used interface : Installed external ASPI interface
Used output format : Internal WAV Routines
Sample format : 44.100 Hz; 16 Bit; Stereo
TOC of the extracted CD
Track | Start | Length | Start sector | End sector
---------------------------------------------------------
1 | 0:00.00 | 1:42.05 | 0 | 7654
2 | 1:42.05 | 4:58.65 | 7655 | 30069
3 | 6:40.70 | 3:11.35 | 30070 | 44429
4 | 9:52.30 | 4:00.40 | 44430 | 62469
5 | 13:52.70 | 8:52.10 | 62470 | 102379
6 | 22:45.05 | 4:35.20 | 102380 | 123024
7 | 27:20.25 | 4:06.15 | 123025 | 141489
8 | 31:26.40 | 7:24.20 | 141490 | 174809
9 | 38:50.60 | 3:22.50 | 174810 | 190009
10 | 42:13.35 | 5:13.45 | 190010 | 213529
11 | 47:27.05 | 4:07.50 | 213530 | 232104
12 | 51:34.55 | 3:53.65 | 232105 | 249644
13 | 55:28.45 | 7:57.70 | 249645 | 285489
Range status and errors
Selected range
Filename D:\Перезалив Рипы на Darksage\Sinner - Judgement Day.wav
Peak level 100.0 %
Range quality 100.0 %
Copy CRC A3C3ABC6
Copy OK
No errors occurred
End of status report

1997 - Judgement Day [High Gain Rec., 4 014548 006161, Germany]

01. Used To The Truth (4:59)
02. Troublemaker (3:52)
03. Jump The Gun (4:06)
04. Judgement Day (8:51)
05. Pray For Mercy (4:36)
06. White Lightning (4:00)
07. Blue Tattoo (3:11)
08. School Of Hard Knocks (5:12)
09. The Fugitive (4:09)
10. Deathwalker (3:24)
11. Street Of Sin (9:41)

Лог создания рипа

EAC extraction logfile from 27. December 2006, 22:55 for CD
Sinner / Judgement Day
Used drive : HL-DT-STDVDRAM GSA-4120B Adapter: 1 ID: 0
Read mode : Secure with NO C2, accurate stream, disable cache
Read offset correction : 667
Overread into Lead-In and Lead-Out : No
Used output format : C:\Programmi\wavpack\wavpack.exe (User Defined Encoder)
128 kBit/s
Additional command line options : -hm -w "Cuesheet=@*.cue" -w "Artist=%a" -w "Album=%g" -w "Year=%y" -w "Genre=%m"
%s %d
Other options :
Fill up missing offset samples with silence : Yes
Delete leading and trailing silent blocks : No
Installed external ASPI interface
Range status and errors
Selected range
Filename D:\Cd\To Share\Sinner - 1997 - Judgement Day (Eac-Wv) by Sapo Malo (WWR)\Sinner - Judgement Day.wav.wav
Peak level 90.2 %
Range quality 100.0 %
CRC A25DAB5B
Copy OK
No errors occured
End of status report

2009 - Judgement Day [Metal Mind, MASS CD 1287 DG, Poland]

01. Smoke & Mirror (Introduction) (1:48)
02. Used To The Truth (4:59)
03. Troublemaker (3:52)
04. White Lightning (4:00)
05. Judgement Day (8:51)
06. Jump The Gun (4:06)
07. Streets Of Sin (7:22)
08. Pray For Mercy (4:36)
09. Blue Tattoo (3:11)
10. School Of Hard Knocks (5:12)
11. Deathwalker (3:24)
12. The Fugitive (4:09)
13. The River Runs Dry (bonus track) (7:52)
14. Had Enough (bonus track) (5:15)

Лог создания рипа

Exact Audio Copy V1.0 beta 3 from 29. August 2011
Отчёт EAC об извлечении, выполненном 12. мая 2013, 3:59
Sinner / Judgement Day
Дисковод: ASUS DRW-24B3ST Adapter: 1 ID: 1
Режим чтения : Достоверность
Использование точного потока : Да
Отключение кэша аудио : Да
Использование указателей C2 : Нет
Коррекция смещения при чтении : 6
Способность читать области Lead-in и Lead-out : Нет
Заполнение пропущенных сэмплов тишиной : Да
Удаление блоков с тишиной в начале и конце : Нет
При вычислениях CRC использовались нулевые сэмплы : Да
Интерфейс : Встроенный Win32-интерфейс для Win NT/2000
Выходной формат : Внутренние WAV-операции
Формат сэмплов : 44.100 Гц; 16 бит; стерео
TOC извлечённого CD
Трек | Старт | Длительность | Начальный сектор | Конечный сектор
---------------------------------------------------------------------
1 | 0:00.00 | 1:48.31 | 0 | 8130
2 | 1:48.31 | 4:58.43 | 8131 | 30523
3 | 6:46.74 | 3:51.42 | 30524 | 47890
4 | 10:38.41 | 4:00.10 | 47891 | 65900
5 | 14:38.51 | 8:50.66 | 65901 | 105716
6 | 23:29.42 | 4:06.29 | 105717 | 124195
7 | 27:35.71 | 7:21.74 | 124196 | 157344
8 | 34:57.70 | 4:35.73 | 157345 | 178042
9 | 39:33.68 | 3:11.18 | 178043 | 192385
10 | 42:45.11 | 5:11.53 | 192386 | 215763
11 | 47:56.64 | 3:23.73 | 215764 | 231061
12 | 51:20.62 | 4:08.39 | 231062 | 249700
13 | 55:29.26 | 7:52.21 | 249701 | 285121
14 | 63:21.47 | 5:15.29 | 285122 | 308775
Характеристики диапазона извлечения и сообщения об ошибках
Выбранный диапазон
Имя файла D:\EAC CDRips\Sinner - Judgement Day.wav
Пиковый уровень 98.8 %
Скорость извлечения 9.5 X
Качество диапазона 100.0 %
CRC теста 705BD8D3
CRC копии 705BD8D3
Копирование... OK
Ошибок не произошло
AccurateRip: сводка
Трек 1 отсутствует в базе данных
Трек 2 отсутствует в базе данных
Трек 3 отсутствует в базе данных
Трек 4 отсутствует в базе данных
Трек 5 отсутствует в базе данных
Трек 6 отсутствует в базе данных
Трек 7 отсутствует в базе данных
Трек 8 отсутствует в базе данных
Трек 9 отсутствует в базе данных
Трек 10 отсутствует в базе данных
Трек 11 отсутствует в базе данных
Трек 12 отсутствует в базе данных
Трек 13 отсутствует в базе данных
Трек 14 отсутствует в базе данных
Ни одного трека нет в базе AccurateRip
Конец отчёта
---- CUETools DB Plugin V2.1.4
[CTDB TOCID: 7ZH6iGSha2ndVbo_QIB4yQYh_v4-] found
Submit result: already submitted
Track | CTDB Status
1 | (1/1) Accurately ripped
2 | (1/1) Accurately ripped
3 | (1/1) Accurately ripped
4 | (1/1) Accurately ripped
5 | (1/1) Accurately ripped
6 | (1/1) Accurately ripped
7 | (1/1) Accurately ripped
8 | (1/1) Accurately ripped
9 | (1/1) Accurately ripped
10 | (1/1) Accurately ripped
11 | (1/1) Accurately ripped
12 | (1/1) Accurately ripped
13 | (1/1) Accurately ripped
14 | (1/1) Accurately ripped
==== Контрольная сумма отчёта 767094E4B5C3A67640F1A14B809C095441C018CA0D3F771AD7E76F8BE064CCF6 ====

1998 - The Nature Of Evil

1998 - The Nature Of Evil [Nuclear Blast, NB 324-2, Germany]

01. Devil's River (5:20)
02. A Question Of Honour (7:15)
03. Justice From Hell (4:53)
04. The Nature Of Evil (7:33)
05. Some Truth (Has Better Left Unknown) (3:58)
06. Darksoul (7:21)
07. Faith And Conviction (3:40)
08. Rising (2:25)
09. Walk On The Darkside (4:31)
10. Trust No One (3:09)
11. The Sun Goes Down (6:12)
01. Calm Before The Storm (3:29)
02. Searching For Love (4:42)
03. Twisted Mind (3:35)

Лог создания рипа

Exact Audio Copy V1.0 beta 3 from 29. August 2011
Отчёт EAC об извлечении, выполненном 1. марта 2014, 14:18
Sinner / The Nature Of Evil
Дисковод: PIONEER BD-ROM BDCTD03RS Adapter: 0 ID: 1
Режим чтения : Достоверность
Использование точного потока : Да
Отключение кэша аудио : Да
Использование указателей C2 : Нет
Коррекция смещения при чтении : 667
Способность читать области Lead-in и Lead-out : Нет
Заполнение пропущенных сэмплов тишиной : Да
Удаление блоков с тишиной в начале и конце : Нет
При вычислениях CRC использовались нулевые сэмплы : Да
Интерфейс : Установленный внешний ASPI-интерфейс
Выходной формат : Пользовательский кодировщик
Выбранный битрейт : 128 kBit/s
Качество : Высокий
Добавление ID3-тега : Нет
Утилита сжатия : C:\Program Files (x86)\Exact Audio Copy\Flac\flac.exe
Дополнительные параметры : -V -8 -T "Date=%year%" -T "Genre=%genre%" %source%
TOC извлечённого CD
Трек | Старт | Длительность | Начальный сектор | Конечный сектор
---------------------------------------------------------------------
1 | 0:00.00 | 5:20.01 | 0 | 24000
2 | 5:20.01 | 7:15.25 | 24001 | 56650
3 | 12:35.26 | 4:52.65 | 56651 | 78615
4 | 17:28.16 | 7:32.58 | 78616 | 112573
5 | 25:00.74 | 3:58.20 | 112574 | 130443
6 | 28:59.19 | 7:20.65 | 130444 | 163508
7 | 36:20.09 | 3:40.08 | 163509 | 180016
8 | 40:00.17 | 2:25.02 | 180017 | 190893
9 | 42:25.19 | 4:31.12 | 190894 | 211230
10 | 46:56.31 | 3:08.50 | 211231 | 225380
11 | 50:05.06 | 6:11.66 | 225381 | 253271
Характеристики диапазона извлечения и сообщения об ошибках
Выбранный диапазон
Имя файла C:\temp\Sinner - 1998 - The Nature Of Evil (disc 1) - Nuclear Blast NB 324-2.wav
Пиковый уровень 98.8 %
Скорость извлечения 4.8 X
Качество диапазона 100.0 %
CRC теста BF337494
CRC копии BF337494
Копирование... OK
Ошибок не произошло
AccurateRip: сводка
Трек 1 : извлечено точно (доверие 9) [2C2B97D4] (AR v2)
Трек 2 : извлечено точно (доверие 9) [FC8D6955] (AR v2)
Трек 3 : извлечено точно (доверие 9) [84DB4E9A] (AR v2)
Трек 4 : извлечено точно (доверие 9) [D56EE6AF] (AR v2)
Трек 5 : извлечено точно (доверие 9) [E5B17C88] (AR v2)
Трек 6 : извлечено точно (доверие 9) [CEF104DB] (AR v2)
Трек 7 : извлечено точно (доверие 9) [F0317C0B] (AR v2)
Трек 8 : извлечено точно (доверие 9) [107FCB50] (AR v2)
Трек 9 : извлечено точно (доверие 9) [7641429D] (AR v2)
Трек 10 : извлечено точно (доверие 9) [166E6C4A] (AR v2)
Трек 11 : извлечено точно (доверие 9) [82ECF2FF] (AR v2)
Все треки извлечены точно
Конец отчёта
==== Контрольная сумма отчёта 29978279A776BF1B0903C46072D811D249DB3E80A17E6931587E715FDCF4D4B4 ====
***************************************************************************************************************************
Exact Audio Copy V1.0 beta 3 from 29. August 2011
Отчёт EAC об извлечении, выполненном 3. марта 2014, 10:09
Sinner / The Nature Of Evil
Дисковод: ATAPI iHAS122 W Adapter: 0 ID: 0
Режим чтения : Достоверность
Использование точного потока : Да
Отключение кэша аудио : Да
Использование указателей C2 : Нет
Коррекция смещения при чтении : 48
Способность читать области Lead-in и Lead-out : Нет
Заполнение пропущенных сэмплов тишиной : Да
Удаление блоков с тишиной в начале и конце : Нет
При вычислениях CRC использовались нулевые сэмплы : Да
Интерфейс : Встроенный Win32-интерфейс для Win NT/2000
Выходной формат : Пользовательский кодировщик
Выбранный битрейт : 128 kBit/s
Качество : Высокий
Добавление ID3-тега : Нет
Утилита сжатия : C:\Program Files (x86)\Exact Audio Copy\Flac\flac.exe
Дополнительные параметры : -V -8 -T "Date=%year%" -T "Genre=%genre%" %source%
TOC извлечённого CD
Трек | Старт | Длительность | Начальный сектор | Конечный сектор
---------------------------------------------------------------------
1 | 0:00.00 | 3:29.12 | 0 | 15686
2 | 3:29.12 | 4:41.46 | 15687 | 36807
3 | 8:10.58 | 3:35.15 | 36808 | 52947
Характеристики диапазона извлечения и сообщения об ошибках
Выбранный диапазон
Имя файла C:\temp\Sinner - 1998 - The Nature Of Evil (disc 2) - Nuclear Blast NB 324-2.wav
Пиковый уровень 98.8 %
Скорость извлечения 4.6 X
Качество диапазона 100.0 %
CRC теста 02305E4E
CRC копии 02305E4E
Копирование... OK
Ошибок не произошло
AccurateRip: сводка
Трек 1 : извлечено точно (доверие 6) [E284C066] (AR v2)
Трек 2 : извлечено точно (доверие 6) [FF5C8159] (AR v2)
Трек 3 : извлечено точно (доверие 6) [F5A038F1] (AR v2)
Все треки извлечены точно
Конец отчёта
==== Контрольная сумма отчёта 160D88A819DAFE64133A28FD09AF8C577D012253A812E5B144C0C5DF6804E165 ====

2009 - The Nature Of Evil [Metal Mind, MASS CD 1288 DG, Poland]

01. Devil's River (5:19)
02. A Question Of Honour (7:18)
03. Justice From Hell (4:54)
04. The Nature Of Evil (7:33)
05. Some Truth (Has Better Left Unknown) (3:59)
06. Darksoul (7:22)
07. Faith And Conviction (3:38)
08. Rising (2:26)
09. Walk On The Dark Side (4:31)
10. Trust No One (3:09)
11. The Sun Goes Down (6:15)
12. Calm Before The Storm (3:30)
13. Searching For Your Love (4:42)
14. Twisted Mind (3:34)

Лог создания рипа

Exact Audio Copy V1.0 beta 3 from 29. August 2011
Отчёт EAC об извлечении, выполненном 12. мая 2013, 3:25
Sinner / The Nature Of Evil
Дисковод: ASUS DRW-24B3ST Adapter: 1 ID: 1
Режим чтения : Достоверность
Использование точного потока : Да
Отключение кэша аудио : Да
Использование указателей C2 : Нет
Коррекция смещения при чтении : 6
Способность читать области Lead-in и Lead-out : Нет
Заполнение пропущенных сэмплов тишиной : Да
Удаление блоков с тишиной в начале и конце : Нет
При вычислениях CRC использовались нулевые сэмплы : Да
Интерфейс : Встроенный Win32-интерфейс для Win NT/2000
Выходной формат : Внутренние WAV-операции
Формат сэмплов : 44.100 Гц; 16 бит; стерео
TOC извлечённого CD
Трек | Старт | Длительность | Начальный сектор | Конечный сектор
---------------------------------------------------------------------
1 | 0:00.00 | 5:19.34 | 0 | 23958
2 | 5:19.34 | 7:18.09 | 23959 | 56817
3 | 12:37.43 | 4:53.69 | 56818 | 78861
4 | 17:31.37 | 7:33.12 | 78862 | 112848
5 | 25:04.49 | 3:58.71 | 112849 | 130769
6 | 29:03.45 | 7:21.39 | 130770 | 163883
7 | 36:25.09 | 3:38.34 | 163884 | 180267
8 | 40:03.43 | 2:25.43 | 180268 | 191185
9 | 42:29.11 | 4:31.34 | 191186 | 211544
10 | 47:00.45 | 3:09.29 | 211545 | 225748
11 | 50:09.74 | 6:15.12 | 225749 | 253885
12 | 56:25.11 | 3:30.10 | 253886 | 269645
13 | 59:55.21 | 4:41.43 | 269646 | 290763
14 | 64:36.64 | 3:33.66 | 290764 | 306804
Характеристики диапазона извлечения и сообщения об ошибках
Выбранный диапазон
Имя файла D:\EAC CDRips\Sinner - The Nature Of Evil.wav
Пиковый уровень 98.7 %
Скорость извлечения 9.4 X
Качество диапазона 100.0 %
CRC теста 5074751E
CRC копии 5074751E
Копирование... OK
Ошибок не произошло
AccurateRip: сводка
Трек 1 : извлечено точно (доверие 2) [7DAE21D0] (AR v2)
Трек 2 : извлечено точно (доверие 2) [0CEBBC81] (AR v2)
Трек 3 : извлечено точно (доверие 2) [8A71B025] (AR v2)
Трек 4 : извлечено точно (доверие 2) [126A934A] (AR v2)
Трек 5 : извлечено точно (доверие 2) [FC98B671] (AR v2)
Трек 6 : извлечено точно (доверие 2) [66509234] (AR v2)
Трек 7 : извлечено точно (доверие 2) [2CFA999D] (AR v2)
Трек 8 : извлечено точно (доверие 2) [E3D16163] (AR v2)
Трек 9 : извлечено точно (доверие 2) [06AEEE65] (AR v2)
Трек 10 : извлечено точно (доверие 2) [A0840E29] (AR v2)
Трек 11 : извлечено точно (доверие 2) [0F9556CC] (AR v2)
Трек 12 : извлечено точно (доверие 2) [C234DBD3] (AR v2)
Трек 13 : извлечено точно (доверие 2) [F23D6D7B] (AR v2)
Трек 14 : извлечено точно (доверие 2) [6D6F3D3E] (AR v2)
Все треки извлечены точно
Конец отчёта
---- CUETools DB Plugin V2.1.4
[CTDB TOCID: v26461kJP2hu_adJ_qIA0Z0M0jg-] disk not present in database
Submit result: The operation has timed out
==== Контрольная сумма отчёта 4AC2DA83FE2992700AE52DD413A40458F2C646D9ACA3833B158217317098CC87 ====

2000 - The End Of Sanctuary

2000 - The End Of Sanctuary [Nuclear Blast, NB 471-2, Germany]

01. Signed, Sealed & Delivered (3:26)
02. Blood Relations (3:43)
03. The End Of Sanctuary (5:38)
04. Pain In Your Neck (5:48)
05. Edge Of The Blade (4:32)
06. The Prophecy (4:04)
07. Destiny (6:41)
08. Congress Of Deceit (4:07)
09. Heavy Duty (3:15)
10. Night Of The Wolf (6:37)
11. Broken World (5:35)
12. Hand Of The Saint (3:30)

Лог создания рипа

Exact Audio Copy V1.0 beta 3 from 29. August 2011
Отчёт EAC об извлечении, выполненном 1. марта 2014, 17:33
Sinner / The End Of Sanctuary
Дисковод: PIONEER BD-ROM BDCTD03RS Adapter: 0 ID: 1
Режим чтения : Достоверность
Использование точного потока : Да
Отключение кэша аудио : Да
Использование указателей C2 : Нет
Коррекция смещения при чтении : 667
Способность читать области Lead-in и Lead-out : Нет
Заполнение пропущенных сэмплов тишиной : Да
Удаление блоков с тишиной в начале и конце : Нет
При вычислениях CRC использовались нулевые сэмплы : Да
Интерфейс : Установленный внешний ASPI-интерфейс
Выходной формат : Пользовательский кодировщик
Выбранный битрейт : 128 kBit/s
Качество : Высокий
Добавление ID3-тега : Нет
Утилита сжатия : C:\Program Files (x86)\Exact Audio Copy\Flac\flac.exe
Дополнительные параметры : -V -8 -T "Date=%year%" -T "Genre=%genre%" %source%
TOC извлечённого CD
Трек | Старт | Длительность | Начальный сектор | Конечный сектор
---------------------------------------------------------------------
1 | 0:00.00 | 3:25.68 | 0 | 15442
2 | 3:25.68 | 3:42.71 | 15443 | 32163
3 | 7:08.64 | 5:38.09 | 32164 | 57522
4 | 12:46.73 | 5:47.67 | 57523 | 83614
5 | 18:34.65 | 4:32.18 | 83615 | 104032
6 | 23:07.08 | 4:04.32 | 104033 | 122364
7 | 27:11.40 | 6:40.56 | 122365 | 152420
8 | 33:52.21 | 4:07.32 | 152421 | 170977
9 | 37:59.53 | 3:14.47 | 170978 | 185574
10 | 41:14.25 | 6:37.23 | 185575 | 215372
11 | 47:51.48 | 5:34.45 | 215373 | 240467
12 | 53:26.18 | 3:29.66 | 240468 | 256208
Характеристики диапазона извлечения и сообщения об ошибках
Выбранный диапазон
Имя файла C:\temp\Sinner - 2000 - The End Of Sanctuary (digipack) - Nuclear Blast NB 471-2.wav
Пиковый уровень 98.8 %
Скорость извлечения 4.8 X
Качество диапазона 100.0 %
CRC теста 07E6B624
CRC копии 07E6B624
Копирование... OK
Ошибок не произошло
AccurateRip: сводка
Трек 1 : извлечено точно (доверие 9) [807ED756] (AR v2)
Трек 2 : извлечено точно (доверие 9) [07286A3B] (AR v2)
Трек 3 : извлечено точно (доверие 9) [377CEBFC] (AR v2)
Трек 4 : извлечено точно (доверие 9) [203A1A41] (AR v2)
Трек 5 : извлечено точно (доверие 9) [636420DB] (AR v2)
Трек 6 : извлечено точно (доверие 9) [6CE235A0] (AR v2)
Трек 7 : извлечено точно (доверие 9) [5B9803DC] (AR v2)
Трек 8 : извлечено точно (доверие 9) [8B414CE4] (AR v2)
Трек 9 : извлечено точно (доверие 9) [DABC8A5E] (AR v2)
Трек 10 : извлечено точно (доверие 9) [40EAFDBC] (AR v2)
Трек 11 : извлечено точно (доверие 9) [24CA33BE] (AR v2)
Трек 12 : извлечено точно (доверие 9) [60E6C940] (AR v2)
Все треки извлечены точно
Конец отчёта
==== Контрольная сумма отчёта 84AFD933EBB1D3F6EB7812581A9D2231734337473CAA379281EFC83F2894FD51 ====

2000 - The End Of Sanctuary [Victor, VICP-60993, Japan]

01. Signed, Sealed & Delivered (3:28)
02. Blood Relations (3:45)
03. The End of Sanctuary (5:40)
04. Pain in your Neck (5:50)
05. Edge of the Blade (4:34)
06. The Prophecy (4:06)
07. Destiny (6:43)
08. Congress of Deceit (4:09)
09. Heavy Duty (3:17)
10. Night of the Wolf (6:39)
11. Broken World (5:37)
12. Hand of the Saint (3:31)
13. The Truth is Out There (Bonus) (3:55)

Лог создания рипа

Exact Audio Copy V1.0 beta 3 from 29. August 2011
Отчёт EAC об извлечении, выполненном 24. января 2014, 17:38
Sinner / The End Of Sanctuary (Japanese Edition)
Дисковод: ASUS DRW-24B3ST Adapter: 1 ID: 1
Режим чтения : Достоверность
Использование точного потока : Да
Отключение кэша аудио : Да
Использование указателей C2 : Нет
Коррекция смещения при чтении : 6
Способность читать области Lead-in и Lead-out : Нет
Заполнение пропущенных сэмплов тишиной : Да
Удаление блоков с тишиной в начале и конце : Нет
При вычислениях CRC использовались нулевые сэмплы : Да
Интерфейс : Встроенный Win32-интерфейс для Win NT/2000
Выходной формат : Внутренние WAV-операции
Формат сэмплов : 44.100 Гц; 16 бит; стерео
TOC извлечённого CD
Трек | Старт | Длительность | Начальный сектор | Конечный сектор
---------------------------------------------------------------------
1 | 0:00.00 | 3:28.30 | 0 | 15629
2 | 3:28.30 | 3:44.72 | 15630 | 32501
3 | 7:13.27 | 5:40.10 | 32502 | 58011
4 | 12:53.37 | 5:50.08 | 58012 | 84269
5 | 18:43.45 | 4:34.00 | 84270 | 104819
6 | 23:17.45 | 4:06.32 | 104820 | 123301
7 | 27:24.02 | 6:42.55 | 123302 | 153506
8 | 34:06.57 | 4:09.33 | 153507 | 172214
9 | 38:16.15 | 3:16.47 | 172215 | 186961
10 | 41:32.62 | 6:39.23 | 186962 | 216909
11 | 48:12.10 | 5:36.45 | 216910 | 242154
12 | 53:48.55 | 3:31.37 | 242155 | 258016
13 | 57:20.17 | 3:54.68 | 258017 | 275634
Характеристики диапазона извлечения и сообщения об ошибках
Выбранный диапазон
Имя файла D:\EAC CDRips\Sinner - The End Of Sanctuary (Japanese Edition).wav
Пиковый уровень 98.8 %
Скорость извлечения 8.7 X
Качество диапазона 100.0 %
CRC теста E7E0F46A
CRC копии E7E0F46A
Копирование... OK
Ошибок не произошло
AccurateRip: сводка
Трек 1 : извлечено точно (доверие 1) [CB01BB46] (AR v2)
Трек 2 : извлечено точно (доверие 1) [101CC756] (AR v2)
Трек 3 : извлечено точно (доверие 1) [C495172F] (AR v2)
Трек 4 : извлечено точно (доверие 1) [198E8FCF] (AR v2)
Трек 5 : извлечено точно (доверие 1) [BBDD8F59] (AR v2)
Трек 6 : извлечено точно (доверие 1) [909FFA13] (AR v2)
Трек 7 : извлечено точно (доверие 1) [39212D8D] (AR v2)
Трек 8 : извлечено точно (доверие 1) [20F115FA] (AR v2)
Трек 9 : извлечено точно (доверие 1) [8CB9E684] (AR v2)
Трек 10 : извлечено точно (доверие 1) [1E581B35] (AR v2)
Трек 11 : извлечено точно (доверие 1) [C6610AB3] (AR v2)
Трек 12 : извлечено точно (доверие 1) [EE50A3CE] (AR v2)
Трек 13 : извлечено точно (доверие 1) [7BB9945E] (AR v2)
Все треки извлечены точно
Конец отчёта
---- CUETools DB Plugin V2.1.4
[CTDB TOCID: BAbFaNIir_k9ltbu2hmVD36Sw58-] disk not present in database
Submit result: BAbFaNIir_k9ltbu2hmVD36Sw58- has been uploaded
==== Контрольная сумма отчёта A6738F4EFDD392C8F5AB9A1D0D537A2E2E632A582EADBD90D089FF1C3810A5D6 ====

2003 - There Will Be Execution

2003 - There Will Be Execution [Nuclear Blast, NB 1035-2, Germany]

01. Higher Level Of Violence (3:18)
02. There Will Be Execution (3:34)
03. Requiem For A Sinner (3:05)
04. Die On Command (4:47)
05. Finalizer (4:39)
06. Locked And Loaded (5:18)
07. God Raises The Dead (4:47)
08. The River (4:26)
09. Liberty Of Death (3:50)
10. Black Monday (4:23)
11. Crown Of Thorns (3:30)
12. Wherever I May Roam (Bonus Track) (5:18)
13. Troublemaker (Bonus Track) (3:54)
14. Roses Of Yesterday (Bonus Track) (5:09)

Лог создания рипа

EAC extraction logfile from 12. July 2005, 22:44 for CD
Sinner / There Will Be Execution
Used drive : TOSHIBA DVD-ROM SD-M1912 Adapter: 1 ID: 1
Read mode : Secure with NO C2, accurate stream, disable cache
Read offset correction : 12
Overread into Lead-In and Lead-Out : No
Used output format : Monkey's Audio Lossless Encoder v3.97 DLL
Fast Lossless Compression
Other options :
Fill up missing offset samples with silence : Yes
Delete leading and trailing silent blocks : No
Native Win32 interface for Win NT & 2000
Range status and errors
Selected range
Filename C:\Temp\Sinner - There Will Be Execution + Bonus\Sinner - There Will Be Execution + Bonus.ape
Peak level 98.9 %
Range quality 99.9 %
CRC CCEFC0A2
Copy OK
No errors occured
End of status report

2009 - There Will Be Execution [Metal Mind, MASS CD 1289 DG, Poland]

01. Higher Level Of Violence (3:16)
02. There Will Be Execution (3:32)
03. Requiem For A Sinner (3:02)
04. Die On Command (4:45)
05. Finalizer (4:37)
06. Locked And Loaded (5:13)
07. God Raises The Dead (4:44)
08. The River (4:23)
09. Liberty Of Death (3:45)
10. Black Monday (4:21)
11. Crown Of Thorns (2:49)
12. Wherever I May Roam (5:17)
13. Balls To The Wall (5:40)
14. The Truth Is Out There (3:55)

Лог создания рипа

Exact Audio Copy V1.0 beta 3 from 29. August 2011
Отчёт EAC об извлечении, выполненном 17. мая 2013, 0:27
Sinner / There Will Be Execution
Дисковод: ASUS DRW-24B3ST Adapter: 1 ID: 1
Режим чтения : Достоверность
Использование точного потока : Да
Отключение кэша аудио : Да
Использование указателей C2 : Нет
Коррекция смещения при чтении : 6
Способность читать области Lead-in и Lead-out : Нет
Заполнение пропущенных сэмплов тишиной : Да
Удаление блоков с тишиной в начале и конце : Нет
При вычислениях CRC использовались нулевые сэмплы : Да
Интерфейс : Встроенный Win32-интерфейс для Win NT/2000
Выходной формат : Внутренние WAV-операции
Формат сэмплов : 44.100 Гц; 16 бит; стерео
TOC извлечённого CD
Трек | Старт | Длительность | Начальный сектор | Конечный сектор
---------------------------------------------------------------------
1 | 0:00.00 | 3:16.34 | 0 | 14733
2 | 3:16.34 | 3:32.14 | 14734 | 30647
3 | 6:48.48 | 3:02.22 | 30648 | 44319
4 | 9:50.70 | 4:44.54 | 44320 | 65673
5 | 14:35.49 | 4:36.54 | 65674 | 86427
6 | 19:12.28 | 5:13.04 | 86428 | 109906
7 | 24:25.32 | 4:44.11 | 109907 | 131217
8 | 29:09.43 | 4:22.44 | 131218 | 150911
9 | 33:32.12 | 3:45.12 | 150912 | 167798
10 | 37:17.24 | 4:21.16 | 167799 | 187389
11 | 41:38.40 | 2:48.64 | 187390 | 200053
12 | 44:27.29 | 5:16.52 | 200054 | 223805
13 | 49:44.06 | 5:40.20 | 223806 | 249325
14 | 55:24.26 | 3:55.09 | 249326 | 266959
Характеристики диапазона извлечения и сообщения об ошибках
Выбранный диапазон
Имя файла D:\EAC CDRips\Sinner - There Will Be Execution.wav
Пиковый уровень 98.8 %
Скорость извлечения 9.1 X
Качество диапазона 100.0 %
CRC теста B8B52F76
CRC копии B8B52F76
Копирование... OK
Ошибок не произошло
AccurateRip: сводка
Трек 1 : извлечено точно (доверие 1) [7F179C46] (AR v1)
Трек 2 : извлечено точно (доверие 1) [DED84C01] (AR v1)
Трек 3 : извлечено точно (доверие 1) [206A2514] (AR v1)
Трек 4 : извлечено точно (доверие 1) [B2251C59] (AR v1)
Трек 5 : извлечено точно (доверие 1) [6DA75327] (AR v1)
Трек 6 : извлечено точно (доверие 1) [11E8661D] (AR v1)
Трек 7 : извлечено точно (доверие 1) [2C3DA30C] (AR v1)
Трек 8 : извлечено точно (доверие 1) [4F9196DB] (AR v1)
Трек 9 : извлечено точно (доверие 1) [90635F2E] (AR v1)
Трек 10 : извлечено точно (доверие 1) [814ED6CD] (AR v1)
Трек 11 : извлечено точно (доверие 1) [93C80900] (AR v1)
Трек 12 : извлечено точно (доверие 1) [AE744770] (AR v1)
Трек 13 : извлечено точно (доверие 1) [45F27167] (AR v1)
Трек 14 : извлечено точно (доверие 1) [2F5B5272] (AR v1)
Все треки извлечены точно
Конец отчёта
---- CUETools DB Plugin V2.1.4
[CTDB TOCID: 1D3tQMOGLAK5geiwMlM0DZGY2xc-] disk not present in database
Submit result: The request was aborted: The request was canceled.
==== Контрольная сумма отчёта 944854BC62BCE259C9C0DE17108B37957EA6604083971A93E3A3C52E50A7879A ====

To download the file disable ad blocking, and reload the page.

disable adblock How to disable ad blocking?

Download by magnet link 17.52 GB Download Torrent

Login using:

Загрузка...

Similar topics

(Heavy Metal) Mat Sinner - The HeaT - 1994, MP3 (tracks), 320 kbps
 90 MB   0 | 0   31-Jul-18 21:40   4
(Thrash, Heavy Metal) 19TilDawn - Summer of Silence - 2018, MP3, 320 kbps
 92 MB   0 | 0   24-Jul-18 07:50   0
(Heavy Metal) Garden Of Sinners - Truthsayers - 2018, MP3, 320 kbps
 128 MB   0 | 0   20-May-18 19:35   4
(Heavy Metal) Bridge Of Diod - Of Sinners And Madmen - 2017, MP3, 320 kbps
 114 MB   0 | 0   01-Dec-17 03:15   0


   
Current time is: 16-Dec 06:08 :: All times are UTC + 3