Holy Mother / Criminal Afterlife
Жанр: Heavy Metal
Носитель: CD
Страна-производитель диска (релиза): Germany
Год издания: 1999
Издатель (лейбл): a.b.s. today
Номер по каталогу: 211
Страна исполнителя (группы): USA
Аудиокодек: FLAC (*.flac)
Тип рипа: image+.cue
Битрейт аудио: lossless
Продолжительность: 43:01.000 (113 822 100 samples)
Источник (релизер): ********
Наличие сканов в содержимом раздачи: да
Треклист:
1 The Rage 3:39
2 Criminal Afterlife 4:28
3 Holy Diver (Dio cover) 4:11
4 Cycle Of The Sun 3:25
5 Call The Ghost 3:33
6 The Memory Dies 4:11
7 Armageddon, Part 1 3:27
8 Armageddon, Part 2 1:17
9 Turned In Your Gun 2:54
10 What If Tomorrow Never Comes 3:36
11 Lies... 3:46
12 Life In Stone 4:34

Лог создания рипа

Отчёт EAC об извлечении, выполненном 27. сентября 2009, 23:36 для диска:
Holy Mother / Criminal Afterlife
Дисковод: Optiarc DVD RW AD-7203A Adapter: 2 ID: 0
Режим чтения: Достоверный (C2: нет, Точный поток: да, Отключение кэша: да)
Коррекция смещения при чтении: 48
Способность читать области Lead-in и Lead-out : Нет
Выходной формат: Внутренние WAV-операции
44.100 Гц; 16 бит; стерео
Другие параметры:
Заполнение пропущенных сэмплов тишиной : Да
Удаление блоков с тишиной в начале и конце : Нет
Установленный внешний ASPI-интерфейс
Характеристики диапазона извлечения и сообщения об ошибках
Выбранный диапазон
Имя файла D:\My Music\Holy Mother\Holy Mother - Criminal Afterlife.wav
Пиковый уровень 98.4 %
Качество диапазона 99.9 %
CRC 6DC541DE
Копирование... OK
Ошибок не произошло
Конец отчёта

Содержание индексной карты (.CUE)

REM GENRE "US Power Metal"
REM DATE 1999
REM DISCID A80A150C
REM COMMENT "ExactAudioCopy v0.95b4"
PERFORMER "Holy Mother"
TITLE "Criminal Afterlife"
FILE "Holy Mother - Criminal Afterlife.flac" WAVE
TRACK 01 AUDIO
TITLE "The Rage"
PERFORMER "Holy Mother"
INDEX 01 00:00:00
TRACK 02 AUDIO
TITLE "Criminal Afterlife"
PERFORMER "Holy Mother"
INDEX 00 03:39:07
INDEX 01 03:39:40
TRACK 03 AUDIO
TITLE "Holy Diver"
PERFORMER "Holy Mother"
INDEX 00 08:06:60
INDEX 01 08:07:25
TRACK 04 AUDIO
TITLE "Cycle Of The Sun"
PERFORMER "Holy Mother"
INDEX 00 12:17:67
INDEX 01 12:18:42
TRACK 05 AUDIO
TITLE "Call The Ghost"
PERFORMER "Holy Mother"
INDEX 00 15:42:60
INDEX 01 15:43:22
TRACK 06 AUDIO
TITLE "The Memory Dies"
PERFORMER "Holy Mother"
INDEX 00 19:15:62
INDEX 01 19:16:15
TRACK 07 AUDIO
TITLE "Armageddon pt. 1"
PERFORMER "Holy Mother"
INDEX 00 23:26:27
INDEX 01 23:27:10
TRACK 08 AUDIO
TITLE "Armageddon pt. 2"
PERFORMER "Holy Mother"
INDEX 01 26:54:45
TRACK 09 AUDIO
TITLE "Turned In Your Gun"
PERFORMER "Holy Mother"
INDEX 00 28:10:15
INDEX 01 28:11:12
TRACK 10 AUDIO
TITLE "What If Tomorrow Never Comes"
PERFORMER "Holy Mother"
INDEX 00 31:04:60
INDEX 01 31:05:07
TRACK 11 AUDIO
TITLE "Lies..."
PERFORMER "Holy Mother"
INDEX 00 34:41:42
INDEX 01 34:41:72
TRACK 12 AUDIO
TITLE "Life in Stone"
PERFORMER "Holy Mother"
INDEX 00 38:26:34
INDEX 01 38:27:15

To download the file disable ad blocking, and reload the page.

disable adblock How to disable ad blocking?

Download by magnet link 353 MB Download Torrent

Login using:

Загрузка...

Similar topics

(Heavy Metal) Holy Danger - One Way - 1986, MP3, 128 kbps
 39 MB   0 | 0   12-May-18 17:15   0


   
Current time is: 16-Dec 13:42 :: All times are UTC + 3