Holy Mother / Holy Mother
Жанр: Heavy Metal
Носитель: CD
Страна-производитель диска (релиза): Germany
Год издания: 1995
Издатель (лейбл): Cream Records
Номер по каталогу: CREAM 002
Страна исполнителя (группы): USA
Аудиокодек: FLAC (*.flac)
Тип рипа: image+.cue
Битрейт аудио: lossless
Продолжительность: 47:18.293 (125 168 736 samples)
Источник (релизер): ********
Наличие сканов в содержимом раздачи: да
Треклист:
Call Me By My Real Name
Eden
The Train
In Our Minds
Say Goodbye
The Innocent Only
Your Song
Indian Summer
Dealin' With Me
Rage
Kayla

Лог создания рипа

Отчёт EAC об извлечении, выполненном 28. сентября 2009, 5:03 для диска:
Holy Mother / Holy Mother
Дисковод: Optiarc DVD RW AD-7203A Adapter: 2 ID: 0
Режим чтения: Достоверный (C2: нет, Точный поток: да, Отключение кэша: да)
Коррекция смещения при чтении: 48
Способность читать области Lead-in и Lead-out : Нет
Выходной формат: Внутренние WAV-операции
44.100 Гц; 16 бит; стерео
Другие параметры:
Заполнение пропущенных сэмплов тишиной : Да
Удаление блоков с тишиной в начале и конце : Нет
Установленный внешний ASPI-интерфейс
Характеристики диапазона извлечения и сообщения об ошибках
Выбранный диапазон
Имя файла D:\My Music\Holy Mother\CD image WAV\Holy Mother - Holy Mother.wav
Пиковый уровень 99.5 %
Качество диапазона 100.0 %
CRC 574DC5E4
Копирование... OK
Ошибок не произошло
Конец отчёта

Содержание индексной карты (.CUE)

REM GENRE "US Power Metal"
REM DATE 1995
REM DISCID 910B160B
REM COMMENT "ExactAudioCopy v0.95b4"
PERFORMER "Holy Mother"
TITLE "Holy Mother"
FILE "Holy Mother - Holy Mother.flac" WAVE
TRACK 01 AUDIO
TITLE "Call Me By My Real Name"
PERFORMER "Holy Mother"
INDEX 00 00:00:00
INDEX 01 00:00:50
TRACK 02 AUDIO
TITLE "Eden"
PERFORMER "Holy Mother"
INDEX 00 04:10:70
INDEX 01 04:11:50
TRACK 03 AUDIO
TITLE "The Train"
PERFORMER "Holy Mother"
INDEX 00 09:12:35
INDEX 01 09:13:50
TRACK 04 AUDIO
TITLE "In Our Minds"
PERFORMER "Holy Mother"
INDEX 00 13:20:67
INDEX 01 13:22:50
TRACK 05 AUDIO
TITLE "Say Goodbye"
PERFORMER "Holy Mother"
INDEX 00 17:54:52
INDEX 01 17:55:50
TRACK 06 AUDIO
TITLE "The Innocent Only"
PERFORMER "Holy Mother"
INDEX 00 20:38:20
INDEX 01 20:39:50
TRACK 07 AUDIO
TITLE "Your Song"
PERFORMER "Holy Mother"
INDEX 00 24:58:00
INDEX 01 25:00:50
TRACK 08 AUDIO
TITLE "Indian Summer"
PERFORMER "Holy Mother"
INDEX 00 29:48:30
INDEX 01 29:50:50
TRACK 09 AUDIO
TITLE "Dealin' With Me"
PERFORMER "Holy Mother"
INDEX 00 33:14:12
INDEX 01 33:15:50
TRACK 10 AUDIO
TITLE "Rage"
PERFORMER "Holy Mother"
INDEX 00 38:39:62
INDEX 01 38:42:50
TRACK 11 AUDIO
TITLE "Kayla"
PERFORMER "Holy Mother"
INDEX 00 43:01:15
INDEX 01 43:02:50

To download the file disable ad blocking, and reload the page.

disable adblock How to disable ad blocking?

Download by magnet link 338 MB Download Torrent

Login using:

Similar topics

(Heavy Metal) Holy Danger - One Way - 1986, MP3, 128 kbps
 39 MB   0 | 0   12-May-18 14:15   0


   
Current time is: 23-Oct 08:34 :: All times are UTC ± 0